  0
SECTION
  2
HEADER
  9
$ACADVER
  1
AC1024
  9
$ACADMAINTVER
 70
   109
  9
$DWGCODEPAGE
  3
ANSI_1252
  9
$LASTSAVEDBY
  1
Administrator
  9
$INSBASE
 10
0.0
 20
0.0
 30
0.0
  9
$EXTMIN
 10
-19405.39727344607
 20
-26379.4662749811
 30
0.0
  9
$EXTMAX
 10
51384.98669946566
 20
5605.556371055058
 30
0.0
  9
$LIMMIN
 10
0.0
 20
0.0
  9
$LIMMAX
 10
420.0
 20
297.0
  9
$ORTHOMODE
 70
     0
  9
$REGENMODE
 70
     1
  9
$FILLMODE
 70
     1
  9
$QTEXTMODE
 70
     0
  9
$MIRRTEXT
 70
     0
  9
$LTSCALE
 40
1.5
  9
$ATTMODE
 70
     1
  9
$TEXTSIZE
 40
2.5
  9
$TRACEWID
 40
1.0
  9
$TEXTSTYLE
  7
Standard
  9
$CLAYER
  8
0
  9
$CELTYPE
  6
ByLayer
  9
$CECOLOR
 62
   256
  9
$CELTSCALE
 40
1.0
  9
$DISPSILH
 70
     0
  9
$DIMSCALE
 40
1.0
  9
$DIMASZ
 40
15.0
  9
$DIMEXO
 40
5.0
  9
$DIMDLI
 40
5.0
  9
$DIMRND
 40
0.0
  9
$DIMDLE
 40
0.0
  9
$DIMEXE
 40
1.25
  9
$DIMTP
 40
0.0
  9
$DIMTM
 40
0.0
  9
$DIMTXT
 40
30.0
  9
$DIMCEN
 40
0.0
  9
$DIMTSZ
 40
0.0
  9
$DIMTOL
 70
     0
  9
$DIMLIM
 70
     0
  9
$DIMTIH
 70
     0
  9
$DIMTOH
 70
     0
  9
$DIMSE1
 70
     0
  9
$DIMSE2
 70
     0
  9
$DIMTAD
 70
     1
  9
$DIMZIN
 70
     8
  9
$DIMBLK
  1

  9
$DIMASO
 70
     1
  9
$DIMSHO
 70
     1
  9
$DIMPOST
  1

  9
$DIMAPOST
  1

  9
$DIMALT
 70
     0
  9
$DIMALTD
 70
     3
  9
$DIMALTF
 40
0.03937007874016
  9
$DIMLFAC
 40
1.0
  9
$DIMTOFL
 70
     1
  9
$DIMTVP
 40
0.0
  9
$DIMTIX
 70
     0
  9
$DIMSOXD
 70
     0
  9
$DIMSAH
 70
     0
  9
$DIMBLK1
  1

  9
$DIMBLK2
  1

  9
$DIMSTYLE
  2
ISO-25
  9
$DIMCLRD
 70
     0
  9
$DIMCLRE
 70
     0
  9
$DIMCLRT
 70
     0
  9
$DIMTFAC
 40
1.0
  9
$DIMGAP
 40
15.0
  9
$DIMJUST
 70
     0
  9
$DIMSD1
 70
     0
  9
$DIMSD2
 70
     0
  9
$DIMTOLJ
 70
     0
  9
$DIMTZIN
 70
     8
  9
$DIMALTZ
 70
     0
  9
$DIMALTTZ
 70
     0
  9
$DIMUPT
 70
     0
  9
$DIMDEC
 70
     2
  9
$DIMTDEC
 70
     2
  9
$DIMALTU
 70
     2
  9
$DIMALTTD
 70
     3
  9
$DIMTXSTY
  7
Standard
  9
$DIMAUNIT
 70
     0
  9
$DIMADEC
 70
     1
  9
$DIMALTRND
 40
0.0
  9
$DIMAZIN
 70
     0
  9
$DIMDSEP
 70
    44
  9
$DIMATFIT
 70
     3
  9
$DIMFRAC
 70
     0
  9
$DIMLDRBLK
  1

  9
$DIMLUNIT
 70
     2
  9
$DIMLWD
 70
    -2
  9
$DIMLWE
 70
    -2
  9
$DIMTMOVE
 70
     0
  9
$DIMFXL
 40
1.0
  9
$DIMFXLON
 70
     0
  9
$DIMJOGANG
 40
0.7853981633974483
  9
$DIMTFILL
 70
     0
  9
$DIMTFILLCLR
 70
     0
  9
$DIMARCSYM
 70
     0
  9
$DIMLTYPE
  6

  9
$DIMLTEX1
  6

  9
$DIMLTEX2
  6

  9
$DIMTXTDIRECTION
 70
     0
  9
$LUNITS
 70
     2
  9
$LUPREC
 70
     4
  9
$SKETCHINC
 40
1.0
  9
$FILLETRAD
 40
26.2
  9
$AUNITS
 70
     0
  9
$AUPREC
 70
     0
  9
$MENU
  1
.
  9
$ELEVATION
 40
0.0
  9
$PELEVATION
 40
0.0
  9
$THICKNESS
 40
0.0
  9
$LIMCHECK
 70
     0
  9
$CHAMFERA
 40
0.0
  9
$CHAMFERB
 40
0.0
  9
$CHAMFERC
 40
0.0
  9
$CHAMFERD
 40
0.0
  9
$SKPOLY
 70
     0
  9
$TDCREATE
 40
2453649.352115521
  9
$TDUCREATE
 40
2453649.352115521
  9
$TDUPDATE
 40
2456169.072643762
  9
$TDUUPDATE
 40
2456169.072643762
  9
$TDINDWG
 40
1464.9655377431
  9
$TDUSRTIMER
 40
1464.9655330440
  9
$USRTIMER
 70
     1
  9
$ANGBASE
 50
0.0
  9
$ANGDIR
 70
     0
  9
$PDMODE
 70
     0
  9
$PDSIZE
 40
0.0
  9
$PLINEWID
 40
0.0
  9
$SPLFRAME
 70
     0
  9
$SPLINETYPE
 70
     6
  9
$SPLINESEGS
 70
     8
  9
$HANDSEED
  5
1F337
  9
$SURFTAB1
 70
     6
  9
$SURFTAB2
 70
     6
  9
$SURFTYPE
 70
     6
  9
$SURFU
 70
     6
  9
$SURFV
 70
     6
  9
$UCSBASE
  2

  9
$UCSNAME
  2

  9
$UCSORG
 10
20135.92273348905
 20
3420.432723209263
 30
0.0
  9
$UCSXDIR
 10
1.0
 20
0.0
 30
0.0
  9
$UCSYDIR
 10
0.0
 20
1.0
 30
0.0
  9
$UCSORTHOREF
  2

  9
$UCSORTHOVIEW
 70
     0
  9
$UCSORGTOP
 10
0.0
 20
0.0
 30
0.0
  9
$UCSORGBOTTOM
 10
0.0
 20
0.0
 30
0.0
  9
$UCSORGLEFT
 10
0.0
 20
0.0
 30
0.0
  9
$UCSORGRIGHT
 10
0.0
 20
0.0
 30
0.0
  9
$UCSORGFRONT
 10
0.0
 20
0.0
 30
0.0
  9
$UCSORGBACK
 10
0.0
 20
0.0
 30
0.0
  9
$PUCSBASE
  2

  9
$PUCSNAME
  2

  9
$PUCSORG
 10
0.0
 20
0.0
 30
0.0
  9
$PUCSXDIR
 10
1.0
 20
0.0
 30
0.0
  9
$PUCSYDIR
 10
0.0
 20
1.0
 30
0.0
  9
$PUCSORTHOREF
  2

  9
$PUCSORTHOVIEW
 70
     0
  9
$PUCSORGTOP
 10
0.0
 20
0.0
 30
0.0
  9
$PUCSORGBOTTOM
 10
0.0
 20
0.0
 30
0.0
  9
$PUCSORGLEFT
 10
0.0
 20
0.0
 30
0.0
  9
$PUCSORGRIGHT
 10
0.0
 20
0.0
 30
0.0
  9
$PUCSORGFRONT
 10
0.0
 20
0.0
 30
0.0
  9
$PUCSORGBACK
 10
0.0
 20
0.0
 30
0.0
  9
$USERI1
 70
     0
  9
$USERI2
 70
     0
  9
$USERI3
 70
     0
  9
$USERI4
 70
     0
  9
$USERI5
 70
     0
  9
$USERR1
 40
0.0
  9
$USERR2
 40
0.0
  9
$USERR3
 40
0.0
  9
$USERR4
 40
0.0
  9
$USERR5
 40
2.5
  9
$WORLDVIEW
 70
     1
  9
$SHADEDGE
 70
     3
  9
$SHADEDIF
 70
    70
  9
$TILEMODE
 70
     1
  9
$MAXACTVP
 70
    64
  9
$PINSBASE
 10
0.0
 20
0.0
 30
0.0
  9
$PLIMCHECK
 70
     0
  9
$PEXTMIN
 10
0.0
 20
0.0
 30
0.0
  9
$PEXTMAX
 10
0.0
 20
0.0
 30
0.0
  9
$PLIMMIN
 10
0.0
 20
0.0
  9
$PLIMMAX
 10
12.0
 20
9.0
  9
$UNITMODE
 70
     0
  9
$VISRETAIN
 70
     1
  9
$PLINEGEN
 70
     0
  9
$PSLTSCALE
 70
     1
  9
$TREEDEPTH
 70
  3020
  9
$CMLSTYLE
  2
Standard
  9
$CMLJUST
 70
     0
  9
$CMLSCALE
 40
20.0
  9
$PROXYGRAPHICS
 70
     1
  9
$MEASUREMENT
 70
     1
  9
$CELWEIGHT
370
    -1
  9
$ENDCAPS
280
     0
  9
$JOINSTYLE
280
     0
  9
$LWDISPLAY
290
     0
  9
$INSUNITS
 70
     4
  9
$HYPERLINKBASE
  1

  9
$STYLESHEET
  1

  9
$XEDIT
290
     1
  9
$CEPSNTYPE
380
     0
  9
$PSTYLEMODE
290
     1
  9
$FINGERPRINTGUID
  2
{FDEAD578-A652-11D2-9A35-0060089B3A3F}
  9
$VERSIONGUID
  2
{FF3DA1C8-980E-4B66-AC13-A213C0F5CE58}
  9
$EXTNAMES
290
     1
  9
$PSVPSCALE
 40
0.0
  9
$OLESTARTUP
290
     0
  9
$SORTENTS
280
   127
  9
$INDEXCTL
280
     0
  9
$HIDETEXT
280
     1
  9
$XCLIPFRAME
280
     0
  9
$HALOGAP
280
     0
  9
$OBSCOLOR
 70
   257
  9
$OBSLTYPE
280
     0
  9
$INTERSECTIONDISPLAY
280
     0
  9
$INTERSECTIONCOLOR
 70
   257
  9
$DIMASSOC
280
     2
  9
$PROJECTNAME
  1

  9
$CAMERADISPLAY
290
     0
  9
$LENSLENGTH
 40
50.0
  9
$CAMERAHEIGHT
 40
0.0
  9
$STEPSPERSEC
 40
2.0
  9
$STEPSIZE
 40
6.0
  9
$3DDWFPREC
 40
2.0
  9
$PSOLWIDTH
 40
0.25
  9
$PSOLHEIGHT
 40
4.0
  9
$LOFTANG1
 40
1.570796326794896
  9
$LOFTANG2
 40
1.570796326794896
  9
$LOFTMAG1
 40
0.0
  9
$LOFTMAG2
 40
0.0
  9
$LOFTPARAM
 70
     7
  9
$LOFTNORMALS
280
     1
  9
$LATITUDE
 40
37.795
  9
$LONGITUDE
 40
-122.394
  9
$NORTHDIRECTION
 40
0.0
  9
$TIMEZONE
 70
 -8000
  9
$LIGHTGLYPHDISPLAY
280
     1
  9
$TILEMODELIGHTSYNCH
280
     1
  9
$CMATERIAL
347
1F2AD
  9
$SOLIDHIST
280
     1
  9
$SHOWHIST
280
     1
  9
$DWFFRAME
280
     2
  9
$DGNFRAME
280
     0
  9
$REALWORLDSCALE
290
     1
  9
$INTERFERECOLOR
 62
     1
  9
$INTERFEREOBJVS
345
1F2B9
  9
$INTERFEREVPVS
346
1F2B6
  9
$CSHADOW
280
     0
  9
$SHADOWPLANELOCATION
 40
0.0
  0
ENDSEC
  0
SECTION
  2
CLASSES
  0
CLASS
  1
ACDBDICTIONARYWDFLT
  2
AcDbDictionaryWithDefault
  3
ObjectDBX Classes
 90
        0
 91
        1
280
     0
281
     0
  0
CLASS
  1
ACDBPLACEHOLDER
  2
AcDbPlaceHolder
  3
ObjectDBX Classes
 90
        0
 91
        1
280
     0
281
     0
  0
CLASS
  1
LAYOUT
  2
AcDbLayout
  3
ObjectDBX Classes
 90
        0
 91
        3
280
     0
281
     0
  0
CLASS
  1
DICTIONARYVAR
  2
AcDbDictionaryVar
  3
ObjectDBX Classes
 90
        0
 91
       12
280
     0
281
     0
  0
CLASS
  1
DIMASSOC
  2
AcDbDimAssoc
  3
"AcDbDimAssoc|Product Desc:     AcDim ARX App For Dimension|Company:          Autodesk, Inc.|WEB Address:      www.autodesk.com"
 90
        0
 91
       14
280
     0
281
     0
  0
CLASS
  1
MATERIAL
  2
AcDbMaterial
  3
ObjectDBX Classes
 90
     1153
 91
        3
280
     0
281
     0
  0
CLASS
  1
SORTENTSTABLE
  2
AcDbSortentsTable
  3
ObjectDBX Classes
 90
        0
 91
        0
280
     0
281
     0
  0
CLASS
  1
VLO-VL
  2
vlo_VL
  3
VL|AutoLISP based application
 90
      129
 91
        1
280
     0
281
     0
  0
CLASS
  1
VISUALSTYLE
  2
AcDbVisualStyle
  3
ObjectDBX Classes
 90
     4095
 91
       26
280
     0
281
     0
  0
CLASS
  1
TABLESTYLE
  2
AcDbTableStyle
  3
ObjectDBX Classes
 90
     4095
 91
        1
280
     0
281
     0
  0
CLASS
  1
SCALE
  2
AcDbScale
  3
ObjectDBX Classes
 90
     1153
 91
       17
280
     0
281
     0
  0
CLASS
  1
MLEADERSTYLE
  2
AcDbMLeaderStyle
  3
ACDB_MLEADERSTYLE_CLASS
 90
     4095
 91
        1
280
     0
281
     0
  0
CLASS
  1
ACDBSECTIONVIEWSTYLE
  2
AcDbSectionViewStyle
  3
ObjectDBX Classes
 90
     1025
 91
        1
280
     0
281
     0
  0
CLASS
  1
ACDBDETAILVIEWSTYLE
  2
AcDbDetailViewStyle
  3
ObjectDBX Classes
 90
     1025
 91
        1
280
     0
281
     0
  0
CLASS
  1
CELLSTYLEMAP
  2
AcDbCellStyleMap
  3
ObjectDBX Classes
 90
     1152
 91
        1
280
     0
281
     0
  0
ENDSEC
  0
SECTION
  2
TABLES
  0
TABLE
  2
VPORT
  5
8
330
0
100
AcDbSymbolTable
 70
     1
  0
VPORT
  5
1F2AB
330
8
100
AcDbSymbolTableRecord
100
AcDbViewportTableRecord
  2
*Active
 70
     0
 10
0.0
 20
0.0
 11
1.0
 21
1.0
 12
51205.2268905699
 22
2801.479602878929
 13
0.0
 23
0.0
 14
10.0
 24
10.0
 15
10.0
 25
10.0
 16
0.0
 26
0.0
 36
1.0
 17
0.0
 27
0.0
 37
0.0
 40
2734.861535889533
 41
1.324840764331209
 42
50.0
 43
0.0
 44
0.0
 50
0.0
 51
0.0
 71
     0
 72
  1000
 73
     1
 74
     3
 75
     0
 76
     0
 77
     0
 78
     0
281
     0
 65
     1
110
20135.92273348905
120
3420.432723209263
130
0.0
111
1.0
121
0.0
131
0.0
112
0.0
122
1.0
132
0.0
 79
     0
146
0.0
348
1F2B5
 60
     3
 61
     5
292
     1
282
     1
141
0.0
142
0.0
 63
   250
421
  3355443
  0
ENDTAB
  0
TABLE
  2
LTYPE
  5
5
330
0
100
AcDbSymbolTable
 70
     3
  0
LTYPE
  5
14
330
5
100
AcDbSymbolTableRecord
100
AcDbLinetypeTableRecord
  2
ByBlock
 70
     0
  3

 72
    65
 73
     0
 40
0.0
  0
LTYPE
  5
15
330
5
100
AcDbSymbolTableRecord
100
AcDbLinetypeTableRecord
  2
ByLayer
 70
     0
  3

 72
    65
 73
     0
 40
0.0
  0
LTYPE
  5
16
330
5
100
AcDbSymbolTableRecord
100
AcDbLinetypeTableRecord
  2
Continuous
 70
     0
  3
Solid line
 72
    65
 73
     0
 40
0.0
  0
LTYPE
  5
8F
330
5
100
AcDbSymbolTableRecord
100
AcDbLinetypeTableRecord
  2
ACAD_ISO02W100
 70
     0
  3
ISO dash __ __ __ __ __ __ __ __ __ __ __ __ __
 72
    65
 73
     2
 40
15.0
 49
12.0
 74
     0
 49
-3.0
 74
     0
  0
LTYPE
  5
2E41
330
5
100
AcDbSymbolTableRecord
100
AcDbLinetypeTableRecord
  2
CENTER
 70
     0
  3
Center ____ _ ____ _ ____ _ ____ _ ____ _ ____
 72
    65
 73
     4
 40
50.8
 49
31.75
 74
     0
 49
-6.349999999999998
 74
     0
 49
6.349999999999998
 74
     0
 49
-6.349999999999998
 74
     0
  0
ENDTAB
  0
TABLE
  2
LAYER
  5
2
102
{ACAD_XDICTIONARY
360
1DAC1
102
}
330
0
100
AcDbSymbolTable
 70
    26
  0
LAYER
  5
10
330
2
100
AcDbSymbolTableRecord
100
AcDbLayerTableRecord
  2
0
 70
     0
 62
     7
  6
Continuous
370
    25
390
F
347
1DABE
  0
LAYER
  5
84
330
2
100
AcDbSymbolTableRecord
100
AcDbLayerTableRecord
  2
base
 70
     0
 62
     4
  6
Continuous
370
    40
390
F
347
1DABE
  0
LAYER
  5
1DA
330
2
100
AcDbSymbolTableRecord
100
AcDbLayerTableRecord
  2
Defpoints
 70
     0
 62
    -7
  6
Continuous
290
     0
370
    -3
390
F
347
1DABE
  0
LAYER
  5
2D93
330
2
100
AcDbSymbolTableRecord
100
AcDbLayerTableRecord
  2
DIM
 70
     0
 62
     7
  6
Continuous
370
    13
390
F
347
1DABE
  0
LAYER
  5
32FC
330
2
100
AcDbSymbolTableRecord
100
AcDbLayerTableRecord
  2
1dim
 70
     0
 62
     7
  6
Continuous
370
    13
390
F
347
1DABE
  0
LAYER
  5
32FD
330
2
100
AcDbSymbolTableRecord
100
AcDbLayerTableRecord
  2
2凹模板
 70
     0
 62
     2
  6
Continuous
370
    40
390
F
347
1DABE
  0
LAYER
  5
32FE
330
2
100
AcDbSymbolTableRecord
100
AcDbLayerTableRecord
  2
3压边板
 70
     0
 62
     3
  6
Continuous
370
    40
390
F
347
1DABE
  0
LAYER
  5
32FF
330
2
100
AcDbSymbolTableRecord
100
AcDbLayerTableRecord
  2
4模芯1
 70
     0
 62
     4
  6
Continuous
370
    40
390
F
347
1DABE
  0
LAYER
  5
3300
330
2
100
AcDbSymbolTableRecord
100
AcDbLayerTableRecord
  2
5模芯2
 70
     0
 62
     5
  6
Continuous
370
    40
390
F
347
1DABE
  0
LAYER
  5
3301
330
2
100
AcDbSymbolTableRecord
100
AcDbLayerTableRecord
  2
6压边垫板
 70
     0
 62
     6
  6
Continuous
370
    40
390
F
347
1DABE
  0
LAYER
  5
3302
330
2
100
AcDbSymbolTableRecord
100
AcDbLayerTableRecord
  2
7模芯座
 70
     0
 62
    43
  6
Continuous
370
    40
390
F
347
1DABE
  0
LAYER
  5
3305
330
2
100
AcDbSymbolTableRecord
100
AcDbLayerTableRecord
  2
2dim
 70
     0
 62
     7
  6
Continuous
370
    13
390
F
347
1DABE
  0
LAYER
  5
3306
330
2
100
AcDbSymbolTableRecord
100
AcDbLayerTableRecord
  2
3dim
 70
     0
 62
     7
  6
Continuous
370
    13
390
F
347
1DABE
  0
LAYER
  5
3307
330
2
100
AcDbSymbolTableRecord
100
AcDbLayerTableRecord
  2
4dim
 70
     0
 62
     7
  6
Continuous
370
    13
390
F
347
1DABE
  0
LAYER
  5
3308
330
2
100
AcDbSymbolTableRecord
100
AcDbLayerTableRecord
  2
5dim
 70
     0
 62
     7
  6
Continuous
370
    13
390
F
347
1DABE
  0
LAYER
  5
3309
330
2
100
AcDbSymbolTableRecord
100
AcDbLayerTableRecord
  2
6dim
 70
     0
 62
     7
  6
Continuous
370
    13
390
F
347
1DABE
  0
LAYER
  5
330A
330
2
100
AcDbSymbolTableRecord
100
AcDbLayerTableRecord
  2
7dim
 70
     0
 62
     7
  6
Continuous
370
    13
390
F
347
1DABE
  0
LAYER
  5
330D
330
2
100
AcDbSymbolTableRecord
100
AcDbLayerTableRecord
  2
1上模座
 70
     0
 62
     1
  6
Continuous
370
    40
390
F
347
1DABE
  0
LAYER
  5
57C0
330
2
100
AcDbSymbolTableRecord
100
AcDbLayerTableRecord
  2
DEFAULT
 70
     0
 62
     7
  6
Continuous
370
    -3
390
F
347
1DABE
  0
LAYER
  5
14D94
330
2
100
AcDbSymbolTableRecord
100
AcDbLayerTableRecord
  2
DIMJ
 70
     0
 62
   221
  6
Continuous
370
    15
390
F
347
1DABE
  0
LAYER
  5
1C410
330
2
100
AcDbSymbolTableRecord
100
AcDbLayerTableRecord
  2
上模
 70
     0
 62
     5
  6
Continuous
370
    25
390
F
347
1DABE
  0
LAYER
  5
1C411
330
2
100
AcDbSymbolTableRecord
100
AcDbLayerTableRecord
  2
上模DIM
 70
     0
 62
     7
  6
Continuous
370
    20
390
F
347
1DABE
  0
LAYER
  5
1DAB6
330
2
100
AcDbSymbolTableRecord
100
AcDbLayerTableRecord
  2
1d
 70
     0
 62
     7
  6
Continuous
370
     9
390
F
347
1DABE
  0
LAYER
  5
1DAB9
330
2
100
AcDbSymbolTableRecord
100
AcDbLayerTableRecord
  2
面板
 70
     0
 62
     4
  6
Continuous
370
    -3
390
F
347
1DABE
  0
ENDTAB
  0
TABLE
  2
STYLE
  5
3
330
0
100
AcDbSymbolTable
 70
     3
  0
STYLE
  5
11
330
3
100
AcDbSymbolTableRecord
100
AcDbTextStyleTableRecord
  2
Standard
 70
     0
 40
0.0
 41
1.0
 50
0.0
 71
     0
 42
2.5
  3
txt
  4

  0
STYLE
  5
57C1
330
3
100
AcDbSymbolTableRecord
100
AcDbTextStyleTableRecord
  2
arial_ttf
 70
     0
 40
0.0
 41
1.0
 50
0.0
 71
     0
 42
0.2
  3
ARIAL.TTF
  4

1001
ACAD
1000
Arial
1071
    34306
  0
STYLE
  5
1F2F1
330
3
100
AcDbSymbolTableRecord
100
AcDbTextStyleTableRecord
  2
NewTextStyle_0
 70
     0
 40
84.12330682479396
 41
1.0
 50
0.0
 71
     0
 42
2.5
  3
arialuni.ttf
  4

1001
ACAD
1000
Arial Unicode MS
1071
        0
  0
ENDTAB
  0
TABLE
  2
VIEW
  5
6
330
0
100
AcDbSymbolTable
 70
     0
  0
ENDTAB
  0
TABLE
  2
UCS
  5
7
330
0
100
AcDbSymbolTable
 70
     0
  0
ENDTAB
  0
TABLE
  2
APPID
  5
9
330
0
100
AcDbSymbolTable
 70
     2
  0
APPID
  5
12
330
9
100
AcDbSymbolTableRecord
100
AcDbRegAppTableRecord
  2
ACAD
 70
     0
  0
APPID
  5
1DABD
330
9
100
AcDbSymbolTableRecord
100
AcDbRegAppTableRecord
  2
ACAD_PSEXT
 70
     0
  0
ENDTAB
  0
TABLE
  2
DIMSTYLE
  5
A
330
0
100
AcDbSymbolTable
 70
     4
100
AcDbDimStyleTable
 71
     1
340
27
  0
DIMSTYLE
105
27
102
{ACAD_REACTORS
330
1E255
330
1E252
330
1E24F
330
1E24C
330
1E249
330
1E243
330
1E34C
330
1E349
330
1E346
330
1E343
330
1E340
330
1E2DB
330
1E2C8
330
1E234
330
1E240
330
1E23F
102
}
330
A
100
AcDbSymbolTableRecord
100
AcDbDimStyleTableRecord
  2
ISO-25
 70
     0
 41
2.0
 42
1.0
 43
3.75
 44
1.25
 73
     0
 74
     0
 77
     1
 78
     8
140
3.0
141
2.5
143
0.03937007874016
147
5.0
171
     3
172
     1
271
     2
272
     2
274
     3
278
    44
283
     0
284
     8
340
11
  0
DIMSTYLE
105
1DABA
330
A
100
AcDbSymbolTableRecord
100
AcDbDimStyleTableRecord
  2
Standard
 70
     0
 41
25.0
 42
5.0
 43
2.0
 44
5.0
 73
     0
 74
     0
 77
     1
 78
    12
 79
     3
140
30.0
141
4.0
147
8.0
179
     2
340
11
  0
DIMSTYLE
105
1DABB
330
A
100
AcDbSymbolTableRecord
100
AcDbDimStyleTableRecord
  2
123
 70
     0
 41
10.0
 42
3.0
 43
2.0
 44
3.0
 73
     0
 74
     0
 77
     1
 78
    12
 79
     3
140
20.0
141
4.0
147
1.0
179
     2
271
     2
272
     2
340
11
  0
DIMSTYLE
105
1DABC
330
A
100
AcDbSymbolTableRecord
100
AcDbDimStyleTableRecord
  2
1
 70
     0
 41
10.0
 42
1.0
 43
3.75
 44
1.25
 73
     0
 74
     0
 77
     1
 78
     8
140
20.0
141
2.5
143
0.03937007874016
147
5.0
171
     3
172
     1
271
     2
272
     2
274
     3
278
    44
283
     0
284
     8
340
11
  0
ENDTAB
  0
TABLE
  2
BLOCK_RECORD
  5
1
330
0
100
AcDbSymbolTable
 70
    18
  0
BLOCK_RECORD
  5
1F
330
1
100
AcDbSymbolTableRecord
100
AcDbBlockTableRecord
  2
*Model_Space
340
22
 70
     0
280
     1
281
     0
  0
BLOCK_RECORD
  5
50
330
1
100
AcDbSymbolTableRecord
100
AcDbBlockTableRecord
  2
*Paper_Space
340
51
 70
     0
280
     1
281
     0
  0
BLOCK_RECORD
  5
55
330
1
100
AcDbSymbolTableRecord
100
AcDbBlockTableRecord
  2
*Paper_Space0
340
56
 70
     0
280
     1
281
     0
  0
BLOCK_RECORD
  5
577C
330
1
100
AcDbSymbolTableRecord
100
AcDbBlockTableRecord
  2
SE13
340
0
102
{BLKREFS
331
1E2F5
102
}
 70
     0
280
     1
281
     0
  0
BLOCK_RECORD
  5
1E352
330
1
100
AcDbSymbolTableRecord
100
AcDbBlockTableRecord
  2
*D2
340
0
 70
     0
280
     1
281
     0
  0
BLOCK_RECORD
  5
1E35E
330
1
100
AcDbSymbolTableRecord
100
AcDbBlockTableRecord
  2
*D3
340
0
 70
     0
280
     1
281
     0
  0
BLOCK_RECORD
  5
1E378
330
1
100
AcDbSymbolTableRecord
100
AcDbBlockTableRecord
  2
*D4
340
0
 70
     0
280
     1
281
     0
  0
BLOCK_RECORD
  5
1E384
330
1
100
AcDbSymbolTableRecord
100
AcDbBlockTableRecord
  2
*D5
340
0
 70
     0
280
     1
281
     0
  0
BLOCK_RECORD
  5
1E391
330
1
100
AcDbSymbolTableRecord
100
AcDbBlockTableRecord
  2
*D6
340
0
 70
     0
280
     1
281
     0
  0
BLOCK_RECORD
  5
1E39D
330
1
100
AcDbSymbolTableRecord
100
AcDbBlockTableRecord
  2
*D7
340
0
 70
     0
280
     1
281
     0
  0
BLOCK_RECORD
  5
1E3A9
330
1
100
AcDbSymbolTableRecord
100
AcDbBlockTableRecord
  2
*D8
340
0
 70
     0
280
     1
281
     0
  0
BLOCK_RECORD
  5
1E3BD
330
1
100
AcDbSymbolTableRecord
100
AcDbBlockTableRecord
  2
*D9
340
0
 70
     0
280
     1
281
     0
  0
BLOCK_RECORD
  5
1E3C6
330
1
100
AcDbSymbolTableRecord
100
AcDbBlockTableRecord
  2
*D10
340
0
 70
     0
280
     1
281
     0
  0
BLOCK_RECORD
  5
1E3D4
330
1
100
AcDbSymbolTableRecord
100
AcDbBlockTableRecord
  2
*D11
340
0
 70
     0
280
     1
281
     0
  0
BLOCK_RECORD
  5
1E3E2
330
1
100
AcDbSymbolTableRecord
100
AcDbBlockTableRecord
  2
*D12
340
0
 70
     0
280
     1
281
     0
  0
BLOCK_RECORD
  5
1E3EE
330
1
100
AcDbSymbolTableRecord
100
AcDbBlockTableRecord
  2
*D13
340
0
 70
     0
280
     1
281
     0
  0
BLOCK_RECORD
  5
1E3FA
330
1
100
AcDbSymbolTableRecord
100
AcDbBlockTableRecord
  2
*D14
340
0
 70
     0
280
     1
281
     0
  0
BLOCK_RECORD
  5
1E427
330
1
100
AcDbSymbolTableRecord
100
AcDbBlockTableRecord
  2
*D15
340
0
 70
     0
280
     1
281
     0
  0
BLOCK_RECORD
  5
1E45D
330
1
100
AcDbSymbolTableRecord
100
AcDbBlockTableRecord
  2
*D16
340
0
 70
     0
280
     1
281
     0
  0
BLOCK_RECORD
  5
1E469
330
1
100
AcDbSymbolTableRecord
100
AcDbBlockTableRecord
  2
*D17
340
0
 70
     0
280
     1
281
     0
  0
ENDTAB
  0
ENDSEC
  0
SECTION
  2
BLOCKS
  0
BLOCK
  5
20
330
1F
100
AcDbEntity
  8
0
100
AcDbBlockBegin
  2
*Model_Space
 70
     0
 10
0.0
 20
0.0
 30
0.0
  3
*Model_Space
  1

  0
ENDBLK
  5
21
330
1F
100
AcDbEntity
  8
0
100
AcDbBlockEnd
  0
BLOCK
  5
52
330
50
100
AcDbEntity
 67
     1
  8
0
100
AcDbBlockBegin
  2
*Paper_Space
 70
     0
 10
0.0
 20
0.0
 30
0.0
  3
*Paper_Space
  1

  0
ENDBLK
  5
53
330
50
100
AcDbEntity
 67
     1
  8
0
100
AcDbBlockEnd
  0
BLOCK
  5
57
330
55
100
AcDbEntity
 67
     1
  8
0
100
AcDbBlockBegin
  2
*Paper_Space0
 70
     0
 10
0.0
 20
0.0
 30
0.0
  3
*Paper_Space0
  1

  0
ENDBLK
  5
58
330
55
100
AcDbEntity
 67
     1
  8
0
100
AcDbBlockEnd
  0
BLOCK
  5
577D
330
577C
100
AcDbEntity
  8
DEFAULT
 62
     1
370
     0
100
AcDbBlockBegin
  2
SE13
 70
     0
 10
0.0
 20
0.0
 30
0.0
  3
SE13
  1

  0
TEXT
  5
577E
330
577C
100
AcDbEntity
  8
0
  6
Continuous
 62
   136
370
     0
100
AcDbText
 10
531.075280003713
 20
16.1647734594651
 30
0.0
 40
3.5
  1
 
  7
arial_ttf
 11
531.075280003713
 21
19.6647734594651
 31
0.0
100
AcDbText
 73
     3
  0
ENDBLK
  5
577F
330
577C
100
AcDbEntity
  8
0
 62
   136
370
     0
100
AcDbBlockEnd
  0
BLOCK
  5
1E35C
330
1E352
100
AcDbEntity
  8
0
100
AcDbBlockBegin
  2
*D2
 70
     1
 10
0.0
 20
0.0
 30
0.0
  3
*D2
  1

  0
LINE
  5
1F1F9
330
1E352
100
AcDbEntity
  8
DIM
 62
     0
370
    -2
100
AcDbLine
 10
49639.42658007642
 20
2505.573001367232
 30
0.0
 11
49639.42658007642
 21
2305.967422114249
 31
0.0
  0
LINE
  5
1F1FA
330
1E352
100
AcDbEntity
  8
DIM
 62
     0
370
    -2
100
AcDbLine
 10
50432.42658007642
 20
2505.573001367232
 30
0.0
 11
50432.42658007642
 21
2305.967422114249
 31
0.0
  0
LINE
  5
1F1FB
330
1E352
100
AcDbEntity
  8
DIM
 62
     0
370
    -2
100
AcDbLine
 10
49654.42658007642
 20
2307.217422114248
 30
0.0
 11
50417.42658007642
 21
2307.217422114248
 31
0.0
  0
SOLID
  5
1F1FC
330
1E352
100
AcDbEntity
  8
DIM
 62
     0
100
AcDbTrace
 10
49654.42658007642
 20
2309.717422114249
 30
0.0
 11
49654.42658007642
 21
2304.717422114249
 31
0.0
 12
49639.42658007642
 22
2307.217422114248
 32
0.0
 13
49639.42658007642
 23
2307.217422114248
 33
0.0
  0
SOLID
  5
1F1FD
330
1E352
100
AcDbEntity
  8
DIM
 62
     0
100
AcDbTrace
 10
50417.42658007642
 20
2309.717422114249
 30
0.0
 11
50417.42658007642
 21
2304.717422114249
 31
0.0
 12
50432.42658007642
 22
2307.217422114248
 32
0.0
 13
50432.42658007642
 23
2307.217422114248
 33
0.0
  0
MTEXT
  5
1F1FE
330
1E352
100
AcDbEntity
  8
DIM
 62
     0
100
AcDbMText
 10
50035.92658007642
 20
2337.217422114249
 30
0.0
 40
30.0
 41
0.0
 46
0.0
 71
     5
 72
     1
  1
793(31')
 73
     1
 44
1.0
  0
POINT
  5
1F1FF
330
1E352
100
AcDbEntity
  8
Defpoints
 62
     0
100
AcDbPoint
 10
49639.42658007642
 20
2510.573001367232
 30
0.0
  0
POINT
  5
1F200
330
1E352
100
AcDbEntity
  8
Defpoints
 62
     0
100
AcDbPoint
 10
50432.42658007642
 20
2510.573001367232
 30
0.0
  0
POINT
  5
1F201
330
1E352
100
AcDbEntity
  8
Defpoints
 62
     0
100
AcDbPoint
 10
50432.42658007642
 20
2307.217422114248
 30
0.0
  0
ENDBLK
  5
1E35D
330
1E352
100
AcDbEntity
  8
0
100
AcDbBlockEnd
  0
BLOCK
  5
1E368
330
1E35E
100
AcDbEntity
  8
0
100
AcDbBlockBegin
  2
*D3
 70
     1
 10
0.0
 20
0.0
 30
0.0
  3
*D3
  1

  0
LINE
  5
1F215
330
1E35E
100
AcDbEntity
  8
DIM
 62
     0
370
    -2
100
AcDbLine
 10
50383.72658007642
 20
2456.873001367232
 30
0.0
 11
50588.06243326972
 21
2456.873001367232
 31
0.0
  0
LINE
  5
1F216
330
1E35E
100
AcDbEntity
  8
DIM
 62
     0
370
    -2
100
AcDbLine
 10
50383.72658007642
 20
2917.873001367226
 30
0.0
 11
50588.06243326972
 21
2917.873001367226
 31
0.0
  0
LINE
  5
1F217
330
1E35E
100
AcDbEntity
  8
DIM
 62
     0
370
    -2
100
AcDbLine
 10
50586.81243326972
 20
2471.873001367232
 30
0.0
 11
50586.81243326972
 21
2902.873001367227
 31
0.0
  0
SOLID
  5
1F218
330
1E35E
100
AcDbEntity
  8
DIM
 62
     0
100
AcDbTrace
 10
50584.31243326972
 20
2471.873001367232
 30
0.0
 11
50589.31243326973
 21
2471.873001367232
 31
0.0
 12
50586.81243326972
 22
2456.873001367232
 32
0.0
 13
50586.81243326972
 23
2456.873001367232
 33
0.0
  0
SOLID
  5
1F219
330
1E35E
100
AcDbEntity
  8
DIM
 62
     0
100
AcDbTrace
 10
50584.31243326972
 20
2902.873001367227
 30
0.0
 11
50589.31243326973
 21
2902.873001367227
 31
0.0
 12
50586.81243326972
 22
2917.873001367226
 32
0.0
 13
50586.81243326972
 23
2917.873001367226
 33
0.0
  0
MTEXT
  5
1F21A
330
1E35E
100
AcDbEntity
  8
DIM
 62
     0
100
AcDbMText
 10
50556.81243326972
 20
2687.373001367238
 30
0.0
 40
30.0
 41
0.0
 46
0.0
 71
     5
 72
     1
  1
461(18")
 11
0.0000000000000001
 21
1.0
 31
0.0
 73
     1
 44
1.0
  0
POINT
  5
1F21B
330
1E35E
100
AcDbEntity
  8
Defpoints
 62
     0
100
AcDbPoint
 10
50378.72658007641
 20
2456.873001367232
 30
0.0
  0
POINT
  5
1F21C
330
1E35E
100
AcDbEntity
  8
Defpoints
 62
     0
100
AcDbPoint
 10
50378.72658007641
 20
2917.873001367226
 30
0.0
  0
POINT
  5
1F21D
330
1E35E
100
AcDbEntity
  8
Defpoints
 62
     0
100
AcDbPoint
 10
50586.81243326972
 20
2917.873001367226
 30
0.0
  0
ENDBLK
  5
1E369
330
1E35E
100
AcDbEntity
  8
0
100
AcDbBlockEnd
  0
BLOCK
  5
1E382
330
1E378
100
AcDbEntity
  8
0
100
AcDbBlockBegin
  2
*D4
 70
     1
 10
0.0
 20
0.0
 30
0.0
  3
*D4
  1

  0
LINE
  5
1F243
330
1E378
100
AcDbEntity
  8
DIM
 62
     0
370
    -2
100
AcDbLine
 10
50048.92658007642
 20
2505.573001367225
 30
0.0
 11
50048.92658007642
 21
2363.868527180573
 31
0.0
  0
LINE
  5
1F244
330
1E378
100
AcDbEntity
  8
DIM
 62
     0
370
    -2
100
AcDbLine
 10
50404.92658007641
 20
2505.573001367232
 30
0.0
 11
50404.92658007641
 21
2363.868527180573
 31
0.0
  0
LINE
  5
1F245
330
1E378
100
AcDbEntity
  8
DIM
 62
     0
370
    -2
100
AcDbLine
 10
50053.92658007641
 20
2365.118527180573
 30
0.0
 11
50399.92658007641
 21
2365.118527180573
 31
0.0
  0
SOLID
  5
1F246
330
1E378
100
AcDbEntity
  8
DIM
 62
     0
100
AcDbTrace
 10
50053.92658007641
 20
2365.951860513907
 30
0.0
 11
50053.92658007641
 21
2364.28519384724
 31
0.0
 12
50048.92658007642
 22
2365.118527180573
 32
0.0
 13
50048.92658007642
 23
2365.118527180573
 33
0.0
  0
SOLID
  5
1F247
330
1E378
100
AcDbEntity
  8
DIM
 62
     0
100
AcDbTrace
 10
50399.92658007641
 20
2365.951860513907
 30
0.0
 11
50399.92658007641
 21
2364.28519384724
 31
0.0
 12
50404.92658007641
 22
2365.118527180573
 32
0.0
 13
50404.92658007641
 23
2365.118527180573
 33
0.0
  0
MTEXT
  5
1F248
330
1E378
100
AcDbEntity
  8
DIM
 62
     0
100
AcDbMText
 10
50226.92658007642
 20
2385.118527180574
 30
0.0
 40
30.0
 41
0.0
 46
0.0
 71
     5
 72
     1
  1
356(14")
 73
     1
 44
1.0
  0
POINT
  5
1F249
330
1E378
100
AcDbEntity
  8
Defpoints
 62
     0
100
AcDbPoint
 10
50048.92658007642
 20
2510.573001367225
 30
0.0
  0
POINT
  5
1F24A
330
1E378
100
AcDbEntity
  8
Defpoints
 62
     0
100
AcDbPoint
 10
50404.92658007641
 20
2510.573001367232
 30
0.0
  0
POINT
  5
1F24B
330
1E378
100
AcDbEntity
  8
Defpoints
 62
     0
100
AcDbPoint
 10
50404.92658007641
 20
2365.118527180573
 30
0.0
  0
ENDBLK
  5
1E383
330
1E378
100
AcDbEntity
  8
0
100
AcDbBlockEnd
  0
BLOCK
  5
1E38F
330
1E384
100
AcDbEntity
  8
0
100
AcDbBlockBegin
  2
*D5
 70
     1
 10
0.0
 20
0.0
 30
0.0
  3
*D5
  1

  0
LINE
  5
1F21E
330
1E384
100
AcDbEntity
  8
DIM
 62
     0
370
    -2
100
AcDbLine
 10
50048.92658007642
 20
2505.573001367225
 30
0.0
 11
50048.92658007642
 21
2407.205333669387
 31
0.0
  0
LINE
  5
1F21F
330
1E384
100
AcDbEntity
  8
DIM
 62
     0
370
    -2
100
AcDbLine
 10
50022.92658007641
 20
2505.573001367225
 30
0.0
 11
50022.92658007641
 21
2407.205333669387
 31
0.0
  0
LINE
  5
1F220
330
1E384
100
AcDbEntity
  8
DIM
 62
     0
370
    -2
100
AcDbLine
 10
50043.92658007642
 20
2408.455333669386
 30
0.0
 11
50027.92658007642
 21
2408.455333669386
 31
0.0
  0
LINE
  5
1F221
330
1E384
100
AcDbEntity
  8
DIM
 62
     0
370
    -2
100
AcDbLine
 10
50022.92658007641
 20
2408.455333669386
 30
0.0
 11
49877.92658007641
 21
2408.455333669386
 31
0.0
  0
SOLID
  5
1F222
330
1E384
100
AcDbEntity
  8
DIM
 62
     0
100
AcDbTrace
 10
50043.92658007642
 20
2409.28866700272
 30
0.0
 11
50043.92658007642
 21
2407.622000336053
 31
0.0
 12
50048.92658007642
 22
2408.455333669386
 32
0.0
 13
50048.92658007642
 23
2408.455333669386
 33
0.0
  0
SOLID
  5
1F223
330
1E384
100
AcDbEntity
  8
DIM
 62
     0
100
AcDbTrace
 10
50027.92658007642
 20
2409.28866700272
 30
0.0
 11
50027.92658007642
 21
2407.622000336053
 31
0.0
 12
50022.92658007641
 22
2408.455333669386
 32
0.0
 13
50022.92658007641
 23
2408.455333669386
 33
0.0
  0
MTEXT
  5
1F224
330
1E384
100
AcDbEntity
  8
DIM
 62
     0
100
AcDbMText
 10
49947.92658007642
 20
2428.455333669386
 30
0.0
 40
30.0
 41
0.0
 46
0.0
 71
     5
 72
     1
  1
26(1")
 73
     1
 44
1.0
  0
POINT
  5
1F225
330
1E384
100
AcDbEntity
  8
Defpoints
 62
     0
100
AcDbPoint
 10
50048.92658007642
 20
2510.573001367225
 30
0.0
  0
POINT
  5
1F226
330
1E384
100
AcDbEntity
  8
Defpoints
 62
     0
100
AcDbPoint
 10
50022.92658007641
 20
2510.573001367225
 30
0.0
  0
POINT
  5
1F227
330
1E384
100
AcDbEntity
  8
Defpoints
 62
     0
100
AcDbPoint
 10
50022.92658007641
 20
2408.455333669386
 30
0.0
  0
ENDBLK
  5
1E390
330
1E384
100
AcDbEntity
  8
0
100
AcDbBlockEnd
  0
BLOCK
  5
1E39B
330
1E391
100
AcDbEntity
  8
0
100
AcDbBlockBegin
  2
*D6
 70
     1
 10
0.0
 20
0.0
 30
0.0
  3
*D6
  1

  0
LINE
  5
1F23A
330
1E391
100
AcDbEntity
  8
DIM
 62
     0
370
    -2
100
AcDbLine
 10
50022.92658007641
 20
2505.573001367225
 30
0.0
 11
50022.92658007641
 21
2358.182231420447
 31
0.0
  0
LINE
  5
1F23B
330
1E391
100
AcDbEntity
  8
DIM
 62
     0
370
    -2
100
AcDbLine
 10
49666.92658007642
 20
2505.573001367232
 30
0.0
 11
49666.92658007642
 21
2358.182231420447
 31
0.0
  0
LINE
  5
1F23C
330
1E391
100
AcDbEntity
  8
DIM
 62
     0
370
    -2
100
AcDbLine
 10
50017.92658007642
 20
2359.432231420447
 30
0.0
 11
49671.92658007641
 21
2359.432231420447
 31
0.0
  0
SOLID
  5
1F23D
330
1E391
100
AcDbEntity
  8
DIM
 62
     0
100
AcDbTrace
 10
50017.92658007642
 20
2360.265564753781
 30
0.0
 11
50017.92658007642
 21
2358.598898087114
 31
0.0
 12
50022.92658007641
 22
2359.432231420447
 32
0.0
 13
50022.92658007641
 23
2359.432231420447
 33
0.0
  0
SOLID
  5
1F23E
330
1E391
100
AcDbEntity
  8
DIM
 62
     0
100
AcDbTrace
 10
49671.92658007641
 20
2360.265564753781
 30
0.0
 11
49671.92658007641
 21
2358.598898087114
 31
0.0
 12
49666.92658007642
 22
2359.432231420447
 32
0.0
 13
49666.92658007642
 23
2359.432231420447
 33
0.0
  0
MTEXT
  5
1F23F
330
1E391
100
AcDbEntity
  8
DIM
 62
     0
100
AcDbMText
 10
49834.12701594096
 20
2379.432231420448
 30
0.0
 40
30.0
 41
0.0
 46
0.0
 71
     5
 72
     1
  1
356(14")
 73
     1
 44
1.0
  0
POINT
  5
1F240
330
1E391
100
AcDbEntity
  8
Defpoints
 62
     0
100
AcDbPoint
 10
50022.92658007641
 20
2510.573001367225
 30
0.0
  0
POINT
  5
1F241
330
1E391
100
AcDbEntity
  8
Defpoints
 62
     0
100
AcDbPoint
 10
49666.92658007642
 20
2510.573001367232
 30
0.0
  0
POINT
  5
1F242
330
1E391
100
AcDbEntity
  8
Defpoints
 62
     0
100
AcDbPoint
 10
49666.92658007642
 20
2359.432231420447
 30
0.0
  0
ENDBLK
  5
1E39C
330
1E391
100
AcDbEntity
  8
0
100
AcDbBlockEnd
  0
BLOCK
  5
1E3A7
330
1E39D
100
AcDbEntity
  8
0
100
AcDbBlockBegin
  2
*D7
 70
     1
 10
0.0
 20
0.0
 30
0.0
  3
*D7
  1

  0
LINE
  5
1F20C
330
1E39D
100
AcDbEntity
  8
DIM
 62
     0
370
    -2
100
AcDbLine
 10
50383.72658007642
 20
2890.373001367226
 30
0.0
 11
50507.41022291563
 21
2890.373001367226
 31
0.0
  0
LINE
  5
1F20D
330
1E39D
100
AcDbEntity
  8
DIM
 62
     0
370
    -2
100
AcDbLine
 10
50383.72658007642
 20
2484.373001367232
 30
0.0
 11
50507.41022291563
 21
2484.373001367232
 31
0.0
  0
LINE
  5
1F20E
330
1E39D
100
AcDbEntity
  8
DIM
 62
     0
370
    -2
100
AcDbLine
 10
50506.16022291563
 20
2885.373001367227
 30
0.0
 11
50506.16022291563
 21
2489.373001367232
 31
0.0
  0
SOLID
  5
1F20F
330
1E39D
100
AcDbEntity
  8
DIM
 62
     0
100
AcDbTrace
 10
50505.3268895823
 20
2885.373001367227
 30
0.0
 11
50506.99355624896
 21
2885.373001367227
 31
0.0
 12
50506.16022291563
 22
2890.373001367226
 32
0.0
 13
50506.16022291563
 23
2890.373001367226
 33
0.0
  0
SOLID
  5
1F210
330
1E39D
100
AcDbEntity
  8
DIM
 62
     0
100
AcDbTrace
 10
50505.3268895823
 20
2489.373001367232
 30
0.0
 11
50506.99355624896
 21
2489.373001367232
 31
0.0
 12
50506.16022291563
 22
2484.373001367232
 32
0.0
 13
50506.16022291563
 23
2484.373001367232
 33
0.0
  0
MTEXT
  5
1F211
330
1E39D
100
AcDbEntity
  8
DIM
 62
     0
100
AcDbMText
 10
50486.16022291563
 20
2687.373001367238
 30
0.0
 40
30.0
 41
0.0
 46
0.0
 71
     5
 72
     1
  1
406(16")
 11
0.0000000000000001
 21
1.0
 31
0.0
 73
     1
 44
1.0
  0
POINT
  5
1F212
330
1E39D
100
AcDbEntity
  8
Defpoints
 62
     0
100
AcDbPoint
 10
50378.72658007641
 20
2890.373001367226
 30
0.0
  0
POINT
  5
1F213
330
1E39D
100
AcDbEntity
  8
Defpoints
 62
     0
100
AcDbPoint
 10
50378.72658007641
 20
2484.373001367232
 30
0.0
  0
POINT
  5
1F214
330
1E39D
100
AcDbEntity
  8
Defpoints
 62
     0
100
AcDbPoint
 10
50506.16022291563
 20
2484.373001367232
 30
0.0
  0
ENDBLK
  5
1E3A8
330
1E39D
100
AcDbEntity
  8
0
100
AcDbBlockEnd
  0
BLOCK
  5
1E3B3
330
1E3A9
100
AcDbEntity
  8
0
100
AcDbBlockBegin
  2
*D8
 70
     1
 10
0.0
 20
0.0
 30
0.0
  3
*D8
  1

  0
LINE
  5
1F24C
330
1E3A9
100
AcDbEntity
  8
DIM
 62
     0
370
    -2
100
AcDbLine
 10
50437.4265800764
 20
3312.269575189307
 30
0.0
 11
50637.69643966316
 21
3312.269575189307
 31
0.0
  0
LINE
  5
1F24D
330
1E3A9
100
AcDbEntity
  8
DIM
 62
     0
370
    -2
100
AcDbLine
 10
50534.89568000832
 20
3084.269575189305
 30
0.0
 11
50637.69643966316
 21
3084.269575189305
 31
0.0
  0
LINE
  5
1F24E
330
1E3A9
100
AcDbEntity
  8
DIM
 62
     0
370
    -2
100
AcDbLine
 10
50636.44643966316
 20
3307.269575189307
 30
0.0
 11
50636.44643966316
 21
3089.269575189304
 31
0.0
  0
SOLID
  5
1F24F
330
1E3A9
100
AcDbEntity
  8
DIM
 62
     0
100
AcDbTrace
 10
50635.61310632983
 20
3307.269575189307
 30
0.0
 11
50637.2797729965
 21
3307.269575189307
 31
0.0
 12
50636.44643966316
 22
3312.269575189307
 32
0.0
 13
50636.44643966316
 23
3312.269575189307
 33
0.0
  0
SOLID
  5
1F250
330
1E3A9
100
AcDbEntity
  8
DIM
 62
     0
100
AcDbTrace
 10
50635.61310632983
 20
3089.269575189304
 30
0.0
 11
50637.2797729965
 21
3089.269575189304
 31
0.0
 12
50636.44643966316
 22
3084.269575189305
 32
0.0
 13
50636.44643966316
 23
3084.269575189305
 33
0.0
  0
MTEXT
  5
1F251
330
1E3A9
100
AcDbEntity
  8
DIM
 62
     0
100
AcDbMText
 10
50616.44643966316
 20
3198.269575189312
 30
0.0
 40
30.0
 41
0.0
 46
0.0
 71
     5
 72
     1
  1
228(9")
 11
0.0000000000000001
 21
1.0
 31
0.0
 73
     1
 44
1.0
  0
POINT
  5
1F252
330
1E3A9
100
AcDbEntity
  8
Defpoints
 62
     0
100
AcDbPoint
 10
50432.42658007639
 20
3312.269575189307
 30
0.0
  0
POINT
  5
1F253
330
1E3A9
100
AcDbEntity
  8
Defpoints
 62
     0
100
AcDbPoint
 10
50529.89568000832
 20
3084.269575189305
 30
0.0
  0
POINT
  5
1F254
330
1E3A9
100
AcDbEntity
  8
Defpoints
 62
     0
100
AcDbPoint
 10
50636.44643966316
 20
3084.269575189305
 30
0.0
  0
ENDBLK
  5
1E3B4
330
1E3A9
100
AcDbEntity
  8
0
100
AcDbBlockEnd
  0
BLOCK
  5
1E3C4
330
1E3BD
100
AcDbEntity
  8
0
100
AcDbBlockBegin
  2
*D9
 70
     1
 10
0.0
 20
0.0
 30
0.0
  3
*D9
  1

  0
LINE
  5
1F29E
330
1E3BD
100
AcDbEntity
  8
DIM
 62
     0
370
    -2
100
AcDbLine
 10
49518.20486560235
 20
3121.559546869248
 30
0.0
 11
49675.58944160728
 21
2889.977822124507
 31
0.0
  0
MTEXT
  5
1F29F
330
1E3BD
100
AcDbEntity
  8
DIM
 62
     0
100
AcDbMText
 10
49614.10117991462
 20
3020.483353325356
 30
0.0
 40
30.0
 41
0.0
 46
0.0
 71
     5
 72
     1
  1
4-R26,2(1")
 11
0.5620877714461737
 21
-0.8270775883740737
 31
0.0
 73
     1
 44
1.0
  0
LINE
  5
1F2A0
330
1E3BD
100
AcDbEntity
  8
DIM
 62
     0
370
    -2
100
AcDbLine
 10
49693.12658007641
 20
2864.173001367224
 30
0.0
 11
49678.39988046451
 21
2885.84243418264
 31
0.0
  0
SOLID
  5
1F2A1
330
1E3BD
100
AcDbEntity
  8
DIM
 62
     0
100
AcDbTrace
 10
49676.27867293093
 20
2890.446228600715
 30
0.0
 11
49674.90021028363
 21
2889.509415648304
 31
0.0
 12
49678.39988046451
 22
2885.84243418264
 32
0.0
 13
49678.39988046451
 23
2885.84243418264
 33
0.0
  0
POINT
  5
1F2A2
330
1E3BD
100
AcDbEntity
  8
Defpoints
 62
     0
100
AcDbPoint
 10
49678.39988046451
 20
2885.84243418264
 30
0.0
  0
POINT
  5
1F2A3
330
1E3BD
100
AcDbEntity
  8
Defpoints
 62
     0
100
AcDbPoint
 10
49693.12658007641
 20
2864.173001367224
 30
0.0
  0
ENDBLK
  5
1E3C5
330
1E3BD
100
AcDbEntity
  8
0
100
AcDbBlockEnd
  0
BLOCK
  5
1E3D2
330
1E3C6
100
AcDbEntity
  8
0
100
AcDbBlockBegin
  2
*D10
 70
     1
 10
0.0
 20
0.0
 30
0.0
  3
*D10
  1

  0
LINE
  5
1F28E
330
1E3C6
100
AcDbEntity
  8
DIM
 62
     0
370
    -2
100
AcDbLine
 10
49347.63338244666
 20
1978.296865531441
 30
0.0
 11
49200.72006616496
 21
1978.296865531441
 31
0.0
  0
LINE
  5
1F28F
330
1E3C6
100
AcDbEntity
  8
DIM
 62
     0
370
    -2
100
AcDbLine
 10
49321.63338244667
 20
1990.296865531442
 30
0.0
 11
49200.72006616496
 21
1990.296865531442
 31
0.0
  0
LINE
  5
1F290
330
1E3C6
100
AcDbEntity
  8
DIM
 62
     0
370
    -2
100
AcDbLine
 10
49201.97006616494
 20
1973.296865531441
 30
0.0
 11
49201.97006616494
 21
1968.296865531442
 31
0.0
  0
LINE
  5
1F291
330
1E3C6
100
AcDbEntity
  8
DIM
 62
     0
370
    -2
100
AcDbLine
 10
49201.97006616494
 20
1995.296865531441
 30
0.0
 11
49201.97006616494
 21
2185.296865531442
 31
0.0
  0
LINE
  5
1F292
330
1E3C6
100
AcDbEntity
  8
DIM
 62
     0
370
    -2
100
AcDbLine
 10
49201.97006616494
 20
1978.296865531441
 30
0.0
 11
49201.97006616494
 21
1990.296865531442
 31
0.0
  0
SOLID
  5
1F293
330
1E3C6
100
AcDbEntity
  8
DIM
 62
     0
100
AcDbTrace
 10
49201.13673283162
 20
1973.296865531441
 30
0.0
 11
49202.80339949829
 21
1973.296865531441
 31
0.0
 12
49201.97006616494
 22
1978.296865531441
 32
0.0
 13
49201.97006616494
 23
1978.296865531441
 33
0.0
  0
SOLID
  5
1F294
330
1E3C6
100
AcDbEntity
  8
DIM
 62
     0
100
AcDbTrace
 10
49201.13673283162
 20
1995.296865531441
 30
0.0
 11
49202.80339949829
 21
1995.296865531441
 31
0.0
 12
49201.97006616494
 22
1990.296865531442
 32
0.0
 13
49201.97006616494
 23
1990.296865531442
 33
0.0
  0
MTEXT
  5
1F295
330
1E3C6
100
AcDbEntity
  8
DIM
 62
     0
100
AcDbMText
 10
49181.97006616495
 20
2092.796865531449
 30
0.0
 40
30.0
 41
0.0
 46
0.0
 71
     5
 72
     1
  1
6(0.23")
 11
0.0000000000000001
 21
1.0
 31
0.0
 73
     1
 44
1.0
  0
POINT
  5
1F296
330
1E3C6
100
AcDbEntity
  8
Defpoints
 62
     0
100
AcDbPoint
 10
49352.63338244666
 20
1978.296865531441
 30
0.0
  0
POINT
  5
1F297
330
1E3C6
100
AcDbEntity
  8
Defpoints
 62
     0
100
AcDbPoint
 10
49326.63338244664
 20
1990.296865531442
 30
0.0
  0
POINT
  5
1F298
330
1E3C6
100
AcDbEntity
  8
Defpoints
 62
     0
100
AcDbPoint
 10
49201.97006616494
 20
1990.296865531442
 30
0.0
  0
ENDBLK
  5
1E3D3
330
1E3C6
100
AcDbEntity
  8
0
100
AcDbBlockEnd
  0
BLOCK
  5
1E3E0
330
1E3D4
100
AcDbEntity
  8
0
100
AcDbBlockBegin
  2
*D11
 70
     1
 10
0.0
 20
0.0
 30
0.0
  3
*D11
  1

  0
LINE
  5
1F283
330
1E3D4
100
AcDbEntity
  8
DIM
 62
     0
370
    -2
100
AcDbLine
 10
49321.63338244667
 20
1990.296865531442
 30
0.0
 11
49255.89060495714
 21
1990.296865531442
 31
0.0
  0
LINE
  5
1F284
330
1E3D4
100
AcDbEntity
  8
DIM
 62
     0
370
    -2
100
AcDbLine
 10
49327.63338244664
 20
1984.296865531442
 30
0.0
 11
49255.89060495714
 21
1984.296865531442
 31
0.0
  0
LINE
  5
1F285
330
1E3D4
100
AcDbEntity
  8
DIM
 62
     0
370
    -2
100
AcDbLine
 10
49257.14060495714
 20
1979.296865531441
 30
0.0
 11
49257.14060495714
 21
1974.296865531442
 31
0.0
  0
LINE
  5
1F286
330
1E3D4
100
AcDbEntity
  8
DIM
 62
     0
370
    -2
100
AcDbLine
 10
49257.14060495714
 20
1995.296865531441
 30
0.0
 11
49257.14060495714
 21
2165.296865531442
 31
0.0
  0
LINE
  5
1F287
330
1E3D4
100
AcDbEntity
  8
DIM
 62
     0
370
    -2
100
AcDbLine
 10
49257.14060495714
 20
1984.296865531442
 30
0.0
 11
49257.14060495714
 21
1990.296865531442
 31
0.0
  0
SOLID
  5
1F288
330
1E3D4
100
AcDbEntity
  8
DIM
 62
     0
100
AcDbTrace
 10
49256.3072716238
 20
1979.296865531441
 30
0.0
 11
49257.97393829048
 21
1979.296865531441
 31
0.0
 12
49257.14060495714
 22
1984.296865531442
 32
0.0
 13
49257.14060495714
 23
1984.296865531442
 33
0.0
  0
SOLID
  5
1F289
330
1E3D4
100
AcDbEntity
  8
DIM
 62
     0
100
AcDbTrace
 10
49256.3072716238
 20
1995.296865531441
 30
0.0
 11
49257.97393829048
 21
1995.296865531441
 31
0.0
 12
49257.14060495714
 22
1990.296865531442
 32
0.0
 13
49257.14060495714
 23
1990.296865531442
 33
0.0
  0
MTEXT
  5
1F28A
330
1E3D4
100
AcDbEntity
  8
DIM
 62
     0
100
AcDbMText
 10
49237.14060495714
 20
2082.796865531449
 30
0.0
 40
30.0
 41
0.0
 46
0.0
 71
     5
 72
     1
  1
3(0.11")
 11
0.0000000000000001
 21
1.0
 31
0.0
 73
     1
 44
1.0
  0
POINT
  5
1F28B
330
1E3D4
100
AcDbEntity
  8
Defpoints
 62
     0
100
AcDbPoint
 10
49326.63338244664
 20
1990.296865531442
 30
0.0
  0
POINT
  5
1F28C
330
1E3D4
100
AcDbEntity
  8
Defpoints
 62
     0
100
AcDbPoint
 10
49332.63338244664
 20
1984.296865531442
 30
0.0
  0
POINT
  5
1F28D
330
1E3D4
100
AcDbEntity
  8
Defpoints
 62
     0
100
AcDbPoint
 10
49257.14060495714
 20
1984.296865531442
 30
0.0
  0
ENDBLK
  5
1E3E1
330
1E3D4
100
AcDbEntity
  8
0
100
AcDbBlockEnd
  0
BLOCK
  5
1E3EC
330
1E3E2
100
AcDbEntity
  8
0
100
AcDbBlockBegin
  2
*D12
 70
     1
 10
0.0
 20
0.0
 30
0.0
  3
*D12
  1

  0
LINE
  5
1F27A
330
1E3E2
100
AcDbEntity
  8
DIM
 62
     0
370
    -2
100
AcDbLine
 10
49326.63338244664
 20
1995.296865531441
 30
0.0
 11
49326.63338244664
 21
2161.452086551419
 31
0.0
  0
LINE
  5
1F27B
330
1E3E2
100
AcDbEntity
  8
DIM
 62
     0
370
    -2
100
AcDbLine
 10
49566.63338244663
 20
1995.296865531441
 30
0.0
 11
49566.63338244663
 21
2161.452086551419
 31
0.0
  0
LINE
  5
1F27C
330
1E3E2
100
AcDbEntity
  8
DIM
 62
     0
370
    -2
100
AcDbLine
 10
49331.63338244665
 20
2160.202086551419
 30
0.0
 11
49561.63338244662
 21
2160.202086551419
 31
0.0
  0
SOLID
  5
1F27D
330
1E3E2
100
AcDbEntity
  8
DIM
 62
     0
100
AcDbTrace
 10
49331.63338244665
 20
2161.035419884752
 30
0.0
 11
49331.63338244665
 21
2159.368753218085
 31
0.0
 12
49326.63338244664
 22
2160.202086551419
 32
0.0
 13
49326.63338244664
 23
2160.202086551419
 33
0.0
  0
SOLID
  5
1F27E
330
1E3E2
100
AcDbEntity
  8
DIM
 62
     0
100
AcDbTrace
 10
49561.63338244662
 20
2161.035419884752
 30
0.0
 11
49561.63338244662
 21
2159.368753218085
 31
0.0
 12
49566.63338244663
 22
2160.202086551419
 32
0.0
 13
49566.63338244663
 23
2160.202086551419
 33
0.0
  0
MTEXT
  5
1F27F
330
1E3E2
100
AcDbEntity
  8
DIM
 62
     0
100
AcDbMText
 10
49446.63338244664
 20
2180.202086551419
 30
0.0
 40
30.0
 41
0.0
 46
0.0
 71
     5
 72
     1
  1
%%C120(4.7")
 73
     1
 44
1.0
  0
POINT
  5
1F280
330
1E3E2
100
AcDbEntity
  8
Defpoints
 62
     0
100
AcDbPoint
 10
49326.63338244664
 20
1990.296865531442
 30
0.0
  0
POINT
  5
1F281
330
1E3E2
100
AcDbEntity
  8
Defpoints
 62
     0
100
AcDbPoint
 10
49566.63338244663
 20
1990.296865531442
 30
0.0
  0
POINT
  5
1F282
330
1E3E2
100
AcDbEntity
  8
Defpoints
 62
     0
100
AcDbPoint
 10
49566.63338244663
 20
2160.202086551419
 30
0.0
  0
ENDBLK
  5
1E3ED
330
1E3E2
100
AcDbEntity
  8
0
100
AcDbBlockEnd
  0
BLOCK
  5
1E3F8
330
1E3EE
100
AcDbEntity
  8
0
100
AcDbBlockBegin
  2
*D13
 70
     1
 10
0.0
 20
0.0
 30
0.0
  3
*D13
  1

  0
LINE
  5
1F270
330
1E3EE
100
AcDbEntity
  8
DIM
 62
     0
370
    -2
100
AcDbLine
 10
49332.63338244664
 20
1989.296865531441
 30
0.0
 11
49332.63338244664
 21
2097.427367081311
 31
0.0
  0
LINE
  5
1F271
330
1E3EE
100
AcDbEntity
  8
DIM
 62
     0
370
    -2
100
AcDbLine
 10
49560.63338244664
 20
1989.296865531441
 30
0.0
 11
49560.63338244664
 21
2097.427367081311
 31
0.0
  0
LINE
  5
1F272
330
1E3EE
100
AcDbEntity
  8
DIM
 62
     0
370
    -2
100
AcDbLine
 10
49337.63338244664
 20
2096.177367081311
 30
0.0
 11
49555.63338244663
 21
2096.177367081311
 31
0.0
  0
LINE
  5
1F273
330
1E3EE
100
AcDbEntity
  8
DIM
 62
     0
370
    -2
100
AcDbLine
 10
49560.63338244664
 20
2096.177367081311
 30
0.0
 11
49795.63338244664
 21
2096.177367081311
 31
0.0
  0
SOLID
  5
1F274
330
1E3EE
100
AcDbEntity
  8
DIM
 62
     0
100
AcDbTrace
 10
49337.63338244664
 20
2097.010700414644
 30
0.0
 11
49337.63338244664
 21
2095.344033747977
 31
0.0
 12
49332.63338244664
 22
2096.177367081311
 32
0.0
 13
49332.63338244664
 23
2096.177367081311
 33
0.0
  0
SOLID
  5
1F275
330
1E3EE
100
AcDbEntity
  8
DIM
 62
     0
100
AcDbTrace
 10
49555.63338244663
 20
2097.010700414644
 30
0.0
 11
49555.63338244663
 21
2095.344033747977
 31
0.0
 12
49560.63338244664
 22
2096.177367081311
 32
0.0
 13
49560.63338244664
 23
2096.177367081311
 33
0.0
  0
MTEXT
  5
1F276
330
1E3EE
100
AcDbEntity
  8
DIM
 62
     0
100
AcDbMText
 10
49680.63338244664
 20
2116.177367081311
 30
0.0
 40
30.0
 41
0.0
 46
0.0
 71
     5
 72
     1
  1
{\Ftxt.shx|c1;%%C}114(4.5")
 73
     1
 44
1.0
  0
POINT
  5
1F277
330
1E3EE
100
AcDbEntity
  8
Defpoints
 62
     0
100
AcDbPoint
 10
49332.63338244664
 20
1984.296865531442
 30
0.0
  0
POINT
  5
1F278
330
1E3EE
100
AcDbEntity
  8
Defpoints
 62
     0
100
AcDbPoint
 10
49560.63338244664
 20
1984.296865531442
 30
0.0
  0
POINT
  5
1F279
330
1E3EE
100
AcDbEntity
  8
Defpoints
 62
     0
100
AcDbPoint
 10
49560.63338244664
 20
2096.177367081311
 30
0.0
  0
ENDBLK
  5
1E3F9
330
1E3EE
100
AcDbEntity
  8
0
100
AcDbBlockEnd
  0
BLOCK
  5
1E404
330
1E3FA
100
AcDbEntity
  8
0
100
AcDbBlockBegin
  2
*D14
 70
     1
 10
0.0
 20
0.0
 30
0.0
  3
*D14
  1

  0
LINE
  5
1F266
330
1E3FA
100
AcDbEntity
  8
DIM
 62
     0
370
    -2
100
AcDbLine
 10
49352.63338244666
 20
1983.296865531442
 30
0.0
 11
49352.63338244666
 21
2034.067928629474
 31
0.0
  0
LINE
  5
1F267
330
1E3FA
100
AcDbEntity
  8
DIM
 62
     0
370
    -2
100
AcDbLine
 10
49540.63338244664
 20
1983.296865531442
 30
0.0
 11
49540.63338244664
 21
2034.067928629474
 31
0.0
  0
LINE
  5
1F268
330
1E3FA
100
AcDbEntity
  8
DIM
 62
     0
370
    -2
100
AcDbLine
 10
49357.63338244664
 20
2032.817928629475
 30
0.0
 11
49535.63338244664
 21
2032.817928629475
 31
0.0
  0
LINE
  5
1F269
330
1E3FA
100
AcDbEntity
  8
DIM
 62
     0
370
    -2
100
AcDbLine
 10
49540.63338244664
 20
2032.817928629475
 30
0.0
 11
49765.63338244664
 21
2032.817928629475
 31
0.0
  0
SOLID
  5
1F26A
330
1E3FA
100
AcDbEntity
  8
DIM
 62
     0
100
AcDbTrace
 10
49357.63338244664
 20
2033.651261962808
 30
0.0
 11
49357.63338244664
 21
2031.984595296141
 31
0.0
 12
49352.63338244666
 22
2032.817928629475
 32
0.0
 13
49352.63338244666
 23
2032.817928629475
 33
0.0
  0
SOLID
  5
1F26B
330
1E3FA
100
AcDbEntity
  8
DIM
 62
     0
100
AcDbTrace
 10
49535.63338244664
 20
2033.651261962808
 30
0.0
 11
49535.63338244664
 21
2031.984595296141
 31
0.0
 12
49540.63338244664
 22
2032.817928629475
 32
0.0
 13
49540.63338244664
 23
2032.817928629475
 33
0.0
  0
MTEXT
  5
1F26C
330
1E3FA
100
AcDbEntity
  8
DIM
 62
     0
100
AcDbMText
 10
49655.63338244664
 20
2052.817928629474
 30
0.0
 40
30.0
 41
0.0
 46
0.0
 71
     5
 72
     1
  1
{\Ftxt.shx|c1;%%C}94(3.7")
 73
     1
 44
1.0
  0
POINT
  5
1F26D
330
1E3FA
100
AcDbEntity
  8
Defpoints
 62
     0
100
AcDbPoint
 10
49352.63338244666
 20
1978.296865531441
 30
0.0
  0
POINT
  5
1F26E
330
1E3FA
100
AcDbEntity
  8
Defpoints
 62
     0
100
AcDbPoint
 10
49540.63338244664
 20
1978.296865531441
 30
0.0
  0
POINT
  5
1F26F
330
1E3FA
100
AcDbEntity
  8
Defpoints
 62
     0
100
AcDbPoint
 10
49540.63338244664
 20
2032.817928629475
 30
0.0
  0
ENDBLK
  5
1E405
330
1E3FA
100
AcDbEntity
  8
0
100
AcDbBlockEnd
  0
BLOCK
  5
1E42D
330
1E427
100
AcDbEntity
  8
0
100
AcDbBlockBegin
  2
*D15
 70
     1
 10
0.0
 20
0.0
 30
0.0
  3
*D15
  1

  0
LINE
  5
1F299
330
1E427
100
AcDbEntity
  8
DIM
 62
     0
370
    -2
100
AcDbLine
 10
50175.73620876646
 20
3221.451583684997
 30
0.0
 11
50387.51144139315
 21
3103.170224584833
 31
0.0
  0
MTEXT
  5
1F29A
330
1E427
100
AcDbEntity
  8
DIM
 62
     0
100
AcDbMText
 10
50285.88998088959
 20
3182.836217740224
 30
0.0
 40
30.0
 41
0.0
 46
0.0
 71
     5
 72
     1
  1
2-R25(1")
 11
0.873055154147738
 21
-0.4876214698063138
 31
0.0
 73
     1
 44
1.0
  0
SOLID
  5
1F29B
330
1E427
100
AcDbEntity
  8
DIM
 62
     0
100
AcDbTrace
 10
50387.91779261799
 20
3103.897770546621
 30
0.0
 11
50387.10509016831
 21
3102.442678623044
 31
0.0
 12
50391.87671716389
 22
3100.732117235803
 32
0.0
 13
50391.87671716389
 23
3100.732117235803
 33
0.0
  0
POINT
  5
1F29C
330
1E427
100
AcDbEntity
  8
Defpoints
 62
     0
100
AcDbPoint
 10
50391.87671716389
 20
3100.732117235803
 30
0.0
  0
POINT
  5
1F29D
330
1E427
100
AcDbEntity
  8
Defpoints
 62
     0
100
AcDbPoint
 10
50370.05033831018
 20
3112.922653980968
 30
0.0
  0
ENDBLK
  5
1E42E
330
1E427
100
AcDbEntity
  8
0
100
AcDbBlockEnd
  0
BLOCK
  5
1E467
330
1E45D
100
AcDbEntity
  8
0
100
AcDbBlockBegin
  2
*D16
 70
     1
 10
0.0
 20
0.0
 30
0.0
  3
*D16
  1

  0
LINE
  5
1F202
330
1E45D
100
AcDbEntity
  8
DIM
 62
     0
370
    -2
100
AcDbLine
 10
50278.92658007641
 20
2762.373001367226
 30
0.0
 11
50339.85828061638
 21
2762.373001367226
 31
0.0
  0
LINE
  5
1F203
330
1E45D
100
AcDbEntity
  8
DIM
 62
     0
370
    -2
100
AcDbLine
 10
50231.92658007642
 20
2687.373001367229
 30
0.0
 11
50339.85828061638
 21
2687.373001367229
 31
0.0
  0
LINE
  5
1F204
330
1E45D
100
AcDbEntity
  8
DIM
 62
     0
370
    -2
100
AcDbLine
 10
50338.60828061638
 20
2757.373001367227
 30
0.0
 11
50338.60828061638
 21
2692.373001367228
 31
0.0
  0
LINE
  5
1F205
330
1E45D
100
AcDbEntity
  8
DIM
 62
     0
370
    -2
100
AcDbLine
 10
50338.60828061638
 20
2687.373001367229
 30
0.0
 11
50338.60828061638
 21
2532.373001367229
 31
0.0
  0
SOLID
  5
1F206
330
1E45D
100
AcDbEntity
  8
DIM
 62
     0
100
AcDbTrace
 10
50337.77494728306
 20
2757.373001367227
 30
0.0
 11
50339.44161394972
 21
2757.373001367227
 31
0.0
 12
50338.60828061638
 22
2762.373001367226
 32
0.0
 13
50338.60828061638
 23
2762.373001367226
 33
0.0
  0
SOLID
  5
1F207
330
1E45D
100
AcDbEntity
  8
DIM
 62
     0
100
AcDbTrace
 10
50337.77494728306
 20
2692.373001367228
 30
0.0
 11
50339.44161394972
 21
2692.373001367228
 31
0.0
 12
50338.60828061638
 22
2687.373001367229
 32
0.0
 13
50338.60828061638
 23
2687.373001367229
 33
0.0
  0
MTEXT
  5
1F208
330
1E45D
100
AcDbEntity
  8
DIM
 62
     0
100
AcDbMText
 10
50318.60828061638
 20
2607.373001367237
 30
0.0
 40
30.0
 41
0.0
 46
0.0
 71
     5
 72
     1
  1
75(3")
 11
0.0000000000000001
 21
1.0
 31
0.0
 73
     1
 44
1.0
  0
POINT
  5
1F209
330
1E45D
100
AcDbEntity
  8
Defpoints
 62
     0
100
AcDbPoint
 10
50273.92658007642
 20
2762.373001367226
 30
0.0
  0
POINT
  5
1F20A
330
1E45D
100
AcDbEntity
  8
Defpoints
 62
     0
100
AcDbPoint
 10
50226.92658007642
 20
2687.373001367229
 30
0.0
  0
POINT
  5
1F20B
330
1E45D
100
AcDbEntity
  8
Defpoints
 62
     0
100
AcDbPoint
 10
50338.60828061638
 20
2687.373001367229
 30
0.0
  0
ENDBLK
  5
1E468
330
1E45D
100
AcDbEntity
  8
0
100
AcDbBlockEnd
  0
BLOCK
  5
1E470
330
1E469
100
AcDbEntity
  8
0
100
AcDbBlockBegin
  2
*D17
 70
     1
 10
0.0
 20
0.0
 30
0.0
  3
*D17
  1

  0
LINE
  5
1F2A4
330
1E469
100
AcDbEntity
  8
DIM
 62
     0
370
    -2
100
AcDbLine
 10
49333.61377110385
 20
3012.913439641572
 30
0.0
 11
49629.51080044893
 21
2891.073593840829
 31
0.0
  0
MTEXT
  5
1F2A5
330
1E469
100
AcDbEntity
  8
DIM
 62
     0
100
AcDbMText
 10
49487.00155849024
 20
2984.901180170016
 30
0.0
 40
30.0
 41
0.0
 46
0.0
 71
     5
 72
     1
  1
4-R52,5(2")
 11
0.9246782167034174
 21
-0.3807495181273224
 31
0.0
 73
     1
 44
1.0
  0
LINE
  5
1F2A6
330
1E469
100
AcDbEntity
  8
DIM
 62
     0
370
    -2
100
AcDbLine
 10
49691.92658007641
 20
2865.373001367236
 30
0.0
 11
49643.3809736995
 21
2885.362351068918
 31
0.0
  0
SOLID
  5
1F2A7
330
1E469
100
AcDbEntity
  8
DIM
 62
     0
100
AcDbTrace
 10
49630.46267424426
 20
2893.38528938259
 30
0.0
 11
49628.55892665363
 21
2888.761898299072
 31
0.0
 12
49643.3809736995
 22
2885.362351068918
 32
0.0
 13
49643.3809736995
 23
2885.362351068918
 33
0.0
  0
POINT
  5
1F2A8
330
1E469
100
AcDbEntity
  8
Defpoints
 62
     0
100
AcDbPoint
 10
49643.3809736995
 20
2885.362351068918
 30
0.0
  0
POINT
  5
1F2A9
330
1E469
100
AcDbEntity
  8
Defpoints
 62
     0
100
AcDbPoint
 10
49691.92658007641
 20
2865.373001367236
 30
0.0
  0
ENDBLK
  5
1E471
330
1E469
100
AcDbEntity
  8
0
100
AcDbBlockEnd
  0
ENDSEC
  0
SECTION
  2
ENTITIES
  0
LWPOLYLINE
  5
3EA8
330
1F
100
AcDbEntity
  8
Defpoints
 62
     4
100
AcDbPolyline
 90
        8
 70
     1
 43
0.0
 10
34601.67389096625
 20
2948.668360087465
 42
-0.4142135623730946
 10
34576.67389096624
 20
2973.668360087465
 10
34576.67389096625
 20
3329.668360087468
 42
-0.4142135623730951
 10
34601.67389096625
 20
3354.668360087468
 10
34907.67389096625
 20
3354.668360087468
 42
-0.4142135623730951
 10
34932.67389096625
 20
3329.668360087467
 10
34932.67389096625
 20
2973.668360087464
 42
-0.4142135623730951
 10
34907.67389096625
 20
2948.668360087464
  0
LINE
  5
431F
330
1F
100
AcDbEntity
  8
Defpoints
 62
     1
100
AcDbLine
 10
36440.18193354002
 20
3978.421060814457
 30
0.0
 11
36440.18193354002
 21
3928.421060814457
 31
0.0
  0
LINE
  5
4320
330
1F
100
AcDbEntity
  8
Defpoints
 62
     1
100
AcDbLine
 10
36370.18193354002
 20
3978.421060814457
 30
0.0
 11
36370.18193354002
 21
3928.421060814457
 31
0.0
  0
ARC
  5
4321
330
1F
100
AcDbEntity
  8
Defpoints
 62
     1
100
AcDbCircle
 10
36513.18193354
 20
3908.421060814457
 30
0.0
 40
20.0
100
AcDbArc
 50
0.0
 51
89.99999999999991
  0
ARC
  5
4322
330
1F
100
AcDbEntity
  8
Defpoints
 62
     1
100
AcDbCircle
 10
36297.18193354002
 20
3908.421060814458
 30
0.0
 40
20.0
100
AcDbArc
 50
90.0
 51
180.0
  0
LINE
  5
4323
330
1F
100
AcDbEntity
  8
Defpoints
 62
     1
100
AcDbLine
 10
36533.18193354
 20
3908.421060814457
 30
0.0
 11
36533.18193354002
 21
3718.421060814457
 31
0.0
  0
LINE
  5
4324
330
1F
100
AcDbEntity
  8
Defpoints
 62
     1
100
AcDbLine
 10
36297.18193354002
 20
3928.421060814457
 30
0.0
 11
36513.18193354
 21
3928.421060814456
 31
0.0
  0
LINE
  5
4325
330
1F
100
AcDbEntity
  8
Defpoints
 62
     1
100
AcDbLine
 10
36277.18193354001
 20
3908.421060814458
 30
0.0
 11
36277.18193354001
 21
3718.421060814457
 31
0.0
  0
LINE
  5
4328
330
1F
100
AcDbEntity
  8
Defpoints
 62
     1
100
AcDbLine
 10
36227.18193354002
 20
3718.421060814457
 30
0.0
 11
36583.18193354002
 21
3718.421060814457
 31
0.0
  0
LINE
  5
4329
330
1F
100
AcDbEntity
  8
Defpoints
 62
     1
100
AcDbLine
 10
36263.52410643682
 20
3973.764279514558
 30
0.0
 11
36370.18193354002
 21
3978.421060814457
 31
0.0
  0
LINE
  5
432A
330
1F
100
AcDbEntity
  8
Defpoints
 62
     1
100
AcDbLine
 10
36583.18193354002
 20
3758.421060814424
 30
0.0
 11
36583.18193354002
 21
3718.421060814457
 31
0.0
  0
LINE
  5
432B
330
1F
100
AcDbEntity
  8
Defpoints
 62
     1
100
AcDbLine
 10
36227.18193354002
 20
3758.421060814424
 30
0.0
 11
36227.18193354002
 21
3718.421060814457
 31
0.0
  0
LINE
  5
432D
330
1F
100
AcDbEntity
  8
Defpoints
 62
     1
100
AcDbLine
 10
36583.18193354002
 20
3758.421060814457
 30
0.0
 11
36581.0866873705
 21
3818.421060814451
 31
0.0
  0
LINE
  5
432F
330
1F
100
AcDbEntity
  8
Defpoints
 62
     1
100
AcDbLine
 10
36581.0866873705
 20
3818.421060814461
 30
0.0
 11
36570.6722093024
 21
3950.749551368208
 31
0.0
  0
LINE
  5
4332
330
1F
100
AcDbEntity
  8
Defpoints
 62
     1
100
AcDbLine
 10
36229.27717970952
 20
3818.421060814461
 30
0.0
 11
36239.69165777764
 21
3950.74955136821
 31
0.0
  0
LINE
  5
4333
330
1F
100
AcDbEntity
  8
Defpoints
 62
     1
100
AcDbLine
 10
36227.18193354002
 20
3758.421060814457
 30
0.0
 11
36229.27717970952
 21
3818.421060814451
 31
0.0
  0
LWPOLYLINE
  5
44EF
330
1F
100
AcDbEntity
  8
Defpoints
  6
ACAD_ISO02W100
 62
     4
100
AcDbPolyline
 90
        8
 70
     1
 43
0.0
 10
38036.89702666602
 20
3167.456305028575
 42
-0.4142135623730965
 10
38016.89702666602
 20
3147.456305028575
 10
37800.89702666601
 20
3147.456305028577
 42
-0.4142135623730998
 10
37780.89702666601
 20
3167.456305028578
 10
37780.89702666602
 20
3433.45630502858
 42
-0.4142135623730951
 10
37800.89702666602
 20
3453.456305028581
 10
38016.89702666602
 20
3453.456305028581
 42
-0.4142135623730951
 10
38036.89702666602
 20
3433.45630502858
  0
CIRCLE
  5
44F9
330
1F
100
AcDbEntity
  8
Defpoints
 62
     4
100
AcDbCircle
 10
37908.89702666602
 20
3385.456305028581
 30
0.0
 40
35.0
  0
ARC
  5
456E
330
1F
100
AcDbEntity
  8
Defpoints
 62
     1
100
AcDbCircle
 10
36264.61459112096
 20
3948.788073975013
 30
0.0
 40
25.0
100
AcDbArc
 50
92.49999999999998
 51
175.4999999999999
  0
LINE
  5
456F
330
1F
100
AcDbEntity
  8
Defpoints
 62
     1
100
AcDbLine
 10
36370.18193354002
 20
3978.421060814457
 30
0.0
 11
36440.18193354002
 21
3978.421060814457
 31
0.0
  0
LINE
  5
4570
330
1F
100
AcDbEntity
  8
Defpoints
 62
     1
100
AcDbLine
 10
36546.83976064321
 20
3973.764279514558
 30
0.0
 11
36440.18193354
 21
3978.421060814457
 31
0.0
  0
ARC
  5
4571
330
1F
100
AcDbEntity
  8
Defpoints
 62
     1
100
AcDbCircle
 10
36545.74927595908
 20
3948.788073975011
 30
0.0
 40
25.0
100
AcDbArc
 50
4.500000000000127
 51
87.49999999999978
  0
LWPOLYLINE
  5
4578
330
1F
100
AcDbEntity
  8
Defpoints
 62
     4
100
AcDbPolyline
 90
        8
 70
     1
 43
0.0
 10
37750.89702666601
 20
3097.456305028578
 42
-0.414213562373094
 10
37730.89702666601
 20
3117.456305028577
 10
37730.89702666601
 20
3483.45630502858
 42
-0.4142135623730895
 10
37750.89702666601
 20
3503.45630502858
 10
38066.89702666602
 20
3503.45630502858
 42
-0.4142135623730948
 10
38086.89702666602
 20
3483.45630502858
 10
38086.89702666602
 20
3117.456305028575
 42
-0.4142135623730961
 10
38066.89702666602
 20
3097.456305028576
  0
LWPOLYLINE
  5
466F
330
1F
100
AcDbEntity
  8
Defpoints
  6
ACAD_ISO02W100
 62
     4
100
AcDbPolyline
 90
        8
 70
     1
 43
0.0
 10
34882.67389096627
 20
3018.668360087463
 42
-0.4142135623730965
 10
34862.67389096625
 20
2998.668360087463
 10
34646.67389096625
 20
2998.668360087465
 42
-0.4142135623730998
 10
34626.67389096625
 20
3018.668360087465
 10
34626.67389096625
 20
3284.668360087469
 42
-0.4142135623730951
 10
34646.67389096625
 20
3304.668360087468
 10
34862.67389096625
 20
3304.668360087468
 42
-0.4142135623730951
 10
34882.67389096627
 20
3284.668360087469
  0
CIRCLE
  5
4670
330
1F
100
AcDbEntity
  8
Defpoints
 62
     4
100
AcDbCircle
 10
34754.67389096625
 20
3236.668360087468
 30
0.0
 40
35.0
  0
LWPOLYLINE
  5
4B1E
330
1F
100
AcDbEntity
  8
Defpoints
100
AcDbPolyline
 90
        8
 70
     1
 43
0.0
 10
34665.21370194283
 20
-948.0376894373199
 42
-0.4142135623730998
 10
34640.21370194283
 20
-923.0376894373192
 10
34640.21370194283
 20
-577.0376894373169
 42
-0.4142135623730951
 10
34665.21370194283
 20
-552.0376894373169
 10
34961.21370194284
 20
-552.0376894373169
 42
-0.4142135623730951
 10
34986.21370194284
 20
-577.0376894373169
 10
34986.21370194284
 20
-923.0376894373208
 42
-0.4142135623730965
 10
34961.21370194284
 20
-948.0376894373208
  0
LWPOLYLINE
  5
526E
330
1F
100
AcDbEntity
  8
Defpoints
 62
     4
100
AcDbPolyline
 90
        8
 70
     1
 43
0.0
 10
38060.4552423081
 20
-948.0376894373199
 42
-0.4142135623730998
 10
38035.45524230811
 20
-923.0376894373192
 10
38035.45524230811
 20
-577.0376894373169
 42
-0.4142135623730951
 10
38060.4552423081
 20
-552.0376894373169
 10
38356.45524230811
 20
-552.0376894373169
 42
-0.4142135623730951
 10
38381.45524230811
 20
-577.0376894373169
 10
38381.45524230811
 20
-923.0376894373208
 42
-0.4142135623730965
 10
38356.45524230811
 20
-948.0376894373208
  0
LWPOLYLINE
  5
5382
330
1F
100
AcDbEntity
  8
Defpoints
  6
ACAD_ISO02W100
100
AcDbPolyline
 90
        8
 70
     1
 43
0.0
 10
38105.45524230811
 20
-898.0376894373202
 42
-0.4142135623731088
 10
38085.4552423081
 20
-878.0376894373191
 10
38085.45524230811
 20
-622.0376894373165
 42
-0.4142135623730879
 10
38105.45524230811
 20
-602.0376894373169
 10
38311.45524230811
 20
-602.0376894373169
 42
-0.4142135623730951
 10
38331.45524230811
 20
-622.037689437317
 10
38331.45524230811
 20
-878.0376894373214
 42
-0.4142135623730965
 10
38311.45524230811
 20
-898.0376894373211
  0
LWPOLYLINE
  5
5EBF
330
1F
100
AcDbEntity
  8
Defpoints
100
AcDbPolyline
 90
        8
 70
     1
 43
0.0
 10
32794.5623372939
 20
-4171.216594652189
 42
0.4142135623729942
 10
32768.16233729392
 20
-4144.816594652191
 10
32464.96233729391
 20
-4144.816594652193
 42
0.4142135623731356
 10
32438.56233729391
 20
-4171.216594652189
 10
32438.56233729391
 20
-4524.416594652191
 42
0.414213562373246
 10
32464.96233729391
 20
-4550.81659465219
 10
32768.16233729392
 20
-4550.816594652191
 42
0.4142135623729036
 10
32794.5623372939
 20
-4524.416594652191
  0
LINE
  5
5EC1
330
1F
100
AcDbEntity
  8
Defpoints
100
AcDbLine
 10
32616.56233729391
 20
-4550.816594652191
 30
0.0
 11
32616.56233729391
 21
-4144.816594652193
 31
0.0
  0
LINE
  5
5EC2
330
1F
100
AcDbEntity
  8
Defpoints
100
AcDbLine
 10
32438.56233729391
 20
-4347.816594652191
 30
0.0
 11
32794.5623372939
 21
-4347.816594652191
 31
0.0
  0
LWPOLYLINE
  5
6939
330
1F
100
AcDbEntity
  8
Defpoints
100
AcDbPolyline
 90
        8
 70
     1
 43
0.0
 10
35862.39211856836
 20
-4994.143859835425
 42
-0.414213562373094
 10
35847.89211856837
 20
-4979.643859835424
 10
35847.89211856837
 20
-4613.643859835422
 42
-0.4142135623730962
 10
35862.39211856836
 20
-4599.143859835421
 10
36178.39211856836
 20
-4599.143859835421
 42
-0.4142135623730951
 10
36192.89211856837
 20
-4613.643859835422
 10
36192.89211856837
 20
-4979.643859835427
 42
-0.4142135623730962
 10
36178.39211856836
 20
-4994.143859835425
  0
LWPOLYLINE
  5
693A
330
1F
100
AcDbEntity
  8
Defpoints
  6
ACAD_ISO02W100
100
AcDbPolyline
 90
       52
 70
     1
 43
0.0
 10
35892.89211856836
 20
-4924.143859835425
 10
35860.39211856836
 20
-4924.143859835425
 10
35860.39211856836
 20
-4949.143859835423
 10
35907.89211856836
 20
-4949.143859835423
 10
35907.89211856836
 20
-4984.143859835424
 10
35932.89211856836
 20
-4984.143859835424
 10
35932.89211856836
 20
-4949.143859835423
 10
36007.89211856837
 20
-4949.143859835423
 10
36007.89211856837
 20
-4984.143859835424
 10
36032.89211856838
 20
-4984.143859835424
 10
36032.89211856838
 20
-4949.143859835423
 10
36107.89211856836
 20
-4949.143859835423
 10
36107.89211856836
 20
-4984.143859835424
 10
36132.89211856836
 20
-4984.143859835424
 10
36132.89211856836
 20
-4949.143859835423
 10
36180.39211856836
 20
-4949.143859835423
 10
36180.39211856836
 20
-4924.143859835425
 10
36147.89211856837
 20
-4924.143859835425
 10
36147.89211856836
 20
-4864.143859835423
 10
36182.89211856837
 20
-4864.143859835423
 10
36182.89211856837
 20
-4839.143859835424
 10
36147.89211856839
 20
-4839.143859835424
 10
36147.89211856836
 20
-4754.143859835423
 10
36182.89211856837
 20
-4754.143859835423
 10
36182.89211856837
 20
-4729.143859835423
 10
36147.89211856836
 20
-4729.143859835423
 10
36147.89211856837
 20
-4669.143859835421
 10
36180.39211856836
 20
-4669.143859835421
 10
36180.39211856836
 20
-4644.143859835422
 10
36132.89211856836
 20
-4644.143859835422
 10
36132.89211856836
 20
-4609.143859835421
 10
36107.89211856836
 20
-4609.143859835421
 10
36107.89211856836
 20
-4644.143859835422
 10
36032.89211856838
 20
-4644.143859835422
 10
36032.89211856838
 20
-4609.143859835421
 10
36007.89211856837
 20
-4609.143859835421
 10
36007.89211856837
 20
-4644.143859835422
 10
35932.89211856836
 20
-4644.143859835422
 10
35932.89211856836
 20
-4609.143859835421
 10
35907.89211856836
 20
-4609.143859835421
 10
35907.89211856836
 20
-4644.143859835422
 10
35860.39211856836
 20
-4644.143859835422
 10
35860.39211856836
 20
-4669.143859835421
 10
35892.89211856836
 20
-4669.143859835421
 10
35892.89211856837
 20
-4729.143859835423
 10
35857.89211856837
 20
-4729.143859835423
 10
35857.89211856837
 20
-4754.143859835423
 10
35892.89211856837
 20
-4754.143859835423
 10
35892.89211856835
 20
-4839.143859835424
 10
35857.89211856837
 20
-4839.143859835424
 10
35857.89211856837
 20
-4864.143859835423
 10
35892.89211856837
 20
-4864.143859835423
  0
CIRCLE
  5
6948
330
1F
100
AcDbEntity
  8
Defpoints
100
AcDbCircle
 10
35870.39211856837
 20
-4621.643859835429
 30
0.0
 40
9.0
  0
CIRCLE
  5
694F
330
1F
100
AcDbEntity
  8
Defpoints
100
AcDbCircle
 10
36170.39211856835
 20
-4621.643859835429
 30
0.0
 40
9.0
  0
CIRCLE
  5
6950
330
1F
100
AcDbEntity
  8
Defpoints
100
AcDbCircle
 10
35870.39211856837
 20
-4971.643859835419
 30
0.0
 40
9.0
  0
CIRCLE
  5
6951
330
1F
100
AcDbEntity
  8
Defpoints
100
AcDbCircle
 10
36170.39211856835
 20
-4971.643859835419
 30
0.0
 40
9.0
  0
CIRCLE
  5
6953
330
1F
100
AcDbEntity
  8
Defpoints
100
AcDbCircle
 10
36170.39211856835
 20
-4796.643859835423
 30
0.0
 40
9.0
  0
CIRCLE
  5
6954
330
1F
100
AcDbEntity
  8
Defpoints
100
AcDbCircle
 10
35870.39211856837
 20
-4796.643859835423
 30
0.0
 40
9.0
  0
LWPOLYLINE
  5
6D45
330
1F
100
AcDbEntity
  8
Defpoints
  6
ACAD_ISO02W100
100
AcDbPolyline
 90
       12
 70
     1
 43
0.0
 10
39163.22037072438
 20
-4509.14385983543
 10
39163.22037072439
 20
-4559.143859835429
 10
39050.72037072439
 20
-4559.143859835429
 10
39050.72037072439
 20
-4509.14385983543
 10
39025.72037072439
 20
-4509.14385983543
 10
39025.72037072439
 20
-4559.143859835429
 10
38913.22037072439
 20
-4559.143859835429
 10
38913.22037072439
 20
-4509.14385983543
 10
38888.22037072439
 20
-4509.14385983543
 10
38888.22037072439
 20
-4584.143859835427
 10
39188.22037072439
 20
-4584.143859835427
 10
39188.22037072439
 20
-4509.14385983543
  0
LWPOLYLINE
  5
6D46
330
1F
100
AcDbEntity
  8
Defpoints
  6
ACAD_ISO02W100
100
AcDbPolyline
 90
        4
 70
     0
 43
0.0
 10
39206.6302733011
 20
-4585.55628772907
 10
39284.41201923162
 20
-4507.774541798545
 10
39302.08968876127
 20
-4525.452211328206
 10
39250.72037072439
 20
-4576.821529365093
  0
LINE
  5
6D47
330
1F
100
AcDbEntity
  8
Defpoints
  6
ACAD_ISO02W100
100
AcDbLine
 10
39250.72037072439
 20
-4576.821529365093
 30
0.0
 11
39250.72037072439
 21
-4611.643859835429
 31
0.0
  0
LWPOLYLINE
  5
6D48
330
1F
100
AcDbEntity
  8
Defpoints
  6
ACAD_ISO02W100
100
AcDbPolyline
 90
       16
 70
     0
 43
0.0
 10
39250.72037072439
 20
-4981.643859835429
 10
39300.72037072439
 20
-4981.643859835429
 10
39300.72037072439
 20
-4956.643859835429
 10
39250.72037072439
 20
-4956.643859835429
 10
39250.72037072439
 20
-4864.143859835429
 10
39300.72037072439
 20
-4864.143859835429
 10
39300.72037072439
 20
-4839.143859835429
 10
39250.72037072439
 20
-4839.143859835429
 10
39250.72037072439
 20
-4754.143859835429
 10
39300.72037072439
 20
-4754.143859835429
 10
39300.72037072439
 20
-4729.143859835429
 10
39250.72037072439
 20
-4729.143859835429
 10
39250.72037072439
 20
-4636.643859835429
 10
39300.72037072439
 20
-4636.643859835429
 10
39300.72037072439
 20
-4611.643859835429
 10
39250.72037072439
 20
-4611.643859835429
  0
LWPOLYLINE
  5
6D49
330
1F
100
AcDbEntity
  8
Defpoints
  6
ACAD_ISO02W100
100
AcDbPolyline
 90
        2
 70
     0
 43
0.0
 10
39225.72037072439
 20
-4619.143859835427
 10
39225.72037072439
 20
-4974.143859835431
  0
LINE
  5
6D4A
330
1F
100
AcDbEntity
  8
Defpoints
100
AcDbLine
 10
38763.22037072439
 20
-4496.643859835429
 30
0.0
 11
39313.22037072439
 21
-4496.643859835429
 31
0.0
  0
LWPOLYLINE
  5
6D4B
330
1F
100
AcDbEntity
  8
Defpoints
  6
ACAD_ISO02W100
100
AcDbPolyline
 90
        4
 70
     0
 43
0.0
 10
38869.81046814769
 20
-4585.55628772907
 10
38792.02872221717
 20
-4507.774541798545
 10
38774.35105268752
 20
-4525.452211328206
 10
38825.7203707244
 20
-4576.821529365093
  0
LWPOLYLINE
  5
6D4C
330
1F
100
AcDbEntity
  8
Defpoints
  6
ACAD_ISO02W100
100
AcDbPolyline
 90
       16
 70
     0
 43
0.0
 10
38825.7203707244
 20
-4981.643859835429
 10
38775.7203707244
 20
-4981.643859835429
 10
38775.7203707244
 20
-4956.643859835429
 10
38825.7203707244
 20
-4956.643859835429
 10
38825.7203707244
 20
-4864.143859835429
 10
38775.7203707244
 20
-4864.143859835429
 10
38775.7203707244
 20
-4839.143859835429
 10
38825.7203707244
 20
-4839.143859835429
 10
38825.72037072441
 20
-4754.143859835429
 10
38775.7203707244
 20
-4754.143859835429
 10
38775.7203707244
 20
-4729.143859835429
 10
38825.7203707244
 20
-4729.143859835429
 10
38825.7203707244
 20
-4636.643859835429
 10
38775.7203707244
 20
-4636.643859835429
 10
38775.7203707244
 20
-4611.643859835429
 10
38825.7203707244
 20
-4611.643859835429
  0
LWPOLYLINE
  5
6D4D
330
1F
100
AcDbEntity
  8
Defpoints
  6
ACAD_ISO02W100
100
AcDbPolyline
 90
        2
 70
     0
 43
0.0
 10
38850.7203707244
 20
-4619.143859835427
 10
38850.7203707244
 20
-4974.143859835431
  0
LWPOLYLINE
  5
6D4E
330
1F
100
AcDbEntity
  8
Defpoints
  6
ACAD_ISO02W100
100
AcDbPolyline
 90
        4
 70
     0
 43
0.0
 10
38869.81046814769
 20
-5007.731431941786
 10
38792.02872221717
 20
-5085.51317787231
 10
38774.35105268752
 20
-5067.83550834265
 10
38825.7203707244
 20
-5016.466190305764
  0
LWPOLYLINE
  5
6D4F
330
1F
100
AcDbEntity
  8
Defpoints
  6
ACAD_ISO02W100
100
AcDbPolyline
 90
       12
 70
     1
 43
0.0
 10
39163.22037072438
 20
-5084.143859835427
 10
39163.22037072439
 20
-5034.143859835428
 10
39050.72037072439
 20
-5034.143859835428
 10
39050.72037072439
 20
-5084.143859835427
 10
39025.72037072439
 20
-5084.143859835427
 10
39025.72037072439
 20
-5034.143859835428
 10
38913.22037072439
 20
-5034.143859835428
 10
38913.22037072439
 20
-5084.143859835427
 10
38888.22037072439
 20
-5084.143859835427
 10
38888.22037072439
 20
-5009.143859835427
 10
39188.22037072439
 20
-5009.143859835427
 10
39188.22037072439
 20
-5084.143859835427
  0
LWPOLYLINE
  5
6D50
330
1F
100
AcDbEntity
  8
Defpoints
  6
ACAD_ISO02W100
100
AcDbPolyline
 90
        4
 70
     0
 43
0.0
 10
39206.6302733011
 20
-5007.731431941786
 10
39284.41201923162
 20
-5085.51317787231
 10
39302.08968876127
 20
-5067.83550834265
 10
39250.72037072439
 20
-5016.466190305764
  0
LWPOLYLINE
  5
6D51
330
1F
100
AcDbEntity
  8
Defpoints
100
AcDbPolyline
 90
        8
 70
     1
 43
0.0
 10
38885.7203707244
 20
-5009.143859835432
 42
-0.4142135623730839
 10
38850.7203707244
 20
-4974.143859835432
 10
38850.72037072438
 20
-4619.143859835428
 42
-0.4142135623731008
 10
38885.72037072438
 20
-4584.143859835427
 10
39190.72037072439
 20
-4584.143859835427
 42
-0.4142135623730957
 10
39225.72037072439
 20
-4619.143859835427
 10
39225.72037072439
 20
-4974.143859835431
 42
-0.4142135623730951
 10
39190.72037072439
 20
-5009.143859835432
  0
LINE
  5
6D57
330
1F
100
AcDbEntity
  8
Defpoints
100
AcDbLine
 10
39313.22037072439
 20
-4496.643859835429
 30
0.0
 11
39313.22037072439
 21
-5096.643859835428
 31
0.0
  0
LINE
  5
6D58
330
1F
100
AcDbEntity
  8
Defpoints
100
AcDbLine
 10
38763.22037072439
 20
-4496.643859835429
 30
0.0
 11
38763.22037072439
 21
-5096.643859835428
 31
0.0
  0
LINE
  5
6D59
330
1F
100
AcDbEntity
  8
Defpoints
100
AcDbLine
 10
38763.22037072439
 20
-5096.643859835428
 30
0.0
 11
39313.22037072439
 21
-5096.643859835428
 31
0.0
  0
LINE
  5
A7C1
330
1F
100
AcDbEntity
  8
Defpoints
100
AcDbLine
 10
33498.93700084665
 20
-9456.601983837604
 30
0.0
 11
33498.93700084665
 21
-9052.601983837625
 31
0.0
  0
LINE
  5
A7C2
330
1F
100
AcDbEntity
  8
Defpoints
100
AcDbLine
 10
33321.73700084665
 20
-9254.601983837625
 30
0.0
 11
33676.13700084666
 21
-9254.601983837625
 31
0.0
  0
LINE
  5
101A9
330
1F
100
AcDbEntity
  8
Defpoints
 62
     0
100
AcDbLine
 10
23606.37837943805
 20
-16902.67967647812
 30
0.0
 11
23623.0521561942
 21
-16902.67967647812
 31
0.0
  0
LINE
  5
101AA
330
1F
100
AcDbEntity
  8
Defpoints
 62
     0
100
AcDbLine
 10
22844.0462687439
 20
-16902.67967647812
 30
0.0
 11
22860.72004550005
 21
-16902.67967647812
 31
0.0
  0
LINE
  5
101B1
330
1F
100
AcDbEntity
  8
Defpoints
  6
CENTER
 62
     0
100
AcDbLine
 10
23233.54921246905
 20
-16832.50501655353
 30
0.0
 11
23233.54921246905
 21
-16947.50501655353
 31
0.0
  0
LINE
  5
101B2
330
1F
100
AcDbEntity
  8
Defpoints
  6
CENTER
 62
     0
100
AcDbLine
 10
23424.54921246905
 20
-16712.42640365045
 30
0.0
 11
23424.54921246905
 21
-16637.62263618644
 31
0.0
  0
LINE
  5
101B3
330
1F
100
AcDbEntity
  8
Defpoints
 62
     0
100
AcDbLine
 10
23224.37837943806
 20
-16902.67967647812
 30
0.0
 11
23242.72004550004
 21
-16902.67967647812
 31
0.0
  0
ARC
  5
101B4
330
1F
100
AcDbEntity
  8
Defpoints
 62
     0
100
AcDbCircle
 10
22860.72004550005
 20
-16898.67967647812
 30
0.0
 40
4.0
100
AcDbArc
 50
270.0
 51
357.499999997426
  0
ARC
  5
101B5
330
1F
100
AcDbEntity
  8
Defpoints
 62
     0
100
AcDbCircle
 10
22860.72004550005
 20
-16898.67967647812
 30
0.0
 40
5.2
100
AcDbArc
 50
270.0
 51
357.499999997426
  0
LINE
  5
101B6
330
1F
100
AcDbEntity
  8
Defpoints
 62
     0
100
AcDbLine
 10
22864.54921246904
 20
-16903.87967647812
 30
0.0
 11
22864.54921246904
 21
-16903.119486909
 31
0.0
  0
LINE
  5
101B7
330
1F
100
AcDbEntity
  8
Defpoints
 62
     0
100
AcDbLine
 10
23220.54921246905
 20
-16903.87967647812
 30
0.0
 11
23220.54921246905
 21
-16903.119486909
 31
0.0
  0
ARC
  5
101B8
330
1F
100
AcDbEntity
  8
Defpoints
 62
     0
100
AcDbCircle
 10
23224.37837943806
 20
-16898.67967647812
 30
0.0
 40
4.0
100
AcDbArc
 50
182.500000002574
 51
270.0
  0
ARC
  5
101B9
330
1F
100
AcDbEntity
  8
Defpoints
 62
     0
100
AcDbCircle
 10
23224.37837943806
 20
-16898.67967647812
 30
0.0
 40
5.2
100
AcDbArc
 50
182.500000002574
 51
270.0
  0
LINE
  5
101BA
330
1F
100
AcDbEntity
  8
Defpoints
 62
     0
100
AcDbLine
 10
23220.38218655175
 20
-16898.85415402759
 30
0.0
 11
23211.84803410885
 21
-16703.38992732071
 31
0.0
  0
LINE
  5
101BB
330
1F
100
AcDbEntity
  8
Defpoints
 62
     0
100
AcDbLine
 10
22864.71623838636
 20
-16898.85415402759
 30
0.0
 11
22873.25039082926
 21
-16703.38992732073
 31
0.0
  0
LINE
  5
101BC
330
1F
100
AcDbEntity
  8
Defpoints
 62
     0
100
AcDbLine
 10
23102.54921246905
 20
-16675.87967647811
 30
0.0
 11
22982.54921246906
 21
-16675.87967647811
 31
0.0
  0
LINE
  5
101BD
330
1F
100
AcDbEntity
  8
Defpoints
  6
CENTER
 62
     0
100
AcDbLine
 10
23042.54921246905
 20
-16712.42640365045
 30
0.0
 11
23042.54921246905
 21
-16637.62263618644
 31
0.0
  0
LINE
  5
101BE
330
1F
100
AcDbEntity
  8
Defpoints
 62
     0
100
AcDbLine
 10
23102.54921246905
 20
-16675.87967647811
 30
0.0
 11
23186.76345538694
 21
-16679.55654973024
 31
0.0
  0
LINE
  5
101BF
330
1F
100
AcDbEntity
  8
Defpoints
 62
     0
100
AcDbLine
 10
23099.54921246905
 20
-16672.87967647812
 30
0.0
 11
22985.54921246905
 21
-16672.87967647812
 31
0.0
  0
LINE
  5
101C0
330
1F
100
AcDbEntity
  8
Defpoints
 62
     0
100
AcDbLine
 10
23089.54921246905
 20
-16669.87967647812
 30
0.0
 11
22995.54921246906
 21
-16669.87967647812
 31
0.0
  0
LINE
  5
101C1
330
1F
100
AcDbEntity
  8
Defpoints
 62
     0
100
AcDbLine
 10
23089.54921246905
 20
-16669.87967647812
 30
0.0
 11
23099.54921246905
 21
-16672.87967647812
 31
0.0
  0
LINE
  5
101C2
330
1F
100
AcDbEntity
  8
Defpoints
 62
     0
100
AcDbLine
 10
23099.54921246905
 20
-16672.87967647812
 30
0.0
 11
23102.54921246905
 21
-16675.87967647811
 31
0.0
  0
LINE
  5
101C3
330
1F
100
AcDbEntity
  8
Defpoints
 62
     0
100
AcDbLine
 10
23103.06776606044
 20
-16674.70117379468
 30
0.0
 11
23186.81579865178
 21
-16678.35769186435
 31
0.0
  0
LINE
  5
101C4
330
1F
100
AcDbEntity
  8
Defpoints
 62
     0
100
AcDbLine
 10
23100.18381174587
 20
-16671.8172194801
 30
0.0
 11
23103.06776606044
 21
-16674.70117379468
 31
0.0
  0
LINE
  5
101C5
330
1F
100
AcDbEntity
  8
Defpoints
 62
     0
100
AcDbLine
 10
23089.72533507262
 20
-16668.67967647811
 30
0.0
 11
23100.18381174587
 21
-16671.8172194801
 31
0.0
  0
LINE
  5
101C6
330
1F
100
AcDbEntity
  8
Defpoints
 62
     0
100
AcDbLine
 10
23089.72533507262
 20
-16668.67967647811
 30
0.0
 11
22995.37308986548
 21
-16668.67967647811
 31
0.0
  0
LINE
  5
101C7
330
1F
100
AcDbEntity
  8
Defpoints
 62
     0
100
AcDbLine
 10
23219.18332868585
 20
-16898.90649729243
 30
0.0
 11
23210.64917624295
 21
-16703.44227058556
 31
0.0
  0
LINE
  5
101C8
330
1F
100
AcDbEntity
  8
Defpoints
 62
     0
100
AcDbLine
 10
22865.91509625226
 20
-16898.90649729243
 30
0.0
 11
22874.44924869516
 21
-16703.44227058556
 31
0.0
  0
ARC
  5
101C9
330
1F
100
AcDbEntity
  8
Defpoints
 62
     0
100
AcDbCircle
 10
23185.67297070281
 20
-16704.53275526979
 30
0.0
 40
25.0
100
AcDbArc
 50
2.50000000017924
 51
87.49999999982533
  0
ARC
  5
101CA
330
1F
100
AcDbEntity
  8
Defpoints
 62
     0
100
AcDbCircle
 10
23185.67297070281
 20
-16704.5327552698
 30
0.0
 40
26.2
100
AcDbArc
 50
2.50000000017924
 51
87.49999999982533
  0
ARC
  5
101CB
330
1F
100
AcDbEntity
  8
Defpoints
 62
     0
100
AcDbCircle
 10
22899.42545423529
 20
-16704.5327552698
 30
0.0
 40
26.2
100
AcDbArc
 50
92.5000000001747
 51
177.4999999998206
  0
ARC
  5
101CC
330
1F
100
AcDbEntity
  8
Defpoints
 62
     0
100
AcDbCircle
 10
22899.42545423529
 20
-16704.53275526979
 30
0.0
 40
25.0
100
AcDbArc
 50
92.5000000001747
 51
177.4999999998206
  0
LINE
  5
101CD
330
1F
100
AcDbEntity
  8
Defpoints
 62
     0
100
AcDbLine
 10
22982.03065887766
 20
-16674.70117379468
 30
0.0
 11
22898.28262628633
 21
-16678.35769186435
 31
0.0
  0
LINE
  5
101CE
330
1F
100
AcDbEntity
  8
Defpoints
 62
     0
100
AcDbLine
 10
22982.54921246906
 20
-16675.87967647811
 30
0.0
 11
22898.33496955116
 21
-16679.55654973024
 31
0.0
  0
LINE
  5
101CF
330
1F
100
AcDbEntity
  8
Defpoints
 62
     0
100
AcDbLine
 10
22995.37308986548
 20
-16668.67967647811
 30
0.0
 11
22984.91461319223
 21
-16671.8172194801
 31
0.0
  0
LINE
  5
101D0
330
1F
100
AcDbEntity
  8
Defpoints
 62
     0
100
AcDbLine
 10
22984.91461319223
 20
-16671.8172194801
 30
0.0
 11
22982.03065887766
 21
-16674.70117379468
 31
0.0
  0
LINE
  5
101D1
330
1F
100
AcDbEntity
  8
Defpoints
 62
     0
100
AcDbLine
 10
22985.54921246905
 20
-16672.87967647812
 30
0.0
 11
22982.54921246906
 21
-16675.87967647811
 31
0.0
  0
LINE
  5
101D2
330
1F
100
AcDbEntity
  8
Defpoints
 62
     0
100
AcDbLine
 10
22995.54921246905
 20
-16669.87967647812
 30
0.0
 11
22985.54921246905
 21
-16672.87967647812
 31
0.0
  0
LINE
  5
101D3
330
1F
100
AcDbEntity
  8
Defpoints
 62
     0
100
AcDbLine
 10
23471.54921246905
 20
-16669.87967647812
 30
0.0
 11
23481.54921246905
 21
-16672.87967647812
 31
0.0
  0
LINE
  5
101D4
330
1F
100
AcDbEntity
  8
Defpoints
 62
     0
100
AcDbLine
 10
23481.54921246905
 20
-16672.87967647812
 30
0.0
 11
23484.54921246904
 21
-16675.87967647811
 31
0.0
  0
LINE
  5
101D5
330
1F
100
AcDbEntity
  8
Defpoints
 62
     0
100
AcDbLine
 10
23482.18381174587
 20
-16671.8172194801
 30
0.0
 11
23485.06776606044
 21
-16674.70117379468
 31
0.0
  0
LINE
  5
101D6
330
1F
100
AcDbEntity
  8
Defpoints
 62
     0
100
AcDbLine
 10
23471.72533507262
 20
-16668.67967647811
 30
0.0
 11
23482.18381174587
 21
-16671.8172194801
 31
0.0
  0
LINE
  5
101D7
330
1F
100
AcDbEntity
  8
Defpoints
 62
     0
100
AcDbLine
 10
23484.54921246904
 20
-16675.87967647811
 30
0.0
 11
23568.76345538694
 21
-16679.55654973024
 31
0.0
  0
LINE
  5
101D8
330
1F
100
AcDbEntity
  8
Defpoints
 62
     0
100
AcDbLine
 10
23485.06776606044
 20
-16674.70117379468
 30
0.0
 11
23568.81579865178
 21
-16678.35769186435
 31
0.0
  0
ARC
  5
101D9
330
1F
100
AcDbEntity
  8
Defpoints
 62
     0
100
AcDbCircle
 10
23567.67297070281
 20
-16704.53275526979
 30
0.0
 40
25.0
100
AcDbArc
 50
2.50000000017924
 51
87.49999999982533
  0
ARC
  5
101DA
330
1F
100
AcDbEntity
  8
Defpoints
 62
     0
100
AcDbCircle
 10
23567.67297070281
 20
-16704.5327552698
 30
0.0
 40
26.2
100
AcDbArc
 50
2.50000000017924
 51
87.49999999982533
  0
ARC
  5
101DB
330
1F
100
AcDbEntity
  8
Defpoints
 62
     0
100
AcDbCircle
 10
23281.4254542353
 20
-16704.5327552698
 30
0.0
 40
26.2
100
AcDbArc
 50
92.5000000001747
 51
177.4999999998206
  0
ARC
  5
101DC
330
1F
100
AcDbEntity
  8
Defpoints
 62
     0
100
AcDbCircle
 10
23281.4254542353
 20
-16704.53275526979
 30
0.0
 40
25.0
100
AcDbArc
 50
92.5000000001747
 51
177.4999999998206
  0
LINE
  5
101DD
330
1F
100
AcDbEntity
  8
Defpoints
 62
     0
100
AcDbLine
 10
23602.54921246905
 20
-16903.87967647812
 30
0.0
 11
23602.54921246905
 21
-16903.119486909
 31
0.0
  0
LINE
  5
101DE
330
1F
100
AcDbEntity
  8
Defpoints
 62
     0
100
AcDbLine
 10
23601.18332868584
 20
-16898.90649729243
 30
0.0
 11
23592.64917624294
 21
-16703.44227058556
 31
0.0
  0
ARC
  5
101DF
330
1F
100
AcDbEntity
  8
Defpoints
 62
     0
100
AcDbCircle
 10
23606.37837943805
 20
-16898.67967647812
 30
0.0
 40
5.2
100
AcDbArc
 50
182.500000002574
 51
270.0
  0
ARC
  5
101E0
330
1F
100
AcDbEntity
  8
Defpoints
 62
     0
100
AcDbCircle
 10
23242.72004550004
 20
-16898.67967647812
 30
0.0
 40
5.2
100
AcDbArc
 50
270.0
 51
357.499999997426
  0
LINE
  5
101E1
330
1F
100
AcDbEntity
  8
Defpoints
 62
     0
100
AcDbLine
 10
23247.91509625225
 20
-16898.90649729243
 30
0.0
 11
23256.44924869516
 21
-16703.44227058556
 31
0.0
  0
LINE
  5
101E2
330
1F
100
AcDbEntity
  8
Defpoints
 62
     0
100
AcDbLine
 10
23377.37308986548
 20
-16668.67967647811
 30
0.0
 11
23471.72533507262
 21
-16668.67967647811
 31
0.0
  0
LINE
  5
101E3
330
1F
100
AcDbEntity
  8
Defpoints
 62
     0
100
AcDbLine
 10
23377.37308986548
 20
-16668.67967647811
 30
0.0
 11
23366.91461319223
 21
-16671.8172194801
 31
0.0
  0
LINE
  5
101E4
330
1F
100
AcDbEntity
  8
Defpoints
 62
     0
100
AcDbLine
 10
23366.91461319223
 20
-16671.8172194801
 30
0.0
 11
23364.03065887766
 21
-16674.70117379468
 31
0.0
  0
LINE
  5
101E5
330
1F
100
AcDbEntity
  8
Defpoints
 62
     0
100
AcDbLine
 10
23364.03065887766
 20
-16674.70117379468
 30
0.0
 11
23280.28262628632
 21
-16678.35769186435
 31
0.0
  0
LINE
  5
101E6
330
1F
100
AcDbEntity
  8
Defpoints
 62
     0
100
AcDbLine
 10
23367.54921246904
 20
-16672.87967647812
 30
0.0
 11
23364.54921246906
 21
-16675.87967647811
 31
0.0
  0
LINE
  5
101E7
330
1F
100
AcDbEntity
  8
Defpoints
 62
     0
100
AcDbLine
 10
23377.54921246905
 20
-16669.87967647812
 30
0.0
 11
23367.54921246904
 21
-16672.87967647812
 31
0.0
  0
LINE
  5
101E8
330
1F
100
AcDbEntity
  8
Defpoints
 62
     0
100
AcDbLine
 10
23377.54921246905
 20
-16669.87967647812
 30
0.0
 11
23471.54921246904
 21
-16669.87967647812
 31
0.0
  0
LINE
  5
101E9
330
1F
100
AcDbEntity
  8
Defpoints
 62
     0
100
AcDbLine
 10
23367.54921246904
 20
-16672.87967647812
 30
0.0
 11
23481.54921246905
 21
-16672.87967647812
 31
0.0
  0
LINE
  5
101EA
330
1F
100
AcDbEntity
  8
Defpoints
 62
     0
100
AcDbLine
 10
23364.54921246906
 20
-16675.87967647811
 30
0.0
 11
23280.33496955117
 21
-16679.55654973024
 31
0.0
  0
LINE
  5
101EB
330
1F
100
AcDbEntity
  8
Defpoints
 62
     0
100
AcDbLine
 10
23364.54921246905
 20
-16675.87967647811
 30
0.0
 11
23484.54921246904
 21
-16675.87967647811
 31
0.0
  0
LINE
  5
101EC
330
1F
100
AcDbEntity
  8
Defpoints
 62
     0
100
AcDbLine
 10
23602.38218655174
 20
-16898.85415402759
 30
0.0
 11
23593.84803410883
 21
-16703.38992732073
 31
0.0
  0
ARC
  5
101ED
330
1F
100
AcDbEntity
  8
Defpoints
 62
     0
100
AcDbCircle
 10
23606.37837943805
 20
-16898.67967647812
 30
0.0
 40
4.0
100
AcDbArc
 50
182.500000002574
 51
270.0
  0
ARC
  5
101EE
330
1F
100
AcDbEntity
  8
Defpoints
 62
     0
100
AcDbCircle
 10
23242.72004550004
 20
-16898.67967647812
 30
0.0
 40
4.0
100
AcDbArc
 50
270.0
 51
357.499999997426
  0
LINE
  5
101EF
330
1F
100
AcDbEntity
  8
Defpoints
 62
     0
100
AcDbLine
 10
23246.71623838635
 20
-16898.85415402759
 30
0.0
 11
23255.25039082926
 21
-16703.38992732071
 31
0.0
  0
LINE
  5
101F0
330
1F
100
AcDbEntity
  8
Defpoints
 62
     0
100
AcDbLine
 10
23246.54921246905
 20
-16903.87967647812
 30
0.0
 11
23246.54921246905
 21
-16903.119486909
 31
0.0
  0
LINE
  5
101F1
330
1F
100
AcDbEntity
  8
Defpoints
 62
     0
100
AcDbLine
 10
22843.54921246904
 20
-16903.87967647812
 30
0.0
 11
23623.54921246905
 21
-16903.87967647812
 31
0.0
  0
LINE
  5
101F2
330
1F
100
AcDbEntity
  8
Defpoints
  6
CENTER
 62
     0
100
AcDbLine
 10
22980.54921246905
 20
-17548.88350008981
 30
0.0
 11
23100.54921246905
 21
-17548.88350008981
 31
0.0
  0
LWPOLYLINE
  5
101F3
330
1F
100
AcDbEntity
  8
Defpoints
 62
     0
100
AcDbPolyline
 90
        8
 70
     1
 43
0.0
 10
22890.74921246905
 20
-17826.8835000898
 42
-0.4142135623730552
 10
22864.54921246904
 20
-17800.6835000898
 10
22864.54921246904
 20
-17447.08350008981
 42
-0.4142135623730632
 10
22890.74921246905
 20
-17420.88350008981
 10
23194.34921246905
 20
-17420.88350008981
 42
-0.4142135623730632
 10
23220.54921246905
 20
-17447.08350008981
 10
23220.54921246905
 20
-17800.68350008981
 42
-0.4142135623730697
 10
23194.34921246905
 20
-17826.88350008981
  0
LINE
  5
101F4
330
1F
100
AcDbEntity
  8
Defpoints
  6
CENTER
 62
     0
100
AcDbLine
 10
23042.54921246905
 20
-17420.88350008981
 30
0.0
 11
23042.54921246905
 21
-17826.88350008981
 31
0.0
  0
CIRCLE
  5
101F5
330
1F
100
AcDbEntity
  8
Defpoints
 62
     0
100
AcDbCircle
 10
23042.54921246905
 20
-17548.88350008981
 30
0.0
 40
47.0
  0
CIRCLE
  5
101F6
330
1F
100
AcDbEntity
  8
Defpoints
 62
     0
100
AcDbCircle
 10
23042.54921246905
 20
-17548.88350008981
 30
0.0
 40
57.0
  0
CIRCLE
  5
101F7
330
1F
100
AcDbEntity
  8
Defpoints
 62
     0
100
AcDbCircle
 10
23042.54921246905
 20
-17548.88350008981
 30
0.0
 40
60.0
  0
LWPOLYLINE
  5
101F8
330
1F
100
AcDbEntity
  8
Defpoints
 62
     0
100
AcDbPolyline
 90
        8
 70
     1
 43
0.0
 10
23576.34921246905
 20
-17826.8835000898
 42
0.4142135623730552
 10
23602.54921246905
 20
-17800.6835000898
 10
23602.54921246905
 20
-17447.08350008981
 42
0.4142135623730632
 10
23576.34921246905
 20
-17420.88350008981
 10
23272.74921246905
 20
-17420.88350008981
 42
0.4142135623730632
 10
23246.54921246905
 20
-17447.08350008981
 10
23246.54921246905
 20
-17800.68350008981
 42
0.4142135623730697
 10
23272.74921246905
 20
-17826.88350008981
  0
LINE
  5
101F9
330
1F
100
AcDbEntity
  8
Defpoints
  6
CENTER
 62
     0
100
AcDbLine
 10
23628.54921246904
 20
-17623.88350008981
 30
0.0
 11
22838.54921246905
 21
-17623.88350008981
 31
0.0
  0
LINE
  5
101FA
330
1F
100
AcDbEntity
  8
Defpoints
  6
CENTER
 62
     0
100
AcDbLine
 10
23233.54921246905
 20
-17852.8835000898
 30
0.0
 11
23233.54921246905
 21
-17394.88350008981
 31
0.0
  0
LINE
  5
101FB
330
1F
100
AcDbEntity
  8
Defpoints
  6
CENTER
 62
     0
100
AcDbLine
 10
23424.54921246905
 20
-17420.88350008981
 30
0.0
 11
23424.54921246905
 21
-17826.88350008981
 31
0.0
  0
LINE
  5
101FC
330
1F
100
AcDbEntity
  8
Defpoints
  6
CENTER
 62
     0
100
AcDbLine
 10
23484.54921246905
 20
-17548.88350008981
 30
0.0
 11
23364.54921246905
 21
-17548.88350008981
 31
0.0
  0
CIRCLE
  5
101FD
330
1F
100
AcDbEntity
  8
Defpoints
 62
     0
100
AcDbCircle
 10
23424.54921246905
 20
-17548.88350008981
 30
0.0
 40
60.0
  0
CIRCLE
  5
101FE
330
1F
100
AcDbEntity
  8
Defpoints
 62
     0
100
AcDbCircle
 10
23424.54921246905
 20
-17548.88350008981
 30
0.0
 40
57.0
  0
CIRCLE
  5
101FF
330
1F
100
AcDbEntity
  8
Defpoints
 62
     0
100
AcDbCircle
 10
23424.54921246905
 20
-17548.88350008981
 30
0.0
 40
47.0
  0
LINE
  5
10206
330
1F
100
AcDbEntity
  8
Defpoints
 62
     0
100
AcDbLine
 10
23602.38218655174
 20
-16898.85415402759
 30
0.0
 11
23602.38218655174
 21
-16856.41704543691
 31
0.0
  0
LINE
  5
1020A
330
1F
100
AcDbEntity
  8
Defpoints
 62
     0
100
AcDbLine
 10
22843.54921246904
 20
-16903.87967647812
 30
0.0
 11
22838.54921246905
 21
-16898.87967647812
 31
0.0
  0
LINE
  5
1020B
330
1F
100
AcDbEntity
  8
Defpoints
 62
     0
100
AcDbLine
 10
22844.0462687439
 20
-16902.67967647812
 30
0.0
 11
22839.39774060647
 21
-16898.0311483407
 31
0.0
  0
LINE
  5
1020C
330
1F
100
AcDbEntity
  8
Defpoints
 62
     0
100
AcDbLine
 10
22838.54921246905
 20
-16898.87967647812
 30
0.0
 11
22839.39774060647
 21
-16898.0311483407
 31
0.0
  0
LINE
  5
1020D
330
1F
100
AcDbEntity
  8
Defpoints
 62
     0
100
AcDbLine
 10
23628.54921246904
 20
-16898.87967647812
 30
0.0
 11
23627.70068433163
 21
-16898.0311483407
 31
0.0
  0
LINE
  5
1020E
330
1F
100
AcDbEntity
  8
Defpoints
 62
     0
100
AcDbLine
 10
23623.0521561942
 20
-16902.67967647812
 30
0.0
 11
23627.70068433163
 21
-16898.0311483407
 31
0.0
  0
LINE
  5
1020F
330
1F
100
AcDbEntity
  8
Defpoints
 62
     0
100
AcDbLine
 10
23623.54921246905
 20
-16903.87967647812
 30
0.0
 11
23628.54921246904
 21
-16898.87967647812
 31
0.0
  0
LINE
  5
10212
330
1F
100
AcDbEntity
  8
Defpoints
 62
     0
100
AcDbLine
 10
22839.39774060647
 20
-16898.0311483407
 30
0.0
 11
22864.75217159066
 21
-16898.0311483407
 31
0.0
  0
LINE
  5
10213
330
1F
100
AcDbEntity
  8
Defpoints
 62
     0
100
AcDbLine
 10
23627.70068433162
 20
-16898.0311483407
 30
0.0
 11
23602.34625334743
 21
-16898.0311483407
 31
0.0
  0
LINE
  5
10214
330
1F
100
AcDbEntity
  8
Defpoints
 62
     0
100
AcDbLine
 10
23220.34625334744
 20
-16898.0311483407
 30
0.0
 11
23246.75217159066
 21
-16898.0311483407
 31
0.0
  0
LWPOLYLINE
  5
10215
330
1F
100
AcDbEntity
  8
Defpoints
 62
     0
100
AcDbPolyline
 90
        8
 70
     1
 43
0.0
 10
23576.34921246905
 20
-17852.8835000898
 42
0.4142135623730696
 10
23628.54921246904
 20
-17800.6835000898
 10
23628.54921246904
 20
-17447.08350008981
 42
0.4142135623730696
 10
23576.34921246905
 20
-17394.88350008981
 10
22890.74921246905
 20
-17394.88350008981
 42
0.414213562373048
 10
22838.54921246905
 20
-17447.08350008981
 10
22838.54921246905
 20
-17800.6835000898
 42
0.4142135623730696
 10
22890.74921246905
 20
-17852.8835000898
  0
LWPOLYLINE
  5
10216
330
1F
100
AcDbEntity
  8
Defpoints
 62
     0
100
AcDbPolyline
 90
        8
 70
     1
 43
0.0
 10
23576.34921246905
 20
-17847.8835000898
 42
0.4142135623730684
 10
23623.54921246905
 20
-17800.6835000898
 10
23623.54921246905
 20
-17447.08350008981
 42
0.4142135623730682
 10
23576.34921246905
 20
-17399.88350008981
 10
22890.74921246905
 20
-17399.88350008981
 42
0.4142135623730903
 10
22843.54921246904
 20
-17447.08350008981
 10
22843.54921246904
 20
-17800.6835000898
 42
0.4142135623730676
 10
22890.74921246905
 20
-17847.8835000898
  0
LINE
  5
102F3
330
1F
100
AcDbEntity
  8
Defpoints
 62
     0
100
AcDbLine
 10
24159.29492508368
 20
-17420.88350008981
 30
0.0
 11
24159.89492508368
 21
-17420.88350008981
 31
0.0
  0
LINE
  5
102F4
330
1F
100
AcDbEntity
  8
Defpoints
  6
CENTER
 62
     0
100
AcDbLine
 10
24350.74819791135
 20
-17548.8835000898
 30
0.0
 11
24425.55196537536
 21
-17548.8835000898
 31
0.0
  0
LINE
  5
102F5
330
1F
100
AcDbEntity
  8
Defpoints
 62
     0
100
AcDbLine
 10
24393.29492508369
 20
-17595.88350008981
 30
0.0
 11
24390.29492508367
 21
-17605.88350008981
 31
0.0
  0
LINE
  5
102F6
330
1F
100
AcDbEntity
  8
Defpoints
 62
     0
100
AcDbLine
 10
24390.29492508367
 20
-17605.88350008981
 30
0.0
 11
24387.29492508368
 21
-17608.8835000898
 31
0.0
  0
LINE
  5
102F7
330
1F
100
AcDbEntity
  8
Defpoints
 62
     0
100
AcDbLine
 10
24391.3573820817
 20
-17606.51809936663
 30
0.0
 11
24388.47940927694
 21
-17609.39607217139
 31
0.0
  0
LINE
  5
102F8
330
1F
100
AcDbEntity
  8
Defpoints
 62
     0
100
AcDbLine
 10
24394.49492508368
 20
-17596.05962269338
 30
0.0
 11
24391.3573820817
 21
-17606.51809936663
 31
0.0
  0
LINE
  5
102F9
330
1F
100
AcDbEntity
  8
Defpoints
 62
     0
100
AcDbLine
 10
24394.49492508368
 20
-17501.70737748625
 30
0.0
 11
24394.49492508368
 21
-17596.05962269338
 31
0.0
  0
LINE
  5
102FA
330
1F
100
AcDbEntity
  8
Defpoints
 62
     0
100
AcDbLine
 10
24394.49492508368
 20
-17501.70737748625
 30
0.0
 11
24391.3573820817
 21
-17491.24890081299
 31
0.0
  0
LINE
  5
102FB
330
1F
100
AcDbEntity
  8
Defpoints
 62
     0
100
AcDbLine
 10
24391.3573820817
 20
-17491.24890081299
 30
0.0
 11
24388.46493177464
 21
-17488.35645050594
 31
0.0
  0
LINE
  5
102FC
330
1F
100
AcDbEntity
  8
Defpoints
 62
     0
100
AcDbLine
 10
24390.29492508367
 20
-17491.88350008981
 30
0.0
 11
24387.29492508368
 21
-17488.88350008981
 31
0.0
  0
LINE
  5
102FD
330
1F
100
AcDbEntity
  8
Defpoints
 62
     0
100
AcDbLine
 10
24393.29492508369
 20
-17501.88350008981
 30
0.0
 11
24390.29492508367
 21
-17491.88350008981
 31
0.0
  0
LINE
  5
102FE
330
1F
100
AcDbEntity
  8
Defpoints
 62
     0
100
AcDbLine
 10
24393.29492508369
 20
-17501.88350008981
 30
0.0
 11
24393.29492508369
 21
-17595.88350008981
 31
0.0
  0
LINE
  5
102FF
330
1F
100
AcDbEntity
  8
Defpoints
 62
     0
100
AcDbLine
 10
24390.29492508367
 20
-17491.88350008981
 30
0.0
 11
24390.29492508367
 21
-17605.88350008981
 31
0.0
  0
LINE
  5
10300
330
1F
100
AcDbEntity
  8
Defpoints
 62
     0
100
AcDbLine
 10
24387.29492508368
 20
-17488.88350008981
 30
0.0
 11
24387.29492508368
 21
-17608.8835000898
 31
0.0
  0
LINE
  5
10301
330
1F
100
AcDbEntity
  8
Defpoints
 62
     0
100
AcDbLine
 10
24164.32044753421
 20
-17421.05052600712
 30
0.0
 11
24359.81875516084
 21
-17429.58616645511
 31
0.0
  0
ARC
  5
10302
330
1F
100
AcDbEntity
  8
Defpoints
 62
     0
100
AcDbCircle
 10
24164.49492508367
 20
-17417.05433312079
 30
0.0
 40
4.0
100
AcDbArc
 50
180.0
 51
267.4999999998253
  0
LINE
  5
10303
330
1F
100
AcDbEntity
  8
Defpoints
 62
     0
100
AcDbLine
 10
24164.26810426937
 20
-17422.24938387301
 30
0.0
 11
24359.76641189603
 21
-17430.78502432101
 31
0.0
  0
ARC
  5
10304
330
1F
100
AcDbEntity
  8
Defpoints
 62
     0
100
AcDbCircle
 10
24164.49492508367
 20
-17417.05433312079
 30
0.0
 40
5.2
100
AcDbArc
 50
180.0
 51
267.4999999998253
  0
LINE
  5
10305
330
1F
100
AcDbEntity
  8
Defpoints
 62
     0
100
AcDbLine
 10
24387.29492508368
 20
-17488.88350008981
 30
0.0
 11
24383.5389745961
 21
-17453.14801827887
 31
0.0
  0
LINE
  5
10306
330
1F
100
AcDbEntity
  8
Defpoints
 62
     0
100
AcDbLine
 10
24388.44082860756
 20
-17488.30591716529
 30
0.0
 11
24384.73240087051
 21
-17453.02258412294
 31
0.0
  0
LINE
  5
10307
330
1F
100
AcDbEntity
  8
Defpoints
 62
     0
100
AcDbLine
 10
24164.26810426937
 20
-17825.5176163066
 30
0.0
 11
24358.07864168433
 21
-17817.05566549746
 31
0.0
  0
LINE
  5
10308
330
1F
100
AcDbEntity
  8
Defpoints
 62
     0
100
AcDbLine
 10
24164.32044753421
 20
-17826.7164741725
 30
0.0
 11
24358.13098494917
 21
-17818.25452336335
 31
0.0
  0
ARC
  5
10309
330
1F
100
AcDbEntity
  8
Defpoints
 62
     0
100
AcDbCircle
 10
24164.49492508367
 20
-17830.71266705882
 30
0.0
 40
5.2
100
AcDbArc
 50
92.5000000001747
 51
180.0
  0
ARC
  5
1030A
330
1F
100
AcDbEntity
  8
Defpoints
 62
     0
100
AcDbCircle
 10
24164.49492508367
 20
-17830.71266705882
 30
0.0
 40
4.0
100
AcDbArc
 50
92.5000000001747
 51
180.0
  0
LINE
  5
1030B
330
1F
100
AcDbEntity
  8
Defpoints
 62
     0
100
AcDbLine
 10
24159.29492508368
 20
-17826.88350008981
 30
0.0
 11
24159.89492508368
 21
-17826.88350008981
 31
0.0
  0
LINE
  5
1030C
330
1F
100
AcDbEntity
  8
Defpoints
 62
     0
100
AcDbLine
 10
24387.29492508368
 20
-17608.8835000898
 30
0.0
 11
24381.49787742284
 21
-17793.34854766612
 31
0.0
  0
LINE
  5
1030D
330
1F
100
AcDbEntity
  8
Defpoints
 62
     0
100
AcDbLine
 10
24388.47940927694
 20
-17609.39607217139
 30
0.0
 11
24382.69728529527
 21
-17793.38624057701
 31
0.0
  0
ARC
  5
1030E
330
1F
100
AcDbEntity
  8
Defpoints
 62
     0
100
AcDbCircle
 10
24358.67592721189
 20
-17455.76122986056
 30
0.0
 40
25.0
100
AcDbArc
 50
5.999999999999964
 51
87.49999999982533
  0
ARC
  5
1030F
330
1F
100
AcDbEntity
  8
Defpoints
 62
     0
100
AcDbCircle
 10
24358.67592721187
 20
-17455.76122986056
 30
0.0
 40
26.2
100
AcDbArc
 50
5.999999999999964
 51
87.49999999982533
  0
ARC
  5
10313
330
1F
100
AcDbEntity
  8
Defpoints
 62
     0
100
AcDbCircle
 10
24357.00996669388
 20
-17792.5789840687
 30
0.0
 40
24.5
100
AcDbArc
 50
272.5000000001747
 51
358.1999999999821
  0
ARC
  5
10314
330
1F
100
AcDbEntity
  8
Defpoints
 62
     0
100
AcDbCircle
 10
24357.00996669388
 20
-17792.5789840687
 30
0.0
 40
25.7
100
AcDbArc
 50
272.5000000001747
 51
358.1999999999821
  0
LINE
  5
10315
330
1F
100
AcDbEntity
  8
Defpoints
 62
     0
100
AcDbLine
 10
24164.32044753421
 20
-17421.05052600712
 30
0.0
 11
24206.54713339545
 21
-17421.05052600712
 31
0.0
  0
LINE
  5
10316
330
1F
100
AcDbEntity
  8
Defpoints
 62
     0
100
AcDbLine
 10
24159.29492508368
 20
-17847.8835000898
 30
0.0
 11
24164.29492508368
 21
-17852.8835000898
 31
0.0
  0
LINE
  5
10317
330
1F
100
AcDbEntity
  8
Defpoints
 62
     0
100
AcDbLine
 10
24160.49492508367
 20
-17847.38644381495
 30
0.0
 11
24165.1434532211
 21
-17852.03497195238
 31
0.0
  0
LINE
  5
10318
330
1F
100
AcDbEntity
  8
Defpoints
 62
     0
100
AcDbLine
 10
24164.29492508368
 20
-17852.8835000898
 30
0.0
 11
24165.1434532211
 21
-17852.03497195238
 31
0.0
  0
LINE
  5
10319
330
1F
100
AcDbEntity
  8
Defpoints
 62
     0
100
AcDbLine
 10
24159.29492508367
 20
-17399.88350008981
 30
0.0
 11
24159.29492508367
 21
-17847.8835000898
 31
0.0
  0
LINE
  5
1031A
330
1F
100
AcDbEntity
  8
Defpoints
 62
     0
100
AcDbLine
 10
24160.49492508367
 20
-17830.7126670588
 30
0.0
 11
24160.49492508367
 21
-17847.38644381495
 31
0.0
  0
LINE
  5
1031B
330
1F
100
AcDbEntity
  8
Defpoints
 62
     0
100
AcDbLine
 10
24164.29492508368
 20
-17394.88350008981
 30
0.0
 11
24165.1434532211
 21
-17395.73202822723
 31
0.0
  0
LINE
  5
1031C
330
1F
100
AcDbEntity
  8
Defpoints
 62
     0
100
AcDbLine
 10
24160.49492508367
 20
-17400.38055636465
 30
0.0
 11
24165.1434532211
 21
-17395.73202822723
 31
0.0
  0
LINE
  5
1031D
330
1F
100
AcDbEntity
  8
Defpoints
 62
     0
100
AcDbLine
 10
24159.29492508368
 20
-17399.88350008981
 30
0.0
 11
24164.29492508368
 21
-17394.88350008981
 31
0.0
  0
LINE
  5
1031E
330
1F
100
AcDbEntity
  8
Defpoints
 62
     0
100
AcDbLine
 10
24160.49492508367
 20
-17417.0543331208
 30
0.0
 11
24160.49492508367
 21
-17400.38055636465
 31
0.0
  0
LINE
  5
1031F
330
1F
100
AcDbEntity
  8
Defpoints
 62
     0
100
AcDbLine
 10
24165.1434532211
 20
-17395.73202822724
 30
0.0
 11
24165.1434532211
 21
-17421.08645921143
 31
0.0
  0
LINE
  5
10320
330
1F
100
AcDbEntity
  8
Defpoints
 62
     0
100
AcDbLine
 10
24165.1434532211
 20
-17852.03497195237
 30
0.0
 11
24165.1434532211
 21
-17826.68054096819
 31
0.0
  0
ARC
  5
11C7B
330
1F
100
AcDbEntity
  8
Defpoints
 62
     0
100
AcDbCircle
 10
23551.78286035775
 20
5553.056371055059
 30
0.0
 40
52.5
100
AcDbArc
 50
0.0
 51
90.0
  0
ARC
  5
11C7C
330
1F
100
AcDbEntity
  8
Defpoints
 62
     0
100
AcDbCircle
 10
23551.78286035775
 20
5197.056371055063
 30
0.0
 40
52.5
100
AcDbArc
 50
270.0
 51
0.0
  0
ARC
  5
11C7D
330
1F
100
AcDbEntity
  8
Defpoints
 62
     0
100
AcDbCircle
 10
22863.78286035775
 20
5197.056371055063
 30
0.0
 40
52.5
100
AcDbArc
 50
179.9999999999982
 51
270.0
  0
ARC
  5
11C7E
330
1F
100
AcDbEntity
  8
Defpoints
 62
     0
100
AcDbCircle
 10
22863.78286035776
 20
5553.056371055059
 30
0.0
 40
52.5
100
AcDbArc
 50
89.99999999999998
 51
179.9999999999982
  0
LINE
  5
11C7F
330
1F
100
AcDbEntity
  8
Defpoints
 62
     0
100
AcDbLine
 10
22863.78286035775
 20
5144.556371055063
 30
0.0
 11
23551.78286035775
 21
5144.556371055063
 31
0.0
  0
LINE
  5
11C80
330
1F
100
AcDbEntity
  8
Defpoints
 62
     0
100
AcDbLine
 10
22811.28286035776
 20
5553.05637105506
 30
0.0
 11
22811.28286035775
 21
5197.056371055065
 31
0.0
  0
LINE
  5
11C81
330
1F
100
AcDbEntity
  8
Defpoints
 62
     0
100
AcDbLine
 10
23551.78286035775
 20
5605.556371055058
 30
0.0
 11
22863.78286035776
 21
5605.556371055058
 31
0.0
  0
LINE
  5
11C82
330
1F
100
AcDbEntity
  8
Defpoints
 62
     0
100
AcDbLine
 10
23604.28286035775
 20
5197.056371055063
 30
0.0
 11
23604.28286035775
 21
5553.056371055059
 31
0.0
  0
CIRCLE
  5
11D01
330
1F
100
AcDbEntity
  8
Defpoints
 62
     0
100
AcDbCircle
 10
23398.78286035775
 20
5450.056371055058
 30
0.0
 40
47.0
  0
CIRCLE
  5
11D02
330
1F
100
AcDbEntity
  8
Defpoints
 62
     0
100
AcDbCircle
 10
23398.78286035775
 20
5450.056371055058
 30
0.0
 40
57.0
  0
CIRCLE
  5
11D03
330
1F
100
AcDbEntity
  8
Defpoints
 62
     0
100
AcDbCircle
 10
23398.78286035775
 20
5450.056371055058
 30
0.0
 40
60.0
  0
LINE
  5
11D04
330
1F
100
AcDbEntity
  8
Defpoints
 62
     0
100
AcDbLine
 10
23458.78286035775
 20
5450.056371055058
 30
0.0
 11
23338.78286035775
 21
5450.056371055058
 31
0.0
  0
LINE
  5
11D05
330
1F
100
AcDbEntity
  8
Defpoints
 62
     0
100
AcDbLine
 10
23398.78286035775
 20
5578.056371055058
 30
0.0
 11
23398.78286035775
 21
5172.056371055059
 31
0.0
  0
LINE
  5
11D06
330
1F
100
AcDbEntity
  8
Defpoints
 62
     0
100
AcDbLine
 10
23207.78286035776
 20
5144.556371055063
 30
0.0
 11
23207.78286035775
 21
5605.556371055058
 31
0.0
  0
LINE
  5
11D07
330
1F
100
AcDbEntity
  8
Defpoints
 62
     0
100
AcDbLine
 10
23604.28286035775
 20
5375.056371055058
 30
0.0
 11
22811.28286035776
 21
5375.056371055058
 31
0.0
  0
LWPOLYLINE
  5
11D08
330
1F
100
AcDbEntity
  8
Defpoints
 62
     0
100
AcDbPolyline
 90
        8
 70
     1
 43
0.0
 10
23550.58286035776
 20
5172.056371055063
 42
0.4142135623730552
 10
23576.78286035775
 20
5198.256371055062
 10
23576.78286035775
 20
5551.856371055059
 42
0.4142135623730632
 10
23550.58286035776
 20
5578.056371055058
 10
23246.98286035775
 20
5578.056371055058
 42
0.4142135623730632
 10
23220.78286035775
 20
5551.856371055059
 10
23220.78286035775
 20
5198.256371055055
 42
0.4142135623730697
 10
23246.98286035775
 20
5172.056371055056
  0
CIRCLE
  5
11D09
330
1F
100
AcDbEntity
  8
Defpoints
 62
     0
100
AcDbCircle
 10
23016.78286035775
 20
5450.056371055058
 30
0.0
 40
60.0
  0
CIRCLE
  5
11D0A
330
1F
100
AcDbEntity
  8
Defpoints
 62
     0
100
AcDbCircle
 10
23016.78286035775
 20
5450.056371055058
 30
0.0
 40
57.0
  0
CIRCLE
  5
11D0B
330
1F
100
AcDbEntity
  8
Defpoints
 62
     0
100
AcDbCircle
 10
23016.78286035775
 20
5450.056371055058
 30
0.0
 40
47.0
  0
LINE
  5
11D0C
330
1F
100
AcDbEntity
  8
Defpoints
 62
     0
100
AcDbLine
 10
23016.78286035775
 20
5578.056371055058
 30
0.0
 11
23016.78286035775
 21
5172.056371055059
 31
0.0
  0
LWPOLYLINE
  5
11D0D
330
1F
100
AcDbEntity
  8
Defpoints
 62
     0
100
AcDbPolyline
 90
        8
 70
     1
 43
0.0
 10
22864.98286035775
 20
5172.056371055063
 42
-0.4142135623730552
 10
22838.78286035775
 20
5198.256371055062
 10
22838.78286035775
 20
5551.856371055059
 42
-0.4142135623730632
 10
22864.98286035775
 20
5578.056371055058
 10
23168.58286035775
 20
5578.056371055058
 42
-0.4142135623730632
 10
23194.78286035775
 20
5551.856371055059
 10
23194.78286035775
 20
5198.256371055055
 42
-0.4142135623730697
 10
23168.58286035775
 20
5172.056371055056
  0
LINE
  5
11D0E
330
1F
100
AcDbEntity
  8
Defpoints
 62
     0
100
AcDbLine
 10
22954.78286035775
 20
5450.056371055058
 30
0.0
 11
23074.78286035775
 21
5450.056371055058
 31
0.0
  0
LWPOLYLINE
  5
141FD
330
1F
100
AcDbEntity
  8
Defpoints
100
AcDbPolyline
 90
        8
 70
     1
 43
0.0
 10
27403.29593869572
 20
-3376.391319520897
 42
-0.4142135623730616
 10
27372.09593869573
 20
-3345.191319520897
 10
27372.09593869573
 20
-2991.5913195209
 42
-0.4142135623730684
 10
27403.29593869572
 20
-2960.391319520902
 10
27706.89593869573
 20
-2960.391319520902
 42
-0.4142135623730684
 10
27738.09593869573
 20
-2991.5913195209
 10
27738.09593869573
 20
-3345.191319520904
 42
-0.414213562373078
 10
27706.89593869573
 20
-3376.391319520903
  0
LWPOLYLINE
  5
14203
330
1F
100
AcDbEntity
  8
Defpoints
100
AcDbPolyline
 90
        8
 70
     1
 43
0.0
 10
28088.89593869573
 20
-3376.391319520897
 42
0.4142135623730614
 10
28120.09593869573
 20
-3345.191319520897
 10
28120.09593869573
 20
-2991.5913195209
 42
0.4142135623730685
 10
28088.89593869573
 20
-2960.391319520902
 10
27785.29593869572
 20
-2960.391319520902
 42
0.4142135623730685
 10
27754.09593869573
 20
-2991.5913195209
 10
27754.09593869573
 20
-3345.191319520904
 42
0.4142135623730737
 10
27785.29593869572
 20
-3376.391319520903
  0
LINE
  5
14254
330
1F
100
AcDbEntity
  8
Defpoints
100
AcDbLine
 10
27732.92891277842
 20
-2548.52026814935
 30
0.0
 11
27647.8582223556
 21
-2548.52026814935
 31
0.0
  0
MTEXT
  5
14CA5
330
1F
100
AcDbEntity
  8
Defpoints
 62
     0
100
AcDbMText
 10
21436.36157163224
 20
92.84284136315546
 30
0.0
 40
38.304
 41
331.5446140127624
 46
0.0
 71
     1
 72
     5
  1
{\fSimSun|b0|i0|c134|p54;大佳用图\P2009-2-7}
 73
     1
 44
1.0
  0
LWPOLYLINE
  5
15751
330
1F
100
AcDbEntity
  8
Defpoints
100
AcDbPolyline
 90
        8
 70
     1
 43
0.0
 10
31804.11384084082
 20
-22153.09248637148
 42
0.4142135623730696
 10
31790.34952997621
 20
-22218.40882235585
 10
31983.45118339092
 20
-22514.62616055283
 42
0.4142135623730668
 10
32048.76751937527
 20
-22528.39047141744
 10
32623.10747149025
 20
-22153.98296694594
 42
0.4142135623730918
 10
32636.87178235487
 20
-22088.66663096157
 10
32443.77012894015
 20
-21792.44929276459
 42
0.4142135623730668
 10
32378.45379295579
 20
-21778.68498189999
  0
LWPOLYLINE
  5
15752
330
1F
100
AcDbEntity
  8
Defpoints
100
AcDbPolyline
 90
        8
 70
     1
 43
0.0
 10
31802.47553495777
 20
-22150.57933022162
 42
0.414213562373066
 10
31787.83637382635
 20
-22220.04712823889
 10
31980.93802724105
 20
-22516.26446643587
 42
0.4142135623730713
 10
32050.40582525832
 20
-22530.9036275673
 10
32624.7457773733
 20
-22156.4961230958
 42
0.4142135623730919
 10
32639.38493850472
 20
-22087.02832507853
 10
32446.28328509002
 20
-21790.81098688155
 42
0.4142135623730712
 10
32376.81548707274
 20
-21776.17182575013
  0
LWPOLYLINE
  5
15753
330
1F
100
AcDbEntity
  8
Defpoints
100
AcDbPolyline
 90
        8
 70
     1
 43
0.0
 10
31801.38333103574
 20
-22148.90389278838
 42
0.4142135623730671
 10
31786.16093639311
 20
-22221.13933216092
 10
31979.26258980781
 20
-22517.3566703579
 42
0.4142135623730673
 10
32051.49802918035
 20
-22532.57906500055
 10
32625.83798129532
 20
-22158.17156052905
 42
0.4142135623730459
 10
32641.06037593796
 20
-22085.9361211565
 10
32447.95872252325
 20
-21789.71878295952
 42
0.4142135623730696
 10
32375.72328315072
 20
-21774.49638831689
  0
LWPOLYLINE
  5
15754
330
1F
100
AcDbEntity
  8
Defpoints
100
AcDbPolyline
 90
        8
 70
     1
 43
0.0
 10
32389.92193413709
 20
-21796.27707494902
 42
-0.4142135623730552
 10
32426.17803589113
 20
-21803.9174339459
 10
32619.27968930583
 20
-22100.13477214288
 42
-0.4142135623730632
 10
32611.63933030895
 20
-22136.39087389691
 10
32357.30792794298
 20
-22302.18742926089
 42
-0.4142135623730632
 10
32321.05182618895
 20
-22294.54707026402
 10
32127.95017277425
 20
-21998.32973206703
 42
-0.4142135623730697
 10
32135.59053177112
 20
-21962.073630313
  0
CIRCLE
  5
15755
330
1F
100
AcDbEntity
  8
Defpoints
100
AcDbCircle
 10
32414.57257811612
 20
-22112.06115585148
 30
0.0
 40
47.0
  0
CIRCLE
  5
15756
330
1F
100
AcDbEntity
  8
Defpoints
100
AcDbCircle
 10
32414.57257811612
 20
-22112.06115585148
 30
0.0
 40
57.0
  0
CIRCLE
  5
15757
330
1F
100
AcDbEntity
  8
Defpoints
100
AcDbCircle
 10
32414.57257811612
 20
-22112.06115585148
 30
0.0
 40
60.0
  0
LWPOLYLINE
  5
15758
330
1F
100
AcDbEntity
  8
Defpoints
100
AcDbPolyline
 90
        8
 70
     1
 43
0.0
 10
31815.58198202212
 20
-22170.68457942051
 42
0.4142135623730552
 10
31807.94162302524
 20
-22206.94068117454
 10
32001.04327643995
 20
-22503.15801937154
 42
0.4142135623730632
 10
32037.29937819397
 20
-22510.79837836841
 10
32291.63078055994
 20
-22345.00182300442
 42
0.4142135623730632
 10
32299.27113955682
 20
-22308.74572125039
 10
32106.16948614211
 20
-22012.5283830534
 42
0.4142135623730697
 10
32069.91338438808
 20
-22004.88802405653
  0
CIRCLE
  5
15759
330
1F
100
AcDbEntity
  8
Defpoints
100
AcDbCircle
 10
32094.56402836711
 20
-22320.672104959
 30
0.0
 40
60.0
  0
CIRCLE
  5
1575A
330
1F
100
AcDbEntity
  8
Defpoints
100
AcDbCircle
 10
32094.56402836711
 20
-22320.672104959
 30
0.0
 40
57.0
  0
CIRCLE
  5
1575B
330
1F
100
AcDbEntity
  8
Defpoints
100
AcDbCircle
 10
32094.56402836711
 20
-22320.672104959
 30
0.0
 40
47.0
  0
LINE
  5
1575C
330
1F
100
AcDbEntity
  8
Defpoints
 62
     0
100
AcDbLine
 10
32259.56399650009
 20
-22320.774653091
 30
0.0
 11
32154.56401677911
 21
-22320.70939518882
 31
0.0
  0
LINE
  5
1575D
330
1F
100
AcDbEntity
  8
Defpoints
100
AcDbLine
 10
32082.31730386108
 20
-22045.94493531815
 30
0.0
 11
32091.89201574762
 21
-22260.73163158281
 31
0.0
  0
LINE
  5
1575E
330
1F
100
AcDbEntity
  8
Defpoints
100
AcDbLine
 10
31848.14185655333
 20
-22198.60198888394
 30
0.0
 11
32040.79919088047
 21
-22294.03862508808
 31
0.0
  0
LINE
  5
1575F
330
1F
100
AcDbEntity
  8
Defpoints
 62
     3
100
AcDbLine
 10
32028.07289473355
 20
-22471.68180381349
 30
0.0
 11
32070.38543431854
 21
-22375.58472272427
 31
0.0
  0
LINE
  5
15760
330
1F
100
AcDbEntity
  8
Defpoints
 62
     3
100
AcDbLine
 10
32348.08144448257
 20
-22263.07085470598
 30
0.0
 11
32390.39398406755
 21
-22166.97377361676
 31
0.0
  0
LINE
  5
15761
330
1F
100
AcDbEntity
  8
Defpoints
100
AcDbLine
 10
32579.57254624908
 20
-22112.16370398349
 30
0.0
 11
32474.57256652811
 21
-22112.0984460813
 31
0.0
  0
LINE
  5
15762
330
1F
100
AcDbEntity
  8
Defpoints
100
AcDbLine
 10
32168.15040630233
 20
-21989.99103977643
 30
0.0
 11
32360.80774062947
 21
-22085.42767598057
 31
0.0
  0
LINE
  5
15763
330
1F
100
AcDbEntity
  8
Defpoints
100
AcDbLine
 10
32402.32585361008
 20
-21837.33398621063
 30
0.0
 11
32411.90056549663
 21
-22052.1206824753
 31
0.0
  0
LINE
  5
17CB5
330
1F
100
AcDbEntity
  8
Defpoints
100
AcDbLine
 10
40280.07171698273
 20
-25675.75011319878
 30
0.0
 11
40289.64642886927
 21
-25890.53680946344
 31
0.0
  0
LINE
  5
17CB6
330
1F
100
AcDbEntity
  8
Defpoints
100
AcDbLine
 10
40045.89626967498
 20
-25828.40716676457
 30
0.0
 11
40238.55360400213
 21
-25923.84380296871
 31
0.0
  0
LINE
  5
17CB7
330
1F
100
AcDbEntity
  8
Defpoints
100
AcDbLine
 10
40457.31840962173
 20
-25950.57983097163
 30
0.0
 11
40352.31842990077
 21
-25950.51457306944
 31
0.0
  0
LINE
  5
17CB8
330
1F
100
AcDbEntity
  8
Defpoints
 62
     3
100
AcDbLine
 10
40225.82730785521
 20
-26101.48698169413
 30
0.0
 11
40268.13984744022
 21
-26005.3899006049
 31
0.0
  0
LINE
  5
17CB9
330
1F
100
AcDbEntity
  8
Defpoints
 62
     3
100
AcDbLine
 10
39905.81875810621
 20
-26310.09793080164
 30
0.0
 11
39948.1312976912
 21
-26214.00084971241
 31
0.0
  0
LINE
  5
17CBA
330
1F
100
AcDbEntity
  8
Defpoints
100
AcDbLine
 10
39725.88771992599
 20
-26037.01811587209
 30
0.0
 11
39918.54505425314
 21
-26132.45475207623
 31
0.0
  0
LINE
  5
17CBB
330
1F
100
AcDbEntity
  8
Defpoints
100
AcDbLine
 10
39960.06316723374
 20
-25884.36106230629
 30
0.0
 11
39969.63787912028
 21
-26099.14775857096
 31
0.0
  0
LINE
  5
17CBC
330
1F
100
AcDbEntity
  8
Defpoints
 62
     0
100
AcDbLine
 10
40137.30985987272
 20
-26159.19078007914
 30
0.0
 11
40032.30988015176
 21
-26159.12552217696
 31
0.0
  0
CIRCLE
  5
17CBD
330
1F
100
AcDbEntity
  8
Defpoints
100
AcDbCircle
 10
39972.30989173977
 20
-26159.08823194714
 30
0.0
 40
47.0
  0
CIRCLE
  5
17CBE
330
1F
100
AcDbEntity
  8
Defpoints
100
AcDbCircle
 10
39972.30989173977
 20
-26159.08823194714
 30
0.0
 40
57.0
  0
CIRCLE
  5
17CBF
330
1F
100
AcDbEntity
  8
Defpoints
100
AcDbCircle
 10
39972.30989173977
 20
-26159.08823194714
 30
0.0
 40
60.0
  0
LWPOLYLINE
  5
17CC0
330
1F
100
AcDbEntity
  8
Defpoints
100
AcDbPolyline
 90
        8
 70
     1
 43
0.0
 10
39693.32784539478
 20
-26009.10070640865
 42
0.4142135623730552
 10
39685.68748639791
 20
-26045.35680816269
 10
39878.78913981262
 20
-26341.57414635967
 42
0.4142135623730632
 10
39915.04524156664
 20
-26349.21450535655
 10
40169.37664393259
 20
-26183.41794999256
 42
0.4142135623730632
 10
40177.01700292948
 20
-26147.16184823854
 10
39983.91534951478
 20
-25850.94451004154
 42
0.4142135623730697
 10
39947.65924776076
 20
-25843.30415104467
  0
CIRCLE
  5
17CC1
330
1F
100
AcDbEntity
  8
Defpoints
100
AcDbCircle
 10
40292.31844148878
 20
-25950.47728283963
 30
0.0
 40
60.0
  0
CIRCLE
  5
17CC2
330
1F
100
AcDbEntity
  8
Defpoints
100
AcDbCircle
 10
40292.31844148878
 20
-25950.47728283963
 30
0.0
 40
57.0
  0
CIRCLE
  5
17CC3
330
1F
100
AcDbEntity
  8
Defpoints
100
AcDbCircle
 10
40292.31844148878
 20
-25950.47728283963
 30
0.0
 40
47.0
  0
LWPOLYLINE
  5
17CC4
330
1F
100
AcDbEntity
  8
Defpoints
100
AcDbPolyline
 90
        8
 70
     1
 43
0.0
 10
40267.66779750976
 20
-25634.69320193716
 42
-0.4142135623730552
 10
40303.92389926379
 20
-25642.33356093404
 10
40497.02555267849
 20
-25938.55089913102
 42
-0.4142135623730632
 10
40489.38519368161
 20
-25974.80700088505
 10
40235.05379131563
 20
-26140.60355624904
 42
-0.4142135623730632
 10
40198.79768956161
 20
-26132.96319725216
 10
40005.69603614692
 20
-25836.74585905517
 42
-0.4142135623730697
 10
40013.33639514379
 20
-25800.48975730115
  0
LWPOLYLINE
  5
17CC5
330
1F
100
AcDbEntity
  8
Defpoints
100
AcDbPolyline
 90
        8
 70
     1
 43
0.0
 10
39679.12919440842
 20
-25987.32001977653
 42
0.4142135623730671
 10
39663.90679976577
 20
-26059.55545914906
 10
39857.00845318048
 20
-26355.77279734605
 42
0.4142135623730673
 10
39929.24389255302
 20
-26370.99519198868
 10
40503.58384466798
 20
-25996.58768751718
 42
0.4142135623730459
 10
40518.80623931062
 20
-25924.35224814465
 10
40325.7045858959
 20
-25628.13490994766
 42
0.4142135623730696
 10
40253.46914652337
 20
-25612.91251530503
  0
LWPOLYLINE
  5
17CC6
330
1F
100
AcDbEntity
  8
Defpoints
100
AcDbPolyline
 90
        8
 70
     1
 43
0.0
 10
39680.22139833043
 20
-25988.99545720977
 42
0.414213562373066
 10
39665.58223719902
 20
-26058.46325522704
 10
39858.68389061371
 20
-26354.68059342402
 42
0.4142135623730713
 10
39928.15168863098
 20
-26369.31975455544
 10
40502.49164074595
 20
-25994.91225008395
 42
0.4142135623730919
 10
40517.13080187738
 20
-25925.44445206668
 10
40324.02914846268
 20
-25629.22711386969
 42
0.4142135623730712
 10
40254.56135044541
 20
-25614.58795273827
  0
LWPOLYLINE
  5
17CC7
330
1F
100
AcDbEntity
  8
Defpoints
100
AcDbPolyline
 90
        8
 70
     1
 43
0.0
 10
39681.85970421348
 20
-25991.50861335963
 42
0.4142135623730696
 10
39668.09539334889
 20
-26056.82494934399
 10
39861.19704676358
 20
-26353.04228754097
 42
0.4142135623730668
 10
39926.51338274794
 20
-26366.80659840558
 10
40500.85333486291
 20
-25992.39909393408
 42
0.4142135623730918
 10
40514.61764572752
 20
-25927.08275794972
 10
40321.51599231282
 20
-25630.86541975274
 42
0.4142135623730668
 10
40256.19965632845
 20
-25617.10110888813
  0
LINE
  5
1A07F
330
1F
100
AcDbEntity
  8
Defpoints
  6
CENTER
100
AcDbLine
 10
17219.06086118161
 20
-500.7678093292255
 30
0.0
 11
17339.06086118161
 21
-500.7678093292255
 31
0.0
  0
LWPOLYLINE
  5
1A080
330
1F
100
AcDbEntity
  8
Defpoints
100
AcDbPolyline
 90
        8
 70
     1
 43
0.0
 10
17129.26086118161
 20
-778.7678093292202
 42
-0.4142135623730552
 10
17103.06086118161
 20
-752.5678093292204
 10
17103.06086118161
 20
-398.9678093292246
 42
-0.4142135623730632
 10
17129.26086118161
 20
-372.7678093292257
 10
17432.86086118161
 20
-372.7678093292257
 42
-0.4142135623730632
 10
17459.06086118161
 20
-398.9678093292246
 10
17459.06086118161
 20
-752.5678093292277
 42
-0.4142135623730697
 10
17432.86086118161
 20
-778.7678093292274
  0
LINE
  5
1A081
330
1F
100
AcDbEntity
  8
Defpoints
  6
CENTER
100
AcDbLine
 10
17281.06086118161
 20
-372.7678093292257
 30
0.0
 11
17281.06086118161
 21
-778.7678093292238
 31
0.0
  0
CIRCLE
  5
1A082
330
1F
100
AcDbEntity
  8
Defpoints
100
AcDbCircle
 10
17281.06086118161
 20
-500.7678093292255
 30
0.0
 40
47.0
  0
CIRCLE
  5
1A083
330
1F
100
AcDbEntity
  8
Defpoints
100
AcDbCircle
 10
17281.06086118161
 20
-500.7678093292255
 30
0.0
 40
57.0
  0
CIRCLE
  5
1A084
330
1F
100
AcDbEntity
  8
Defpoints
100
AcDbCircle
 10
17281.06086118161
 20
-500.7678093292255
 30
0.0
 40
60.0
  0
LWPOLYLINE
  5
1A085
330
1F
100
AcDbEntity
  8
Defpoints
100
AcDbPolyline
 90
        8
 70
     1
 43
0.0
 10
17814.86086118161
 20
-778.7678093292202
 42
0.4142135623730552
 10
17841.06086118161
 20
-752.5678093292204
 10
17841.06086118161
 20
-398.9678093292246
 42
0.4142135623730632
 10
17814.86086118161
 20
-372.7678093292257
 10
17511.26086118161
 20
-372.7678093292257
 42
0.4142135623730632
 10
17485.06086118161
 20
-398.9678093292246
 10
17485.06086118161
 20
-752.5678093292277
 42
0.4142135623730697
 10
17511.26086118161
 20
-778.7678093292274
  0
LINE
  5
1A086
330
1F
100
AcDbEntity
  8
Defpoints
  6
CENTER
100
AcDbLine
 10
17867.06086118161
 20
-575.7678093292256
 30
0.0
 11
17077.06086118161
 21
-575.7678093292256
 31
0.0
  0
LINE
  5
1A087
330
1F
100
AcDbEntity
  8
Defpoints
  6
CENTER
100
AcDbLine
 10
17472.06086118161
 20
-804.7678093292201
 30
0.0
 11
17472.06086118161
 21
-346.7678093292257
 31
0.0
  0
LINE
  5
1A088
330
1F
100
AcDbEntity
  8
Defpoints
  6
CENTER
100
AcDbLine
 10
17663.06086118161
 20
-372.7678093292257
 30
0.0
 11
17663.06086118161
 21
-778.7678093292238
 31
0.0
  0
LINE
  5
1A089
330
1F
100
AcDbEntity
  8
Defpoints
  6
CENTER
100
AcDbLine
 10
17723.06086118161
 20
-500.7678093292255
 30
0.0
 11
17603.06086118161
 21
-500.7678093292255
 31
0.0
  0
CIRCLE
  5
1A08A
330
1F
100
AcDbEntity
  8
Defpoints
100
AcDbCircle
 10
17663.06086118161
 20
-500.7678093292255
 30
0.0
 40
60.0
  0
CIRCLE
  5
1A08B
330
1F
100
AcDbEntity
  8
Defpoints
100
AcDbCircle
 10
17663.06086118161
 20
-500.7678093292255
 30
0.0
 40
57.0
  0
CIRCLE
  5
1A08C
330
1F
100
AcDbEntity
  8
Defpoints
100
AcDbCircle
 10
17663.06086118161
 20
-500.7678093292255
 30
0.0
 40
47.0
  0
LWPOLYLINE
  5
1A121
330
1F
100
AcDbEntity
  8
Defpoints
100
AcDbPolyline
 90
        8
 70
     1
 43
0.0
 10
17814.86086118161
 20
-804.7678093292201
 42
0.4142135623730696
 10
17867.06086118161
 20
-752.5678093292206
 10
17867.06086118161
 20
-398.967809329224
 42
0.4142135623730696
 10
17814.86086118161
 20
-346.7678093292257
 10
17129.26086118161
 20
-346.7678093292258
 42
0.414213562373048
 10
17077.06086118161
 20
-398.9678093292241
 10
17077.06086118161
 20
-752.5678093292206
 42
0.4142135623730696
 10
17129.26086118161
 20
-804.7678093292201
  0
LWPOLYLINE
  5
1A122
330
1F
100
AcDbEntity
  8
Defpoints
100
AcDbPolyline
 90
        8
 70
     1
 43
0.0
 10
17814.86086118161
 20
-799.7678093292202
 42
0.4142135623730684
 10
17862.06086118161
 20
-752.5678093292206
 10
17862.06086118161
 20
-398.9678093292241
 42
0.4142135623730682
 10
17814.86086118161
 20
-351.7678093292257
 10
17129.26086118161
 20
-351.7678093292258
 42
0.4142135623730903
 10
17082.06086118161
 20
-398.9678093292245
 10
17082.06086118161
 20
-752.5678093292206
 42
0.4142135623730676
 10
17129.26086118161
 20
-799.7678093292201
  0
LINE
  5
1E232
330
1F
100
AcDbEntity
  8
DIM
100
AcDbLine
 10
50432.42658007639
 20
3312.269575189307
 30
0.0
 11
50432.42658007639
 21
3311.069575189308
 31
0.0
  0
LINE
  5
1E233
330
1F
100
AcDbEntity
  8
DIM
100
AcDbLine
 10
49639.42658007642
 20
3312.269575189307
 30
0.0
 11
49639.42658007642
 21
3311.069575189308
 31
0.0
  0
DIMENSION
  5
1E234
102
{ACAD_XDICTIONARY
360
1E235
102
}
102
{ACAD_REACTORS
330
1E236
102
}
330
1F
100
AcDbEntity
  8
DIM
100
AcDbDimension
280
     0
  2
*D17
 10
49691.92658007641
 20
2865.373001367236
 30
0.0
 11
49487.00155849024
 21
2984.901180170016
 31
0.0
 70
    36
  1
4-<>(2")
 71
     5
 42
52.49999999999272
 73
     0
 74
     0
 75
     0
  3
ISO-25
100
AcDbRadialDimension
 15
49643.3809736995
 25
2885.362351068918
 35
0.0
 40
0.0
1001
ACAD
1000
DSTYLE
1002
{
1070
    41
1040
15.0
1070
    42
1040
5.0
1070
    43
1040
5.0
1070
   140
1040
30.0
1070
   141
1040
0.0
1070
   147
1040
15.0
1070
   179
1070
     1
1070
   288
1070
     1
1002
}
  0
ARC
  5
1E237
330
1F
100
AcDbEntity
  8
base
100
AcDbCircle
 10
50379.92658007642
 20
2509.373001367232
 30
0.0
 40
52.5
100
AcDbArc
 50
270.0
 51
0.0000000000011704
  0
ARC
  5
1E238
330
1F
100
AcDbEntity
  8
base
100
AcDbCircle
 10
50379.92658007639
 20
2865.373001367227
 30
0.0
 40
52.5
100
AcDbArc
 50
0.0
 51
90.0
  0
ARC
  5
1E239
330
1F
100
AcDbEntity
  8
base
100
AcDbCircle
 10
49691.92658007641
 20
2509.373001367232
 30
0.0
 40
52.5
100
AcDbArc
 50
180.0
 51
270.0
  0
ARC
  5
1E23A
102
{ACAD_REACTORS
330
1E236
102
}
330
1F
100
AcDbEntity
  8
base
100
AcDbCircle
 10
49691.92658007641
 20
2865.373001367227
 30
0.0
 40
52.5
100
AcDbArc
 50
90.00000000000005
 51
179.9999999999994
  0
LINE
  5
1E23B
330
1F
100
AcDbEntity
  8
base
100
AcDbLine
 10
49691.92658007641
 20
2456.873001367232
 30
0.0
 11
50379.92658007642
 21
2456.873001367232
 31
0.0
  0
LINE
  5
1E23C
330
1F
100
AcDbEntity
  8
base
100
AcDbLine
 10
49639.42658007642
 20
2865.373001367227
 30
0.0
 11
49639.42658007642
 21
2509.373001367232
 31
0.0
  0
LINE
  5
1E23D
330
1F
100
AcDbEntity
  8
base
100
AcDbLine
 10
50379.92658007639
 20
2917.873001367226
 30
0.0
 11
49691.92658007641
 21
2917.873001367226
 31
0.0
  0
LINE
  5
1E23E
330
1F
100
AcDbEntity
  8
base
100
AcDbLine
 10
50432.42658007642
 20
2509.373001367233
 30
0.0
 11
50432.42658007639
 21
2865.373001367227
 31
0.0
  0
DIMENSION
  5
1E23F
330
1F
100
AcDbEntity
  8
DIM
100
AcDbDimension
280
     0
  2
*D3
 10
50586.81243326972
 20
2917.873001367226
 30
0.0
 11
50556.81243326972
 21
2687.373001367238
 31
0.0
 70
    32
  1
<>(18")
 71
     5
 42
460.9999999999945
 73
     0
 74
     0
 75
     0
  3
ISO-25
100
AcDbAlignedDimension
 13
50378.72658007641
 23
2456.873001367232
 33
0.0
 14
50378.72658007641
 24
2917.873001367226
 34
0.0
 50
90.0
100
AcDbRotatedDimension
1001
ACAD
1000
DSTYLE
1002
{
1070
    41
1040
15.0
1070
    42
1040
5.0
1070
    43
1040
5.0
1070
   140
1040
30.0
1070
   141
1040
0.0
1070
   147
1040
15.0
1070
   179
1070
     1
1002
}
  0
DIMENSION
  5
1E240
330
1F
100
AcDbEntity
  8
DIM
100
AcDbDimension
280
     0
  2
*D2
 10
50432.42658007642
 20
2307.217422114248
 30
0.0
 11
50035.92658007642
 21
2337.217422114249
 31
0.0
 70
    32
  1
<>(31')
 71
     5
 42
793.0
 73
     0
 74
     0
 75
     0
  3
ISO-25
100
AcDbAlignedDimension
 13
49639.42658007642
 23
2510.573001367232
 33
0.0
 14
50432.42658007642
 24
2510.573001367232
 34
0.0
100
AcDbRotatedDimension
1001
ACAD
1000
DSTYLE
1002
{
1070
    41
1040
15.0
1070
    42
1040
5.0
1070
    43
1040
5.0
1070
   140
1040
30.0
1070
   141
1040
0.0
1070
   147
1040
15.0
1070
   179
1070
     1
1002
}
  0
LINE
  5
1E241
330
1F
100
AcDbEntity
  8
base
100
AcDbLine
 10
50408.75574704541
 20
3311.069575189308
 30
0.0
 11
50432.42658007639
 21
3311.069575189308
 31
0.0
  0
LINE
  5
1E242
102
{ACAD_REACTORS
330
1E24B
102
}
330
1F
100
AcDbEntity
  8
base
100
AcDbLine
 10
49639.42658007642
 20
3311.069575189308
 30
0.0
 11
49663.09741310741
 21
3311.069575189308
 31
0.0
  0
DIMENSION
  5
1E243
102
{ACAD_XDICTIONARY
360
1E244
102
}
102
{ACAD_REACTORS
330
1E245
102
}
330
1F
100
AcDbEntity
  8
DIM
100
AcDbDimension
280
     0
  2
*D9
 10
49693.12658007641
 20
2864.173001367224
 30
0.0
 11
49614.10117991462
 21
3020.483353325356
 31
0.0
 70
    36
  1
4-<>(1")
 71
     5
 42
26.20000000001892
 73
     0
 74
     0
 75
     0
  3
ISO-25
100
AcDbRadialDimension
 15
49678.39988046451
 25
2885.84243418264
 35
0.0
 40
0.0
1001
ACAD
1000
DSTYLE
1002
{
1070
    41
1040
5.0
1070
    42
1040
5.0
1070
    43
1040
5.0
1070
   140
1040
30.0
1070
   141
1040
0.0
1070
   179
1070
     1
1070
   288
1070
     1
1002
}
  0
DIMENSION
  5
1E249
102
{ACAD_XDICTIONARY
360
1E24A
102
}
102
{ACAD_REACTORS
330
1E24B
102
}
330
1F
100
AcDbEntity
  8
DIM
100
AcDbDimension
280
     0
  2
*D8
 10
50636.44643966316
 20
3084.269575189305
 30
0.0
 11
50636.44643966316
 21
3198.269575189312
 31
0.0
 70
   160
  1
<>(9")
 71
     5
 42
228.0000000000023
 73
     0
 74
     0
 75
     0
  3
ISO-25
100
AcDbAlignedDimension
 13
50432.42658007639
 23
3312.269575189307
 33
0.0
 14
50529.89568000832
 24
3084.269575189305
 34
0.0
 50
90.0
100
AcDbRotatedDimension
1001
ACAD
1000
DSTYLE
1002
{
1070
    41
1040
5.0
1070
    42
1040
5.0
1070
    43
1040
5.0
1070
   140
1040
30.0
1070
   141
1040
0.0
1070
   179
1070
     1
1002
}
  0
DIMENSION
  5
1E24C
102
{ACAD_XDICTIONARY
360
1E24D
102
}
102
{ACAD_REACTORS
330
1E24E
102
}
330
1F
100
AcDbEntity
  8
DIM
100
AcDbDimension
280
     0
  2
*D7
 10
50506.16022291563
 20
2484.373001367232
 30
0.0
 11
50486.16022291563
 21
2687.373001367238
 31
0.0
 70
    32
  1
<>(16")
 71
     5
 42
405.9999999999944
 73
     0
 74
     0
 75
     0
  3
ISO-25
100
AcDbAlignedDimension
 13
50378.72658007641
 23
2890.373001367226
 33
0.0
 14
50378.72658007641
 24
2484.373001367232
 34
0.0
 50
90.0
100
AcDbRotatedDimension
1001
ACAD
1000
DSTYLE
1002
{
1070
    41
1040
5.0
1070
    42
1040
5.0
1070
    43
1040
5.0
1070
   140
1040
30.0
1070
   141
1040
0.0
1070
   179
1070
     1
1070
   288
1070
     1
1002
}
  0
DIMENSION
  5
1E24F
102
{ACAD_XDICTIONARY
360
1E250
102
}
102
{ACAD_REACTORS
330
1E251
102
}
330
1F
100
AcDbEntity
  8
DIM
100
AcDbDimension
280
     0
  2
*D6
 10
49666.92658007642
 20
2359.432231420447
 30
0.0
 11
49834.12701594096
 21
2359.432231420447
 31
0.0
 70
   160
  1
<>(14")
 71
     5
 42
356.0
 73
     0
 74
     0
 75
     0
  3
ISO-25
100
AcDbAlignedDimension
 13
50022.92658007641
 23
2510.573001367225
 33
0.0
 14
49666.92658007642
 24
2510.573001367232
 34
0.0
100
AcDbRotatedDimension
1001
ACAD
1000
DSTYLE
1002
{
1070
    41
1040
5.0
1070
    42
1040
5.0
1070
    43
1040
5.0
1070
   140
1040
30.0
1070
   141
1040
0.0
1070
   179
1070
     1
1002
}
  0
DIMENSION
  5
1E252
102
{ACAD_XDICTIONARY
360
1E253
102
}
102
{ACAD_REACTORS
330
1E254
102
}
330
1F
100
AcDbEntity
  8
DIM
100
AcDbDimension
280
     0
  2
*D5
 10
50022.92658007641
 20
2408.455333669386
 30
0.0
 11
49947.92658007642
 21
2428.455333669386
 31
0.0
 70
    32
  1
<>(1")
 71
     5
 42
26.0
 73
     0
 74
     0
 75
     0
  3
ISO-25
100
AcDbAlignedDimension
 13
50048.92658007642
 23
2510.573001367225
 33
0.0
 14
50022.92658007641
 24
2510.573001367225
 34
0.0
100
AcDbRotatedDimension
1001
ACAD
1000
DSTYLE
1002
{
1070
    41
1040
5.0
1070
    42
1040
5.0
1070
    43
1040
5.0
1070
   140
1040
30.0
1070
   141
1040
0.0
1070
   179
1070
     1
1002
}
  0
DIMENSION
  5
1E255
102
{ACAD_XDICTIONARY
360
1E256
102
}
102
{ACAD_REACTORS
330
1E257
102
}
330
1F
100
AcDbEntity
  8
DIM
100
AcDbDimension
280
     0
  2
*D4
 10
50404.92658007641
 20
2365.118527180573
 30
0.0
 11
50226.92658007642
 21
2365.118527180573
 31
0.0
 70
   160
  1
<>(14")
 71
     5
 42
356.0
 73
     0
 74
     0
 75
     0
  3
ISO-25
100
AcDbAlignedDimension
 13
50048.92658007642
 23
2510.573001367225
 33
0.0
 14
50404.92658007641
 24
2510.573001367232
 34
0.0
100
AcDbRotatedDimension
1001
ACAD
1000
DSTYLE
1002
{
1070
    41
1040
5.0
1070
    42
1040
5.0
1070
    43
1040
5.0
1070
   140
1040
30.0
1070
   141
1040
0.0
1070
   179
1070
     1
1002
}
  0
LINE
  5
1E258
330
1F
100
AcDbEntity
  8
base
100
AcDbLine
 10
51109.22572533413
 20
2890.373001367226
 30
0.0
 11
51108.62572533414
 21
2890.373001367226
 31
0.0
  0
LINE
  5
1E259
330
1F
100
AcDbEntity
  8
DIM
  6
CENTER
100
AcDbLine
 10
50917.77245250646
 20
2762.37300136723
 30
0.0
 11
50842.96868504246
 21
2762.37300136723
 31
0.0
  0
LINE
  5
1E25A
330
1F
100
AcDbEntity
  8
base
100
AcDbLine
 10
50875.22572533414
 20
2715.373001367223
 30
0.0
 11
50878.22572533413
 21
2705.373001367223
 31
0.0
  0
LINE
  5
1E25B
330
1F
100
AcDbEntity
  8
base
100
AcDbLine
 10
50878.22572533413
 20
2705.373001367223
 30
0.0
 11
50881.22572533413
 21
2702.37300136723
 31
0.0
  0
LINE
  5
1E25C
330
1F
100
AcDbEntity
  8
base
100
AcDbLine
 10
50877.16326833612
 20
2704.738402090405
 30
0.0
 11
50880.04124114086
 21
2701.860429285645
 31
0.0
  0
LINE
  5
1E25D
330
1F
100
AcDbEntity
  8
base
100
AcDbLine
 10
50874.02572533414
 20
2715.196878763656
 30
0.0
 11
50877.16326833612
 21
2704.738402090405
 31
0.0
  0
LINE
  5
1E25E
330
1F
100
AcDbEntity
  8
base
100
AcDbLine
 10
50874.02572533414
 20
2809.54912397079
 30
0.0
 11
50874.02572533414
 21
2715.196878763656
 31
0.0
  0
LINE
  5
1E25F
330
1F
100
AcDbEntity
  8
base
100
AcDbLine
 10
50874.02572533414
 20
2809.54912397079
 30
0.0
 11
50877.16326833612
 21
2820.007600644041
 31
0.0
  0
LINE
  5
1E260
330
1F
100
AcDbEntity
  8
base
100
AcDbLine
 10
50877.16326833612
 20
2820.007600644041
 30
0.0
 11
50880.05571864318
 21
2822.900050951091
 31
0.0
  0
LINE
  5
1E261
330
1F
100
AcDbEntity
  8
base
100
AcDbLine
 10
50878.22572533413
 20
2819.373001367223
 30
0.0
 11
50881.22572533413
 21
2822.373001367216
 31
0.0
  0
LINE
  5
1E262
330
1F
100
AcDbEntity
  8
base
100
AcDbLine
 10
50875.22572533414
 20
2809.373001367223
 30
0.0
 11
50878.22572533413
 21
2819.373001367223
 31
0.0
  0
LINE
  5
1E263
330
1F
100
AcDbEntity
  8
base
100
AcDbLine
 10
50875.22572533414
 20
2809.373001367223
 30
0.0
 11
50875.22572533414
 21
2715.37300136723
 31
0.0
  0
LINE
  5
1E264
330
1F
100
AcDbEntity
  8
base
100
AcDbLine
 10
50878.22572533413
 20
2819.373001367223
 30
0.0
 11
50878.22572533413
 21
2705.373001367223
 31
0.0
  0
LINE
  5
1E265
330
1F
100
AcDbEntity
  8
base
100
AcDbLine
 10
50881.22572533413
 20
2822.373001367223
 30
0.0
 11
50881.22572533413
 21
2702.37300136723
 31
0.0
  0
LINE
  5
1E266
330
1F
100
AcDbEntity
  8
base
100
AcDbLine
 10
51109.22572533413
 20
2916.373001367227
 30
0.0
 11
51109.22572533413
 21
2458.373001367225
 31
0.0
  0
LINE
  5
1E267
330
1F
100
AcDbEntity
  8
base
100
AcDbLine
 10
51108.02572533414
 20
2916.373001367227
 30
0.0
 11
51108.02572533414
 21
2894.202168336246
 31
0.0
  0
LINE
  5
1E268
330
1F
100
AcDbEntity
  8
base
100
AcDbLine
 10
51104.20020288361
 20
2890.205975449919
 30
0.0
 11
50908.70189525698
 21
2881.670335001922
 31
0.0
  0
ARC
  5
1E269
330
1F
100
AcDbEntity
  8
base
100
AcDbCircle
 10
51104.02572533415
 20
2894.202168336246
 30
0.0
 40
4.0
100
AcDbArc
 50
272.5000000001747
 51
0.0
  0
LINE
  5
1E26A
330
1F
100
AcDbEntity
  8
base
100
AcDbLine
 10
51104.25254614844
 20
2889.007117584021
 30
0.0
 11
50908.75423852179
 21
2880.471477136023
 31
0.0
  0
ARC
  5
1E26B
330
1F
100
AcDbEntity
  8
base
100
AcDbCircle
 10
51104.02572533415
 20
2894.202168336246
 30
0.0
 40
5.2
100
AcDbArc
 50
272.5000000001747
 51
0.0
  0
LINE
  5
1E26C
330
1F
100
AcDbEntity
  8
base
100
AcDbLine
 10
51108.02572533414
 20
2480.54383439821
 30
0.0
 11
51108.02572533414
 21
2458.373001367225
 31
0.0
  0
LINE
  5
1E26D
330
1F
100
AcDbEntity
  8
base
100
AcDbLine
 10
50881.22572533413
 20
2822.373001367223
 30
0.0
 11
50884.98167582172
 21
2858.108483178163
 31
0.0
  0
LINE
  5
1E26E
330
1F
100
AcDbEntity
  8
base
100
AcDbLine
 10
50880.07982181026
 20
2822.950584291745
 30
0.0
 11
50883.7882495473
 21
2858.233917334093
 31
0.0
  0
LINE
  5
1E26F
330
1F
100
AcDbEntity
  8
base
100
AcDbLine
 10
51104.25254614844
 20
2485.738885150435
 30
0.0
 11
50910.4420087335
 21
2494.200835959577
 31
0.0
  0
LINE
  5
1E270
330
1F
100
AcDbEntity
  8
base
100
AcDbLine
 10
51104.20020288361
 20
2484.540027284536
 30
0.0
 11
50910.38966546865
 21
2493.001978093678
 31
0.0
  0
ARC
  5
1E271
330
1F
100
AcDbEntity
  8
base
100
AcDbCircle
 10
51104.02572533415
 20
2480.54383439821
 30
0.0
 40
5.2
100
AcDbArc
 50
0.0
 51
87.49999999982531
  0
ARC
  5
1E272
330
1F
100
AcDbEntity
  8
base
100
AcDbCircle
 10
51104.02572533415
 20
2480.54383439821
 30
0.0
 40
4.0
100
AcDbArc
 50
0.0
 51
87.49999999982531
  0
LINE
  5
1E273
330
1F
100
AcDbEntity
  8
base
100
AcDbLine
 10
51109.22572533413
 20
2484.373001367229
 30
0.0
 11
51108.62572533414
 21
2484.373001367229
 31
0.0
  0
LINE
  5
1E274
330
1F
100
AcDbEntity
  8
base
100
AcDbLine
 10
50881.22572533413
 20
2702.37300136723
 30
0.0
 11
50887.02277299498
 21
2517.907953790917
 31
0.0
  0
LINE
  5
1E275
330
1F
100
AcDbEntity
  8
base
100
AcDbLine
 10
50880.04124114086
 20
2701.860429285645
 30
0.0
 11
50885.82336512255
 21
2517.870260880024
 31
0.0
  0
LINE
  5
1E279
330
1F
100
AcDbEntity
  8
DIM
  6
CENTER
100
AcDbLine
 10
50035.92658007642
 20
3240.894915264712
 30
0.0
 11
50035.92658007642
 21
3355.894915264712
 31
0.0
  0
LINE
  5
1E27A
330
1F
100
AcDbEntity
  8
DIM
  6
CENTER
100
AcDbLine
 10
50226.92658007639
 20
3120.816302361634
 30
0.0
 11
50226.92658007639
 21
3046.012534897626
 31
0.0
  0
LINE
  5
1E27B
330
1F
100
AcDbEntity
  8
base
100
AcDbLine
 10
50026.75574704542
 20
3311.069575189306
 30
0.0
 11
50045.0974131074
 21
3311.069575189306
 31
0.0
  0
ARC
  5
1E27C
330
1F
100
AcDbEntity
  8
base
100
AcDbCircle
 10
49663.09741310741
 20
3307.069575189306
 30
0.0
 40
4.0
100
AcDbArc
 50
2.500000002574031
 51
90.0
  0
ARC
  5
1E27D
330
1F
100
AcDbEntity
  8
base
100
AcDbCircle
 10
49663.09741310741
 20
3307.069575189306
 30
0.0
 40
5.2
100
AcDbArc
 50
2.500000002574031
 51
90.0
  0
LINE
  5
1E27E
330
1F
100
AcDbEntity
  8
base
100
AcDbLine
 10
49666.92658007642
 20
3312.269575189306
 30
0.0
 11
49666.92658007642
 21
3311.509385620182
 31
0.0
  0
LINE
  5
1E27F
330
1F
100
AcDbEntity
  8
base
100
AcDbLine
 10
50022.92658007641
 20
3312.269575189306
 30
0.0
 11
50022.92658007641
 21
3311.509385620182
 31
0.0
  0
ARC
  5
1E280
330
1F
100
AcDbEntity
  8
base
100
AcDbCircle
 10
50026.75574704542
 20
3307.069575189306
 30
0.0
 40
4.0
100
AcDbArc
 50
90.0
 51
177.4999999974259
  0
ARC
  5
1E281
330
1F
100
AcDbEntity
  8
base
100
AcDbCircle
 10
50026.75574704542
 20
3307.069575189306
 30
0.0
 40
5.2
100
AcDbArc
 50
90.0
 51
177.4999999974259
  0
LINE
  5
1E282
330
1F
100
AcDbEntity
  8
base
100
AcDbLine
 10
50022.75955415909
 20
3307.24405273878
 30
0.0
 11
50014.22540171621
 21
3111.779826031904
 31
0.0
  0
LINE
  5
1E283
330
1F
100
AcDbEntity
  8
base
100
AcDbLine
 10
49667.09360599372
 20
3307.24405273878
 30
0.0
 11
49675.62775843663
 21
3111.779826031912
 31
0.0
  0
LINE
  5
1E284
330
1F
100
AcDbEntity
  8
base
100
AcDbLine
 10
49904.9265800764
 20
3084.269575189306
 30
0.0
 11
49784.92658007642
 21
3084.269575189306
 31
0.0
  0
LINE
  5
1E285
330
1F
100
AcDbEntity
  8
DIM
  6
CENTER
100
AcDbLine
 10
49844.92658007642
 20
3120.816302361634
 30
0.0
 11
49844.92658007642
 21
3046.012534897626
 31
0.0
  0
LINE
  5
1E286
330
1F
100
AcDbEntity
  8
base
100
AcDbLine
 10
49904.9265800764
 20
3084.269575189306
 30
0.0
 11
49989.14082299429
 21
3087.946448441428
 31
0.0
  0
LINE
  5
1E287
330
1F
100
AcDbEntity
  8
base
100
AcDbLine
 10
49901.92658007642
 20
3081.269575189307
 30
0.0
 11
49787.92658007642
 21
3081.269575189307
 31
0.0
  0
LINE
  5
1E288
330
1F
100
AcDbEntity
  8
base
100
AcDbLine
 10
49891.92658007642
 20
3078.269575189306
 30
0.0
 11
49797.92658007641
 21
3078.269575189306
 31
0.0
  0
LINE
  5
1E289
330
1F
100
AcDbEntity
  8
base
100
AcDbLine
 10
49891.92658007642
 20
3078.269575189306
 30
0.0
 11
49901.92658007642
 21
3081.269575189307
 31
0.0
  0
LINE
  5
1E28A
330
1F
100
AcDbEntity
  8
base
100
AcDbLine
 10
49901.92658007642
 20
3081.269575189307
 30
0.0
 11
49904.9265800764
 21
3084.269575189307
 31
0.0
  0
LINE
  5
1E28B
330
1F
100
AcDbEntity
  8
base
100
AcDbLine
 10
49905.4451336678
 20
3083.09107250586
 30
0.0
 11
49989.19316625912
 21
3086.747590575531
 31
0.0
  0
LINE
  5
1E28C
330
1F
100
AcDbEntity
  8
base
100
AcDbLine
 10
49902.56117935323
 20
3080.207118191288
 30
0.0
 11
49905.4451336678
 21
3083.09107250586
 31
0.0
  0
LINE
  5
1E28D
330
1F
100
AcDbEntity
  8
base
100
AcDbLine
 10
49892.10270267998
 20
3077.069575189308
 30
0.0
 11
49902.56117935323
 21
3080.207118191288
 31
0.0
  0
LINE
  5
1E28E
330
1F
100
AcDbEntity
  8
base
100
AcDbLine
 10
49892.10270267998
 20
3077.069575189308
 30
0.0
 11
49797.75045747285
 21
3077.069575189308
 31
0.0
  0
LINE
  5
1E28F
330
1F
100
AcDbEntity
  8
base
100
AcDbLine
 10
50021.56069629321
 20
3307.296396003617
 30
0.0
 11
50013.0265438503
 21
3111.832169296745
 31
0.0
  0
LINE
  5
1E290
330
1F
100
AcDbEntity
  8
base
100
AcDbLine
 10
49668.29246385962
 20
3307.296396003617
 30
0.0
 11
49676.82661630251
 21
3111.832169296746
 31
0.0
  0
ARC
  5
1E291
330
1F
100
AcDbEntity
  8
base
100
AcDbCircle
 10
49988.05033831017
 20
3112.922653980979
 30
0.0
 40
25.0
100
AcDbArc
 50
272.5000000001747
 51
357.4999999998208
  0
ARC
  5
1E292
330
1F
100
AcDbEntity
  8
base
100
AcDbCircle
 10
49988.05033831017
 20
3112.922653980987
 30
0.0
 40
26.2
100
AcDbArc
 50
272.5000000001747
 51
357.4999999998208
  0
ARC
  5
1E293
330
1F
100
AcDbEntity
  8
base
100
AcDbCircle
 10
49701.80282184265
 20
3112.922653980987
 30
0.0
 40
26.2
100
AcDbArc
 50
182.5000000001791
 51
267.4999999998253
  0
ARC
  5
1E294
330
1F
100
AcDbEntity
  8
base
100
AcDbCircle
 10
49701.80282184265
 20
3112.922653980979
 30
0.0
 40
25.0
100
AcDbArc
 50
182.5000000001791
 51
267.4999999998253
  0
LINE
  5
1E295
330
1F
100
AcDbEntity
  8
base
100
AcDbLine
 10
49784.40802648502
 20
3083.09107250586
 30
0.0
 11
49700.65999389368
 21
3086.747590575531
 31
0.0
  0
LINE
  5
1E296
330
1F
100
AcDbEntity
  8
base
100
AcDbLine
 10
49784.92658007642
 20
3084.269575189306
 30
0.0
 11
49700.71233715851
 21
3087.946448441428
 31
0.0
  0
LINE
  5
1E297
330
1F
100
AcDbEntity
  8
base
100
AcDbLine
 10
49797.75045747285
 20
3077.069575189308
 30
0.0
 11
49787.29198079959
 21
3080.207118191288
 31
0.0
  0
LINE
  5
1E298
330
1F
100
AcDbEntity
  8
base
100
AcDbLine
 10
49787.29198079959
 20
3080.207118191288
 30
0.0
 11
49784.40802648502
 21
3083.09107250586
 31
0.0
  0
LINE
  5
1E299
330
1F
100
AcDbEntity
  8
base
100
AcDbLine
 10
49787.92658007642
 20
3081.269575189307
 30
0.0
 11
49784.92658007642
 21
3084.269575189307
 31
0.0
  0
LINE
  5
1E29A
330
1F
100
AcDbEntity
  8
base
100
AcDbLine
 10
49797.92658007641
 20
3078.269575189306
 30
0.0
 11
49787.92658007642
 21
3081.269575189307
 31
0.0
  0
LINE
  5
1E29B
330
1F
100
AcDbEntity
  8
base
100
AcDbLine
 10
50273.92658007642
 20
3078.269575189306
 30
0.0
 11
50283.92658007642
 21
3081.269575189307
 31
0.0
  0
LINE
  5
1E29C
330
1F
100
AcDbEntity
  8
base
100
AcDbLine
 10
50283.92658007642
 20
3081.269575189307
 30
0.0
 11
50286.92658007639
 21
3084.269575189307
 31
0.0
  0
LINE
  5
1E29D
330
1F
100
AcDbEntity
  8
base
100
AcDbLine
 10
50284.56117935323
 20
3080.207118191288
 30
0.0
 11
50287.4451336678
 21
3083.09107250586
 31
0.0
  0
LINE
  5
1E29E
330
1F
100
AcDbEntity
  8
base
100
AcDbLine
 10
50274.10270267997
 20
3077.069575189308
 30
0.0
 11
50284.56117935323
 21
3080.207118191288
 31
0.0
  0
LINE
  5
1E29F
330
1F
100
AcDbEntity
  8
base
100
AcDbLine
 10
50286.92658007639
 20
3084.269575189306
 30
0.0
 11
50371.1408229943
 21
3087.946448441428
 31
0.0
  0
LINE
  5
1E2A0
330
1F
100
AcDbEntity
  8
base
100
AcDbLine
 10
50287.4451336678
 20
3083.09107250586
 30
0.0
 11
50371.19316625913
 21
3086.747590575531
 31
0.0
  0
ARC
  5
1E2A1
102
{ACAD_REACTORS
330
1E2DD
102
}
330
1F
100
AcDbEntity
  8
base
100
AcDbCircle
 10
50370.05033831016
 20
3112.922653980979
 30
0.0
 40
25.0
100
AcDbArc
 50
272.5000000001747
 51
357.4999999998208
  0
ARC
  5
1E2A2
330
1F
100
AcDbEntity
  8
base
100
AcDbCircle
 10
50370.05033831016
 20
3112.922653980987
 30
0.0
 40
26.2
100
AcDbArc
 50
272.5000000001747
 51
357.4999999998208
  0
ARC
  5
1E2A3
330
1F
100
AcDbEntity
  8
base
100
AcDbCircle
 10
50083.80282184266
 20
3112.922653980987
 30
0.0
 40
26.2
100
AcDbArc
 50
182.5000000001791
 51
267.4999999998253
  0
ARC
  5
1E2A4
330
1F
100
AcDbEntity
  8
base
100
AcDbCircle
 10
50083.80282184265
 20
3112.922653980979
 30
0.0
 40
25.0
100
AcDbArc
 50
182.5000000001791
 51
267.4999999998253
  0
LINE
  5
1E2A5
330
1F
100
AcDbEntity
  8
base
100
AcDbLine
 10
50404.92658007641
 20
3312.269575189306
 30
0.0
 11
50404.92658007641
 21
3311.509385620182
 31
0.0
  0
LINE
  5
1E2A6
330
1F
100
AcDbEntity
  8
base
100
AcDbLine
 10
50403.5606962932
 20
3307.296396003617
 30
0.0
 11
50395.0265438503
 21
3111.832169296746
 31
0.0
  0
ARC
  5
1E2A7
330
1F
100
AcDbEntity
  8
base
100
AcDbCircle
 10
50408.75574704541
 20
3307.069575189306
 30
0.0
 40
5.2
100
AcDbArc
 50
90.0
 51
177.4999999974259
  0
ARC
  5
1E2A8
330
1F
100
AcDbEntity
  8
base
100
AcDbCircle
 10
50045.0974131074
 20
3307.069575189306
 30
0.0
 40
5.2
100
AcDbArc
 50
2.500000002574031
 51
90.0
  0
LINE
  5
1E2A9
330
1F
100
AcDbEntity
  8
base
100
AcDbLine
 10
50050.2924638596
 20
3307.296396003617
 30
0.0
 11
50058.82661630251
 21
3111.832169296745
 31
0.0
  0
LINE
  5
1E2AA
330
1F
100
AcDbEntity
  8
base
100
AcDbLine
 10
50179.75045747284
 20
3077.069575189308
 30
0.0
 11
50274.10270267997
 21
3077.069575189308
 31
0.0
  0
LINE
  5
1E2AB
330
1F
100
AcDbEntity
  8
base
100
AcDbLine
 10
50179.75045747284
 20
3077.069575189308
 30
0.0
 11
50169.29198079959
 21
3080.207118191288
 31
0.0
  0
LINE
  5
1E2AC
330
1F
100
AcDbEntity
  8
base
100
AcDbLine
 10
50169.29198079959
 20
3080.207118191288
 30
0.0
 11
50166.40802648502
 21
3083.09107250586
 31
0.0
  0
LINE
  5
1E2AD
330
1F
100
AcDbEntity
  8
base
100
AcDbLine
 10
50166.40802648502
 20
3083.09107250586
 30
0.0
 11
50082.65999389368
 21
3086.747590575531
 31
0.0
  0
LINE
  5
1E2AE
330
1F
100
AcDbEntity
  8
base
100
AcDbLine
 10
50169.92658007642
 20
3081.269575189307
 30
0.0
 11
50166.92658007642
 21
3084.269575189307
 31
0.0
  0
LINE
  5
1E2AF
330
1F
100
AcDbEntity
  8
base
100
AcDbLine
 10
50179.92658007641
 20
3078.269575189306
 30
0.0
 11
50169.92658007642
 21
3081.269575189307
 31
0.0
  0
LINE
  5
1E2B0
330
1F
100
AcDbEntity
  8
base
100
AcDbLine
 10
50179.92658007641
 20
3078.269575189306
 30
0.0
 11
50273.9265800764
 21
3078.269575189306
 31
0.0
  0
LINE
  5
1E2B1
330
1F
100
AcDbEntity
  8
base
100
AcDbLine
 10
50169.92658007642
 20
3081.269575189307
 30
0.0
 11
50283.92658007642
 21
3081.269575189307
 31
0.0
  0
LINE
  5
1E2B2
330
1F
100
AcDbEntity
  8
base
100
AcDbLine
 10
50166.92658007642
 20
3084.269575189306
 30
0.0
 11
50082.71233715851
 21
3087.946448441428
 31
0.0
  0
LINE
  5
1E2B3
330
1F
100
AcDbEntity
  8
base
100
AcDbLine
 10
50166.92658007642
 20
3084.269575189306
 30
0.0
 11
50286.92658007639
 21
3084.269575189306
 31
0.0
  0
LINE
  5
1E2B4
330
1F
100
AcDbEntity
  8
base
100
AcDbLine
 10
50404.7595541591
 20
3307.24405273878
 30
0.0
 11
50396.22540171619
 21
3111.779826031912
 31
0.0
  0
ARC
  5
1E2B5
330
1F
100
AcDbEntity
  8
base
100
AcDbCircle
 10
50408.75574704541
 20
3307.069575189306
 30
0.0
 40
4.0
100
AcDbArc
 50
90.0
 51
177.4999999974259
  0
ARC
  5
1E2B6
330
1F
100
AcDbEntity
  8
base
100
AcDbCircle
 10
50045.0974131074
 20
3307.069575189306
 30
0.0
 40
4.0
100
AcDbArc
 50
2.500000002574031
 51
90.0
  0
LINE
  5
1E2B7
330
1F
100
AcDbEntity
  8
base
100
AcDbLine
 10
50049.09360599372
 20
3307.24405273878
 30
0.0
 11
50057.62775843662
 21
3111.779826031904
 31
0.0
  0
LINE
  5
1E2B8
330
1F
100
AcDbEntity
  8
base
100
AcDbLine
 10
50048.92658007642
 20
3312.269575189306
 30
0.0
 11
50048.92658007642
 21
3311.509385620182
 31
0.0
  0
LINE
  5
1E2B9
102
{ACAD_REACTORS
330
1E24B
102
}
330
1F
100
AcDbEntity
  8
base
100
AcDbLine
 10
49639.42658007642
 20
3312.269575189307
 30
0.0
 11
50432.42658007639
 21
3312.269575189307
 31
0.0
  0
LINE
  5
1E2BA
330
1F
100
AcDbEntity
  8
DIM
  6
CENTER
100
AcDbLine
 10
49782.9265800764
 20
2762.373001367226
 30
0.0
 11
49902.92658007642
 21
2762.373001367226
 31
0.0
  0
LWPOLYLINE
  5
1E2BB
102
{ACAD_REACTORS
330
1E254
330
1E251
330
1E245
102
}
330
1F
100
AcDbEntity
  8
base
100
AcDbPolyline
 90
        8
 70
     1
 43
0.0
 10
49693.12658007639
 20
2484.373001367232
 42
-0.4142135623730552
 10
49666.92658007642
 20
2510.573001367232
 10
49666.92658007642
 20
2864.173001367228
 42
-0.4142135623730632
 10
49693.12658007639
 20
2890.373001367226
 10
49996.72658007641
 20
2890.373001367226
 42
-0.4142135623730632
 10
50022.92658007641
 20
2864.173001367228
 10
50022.92658007641
 20
2510.573001367225
 42
-0.4142135623730697
 10
49996.72658007641
 20
2484.373001367226
  0
LINE
  5
1E2BC
330
1F
100
AcDbEntity
  8
DIM
  6
CENTER
100
AcDbLine
 10
49844.92658007642
 20
2890.373001367226
 30
0.0
 11
49844.92658007642
 21
2484.373001367229
 31
0.0
  0
CIRCLE
  5
1E2BD
330
1F
100
AcDbEntity
  8
base
100
AcDbCircle
 10
49844.92658007642
 20
2762.373001367226
 30
0.0
 40
47.0
  0
CIRCLE
  5
1E2BE
330
1F
100
AcDbEntity
  8
base
100
AcDbCircle
 10
49844.92658007642
 20
2762.373001367226
 30
0.0
 40
57.0
  0
CIRCLE
  5
1E2BF
330
1F
100
AcDbEntity
  8
base
100
AcDbCircle
 10
49844.92658007642
 20
2762.373001367226
 30
0.0
 40
60.0
  0
LWPOLYLINE
  5
1E2C0
102
{ACAD_REACTORS
330
1E257
330
1E254
330
1E24E
102
}
330
1F
100
AcDbEntity
  8
base
100
AcDbPolyline
 90
        8
 70
     1
 43
0.0
 10
50378.72658007641
 20
2484.373001367232
 42
0.4142135623730552
 10
50404.92658007641
 20
2510.573001367232
 10
50404.92658007641
 20
2864.173001367228
 42
0.4142135623730632
 10
50378.72658007641
 20
2890.373001367226
 10
50075.12658007641
 20
2890.373001367226
 42
0.4142135623730632
 10
50048.92658007642
 20
2864.173001367228
 10
50048.92658007642
 20
2510.573001367225
 42
0.4142135623730697
 10
50075.12658007641
 20
2484.373001367226
  0
LINE
  5
1E2C1
330
1F
100
AcDbEntity
  8
DIM
  6
CENTER
100
AcDbLine
 10
50430.9265800764
 20
2687.373001367227
 30
0.0
 11
49640.92658007642
 21
2687.373001367227
 31
0.0
  0
LINE
  5
1E2C2
330
1F
100
AcDbEntity
  8
DIM
  6
CENTER
100
AcDbLine
 10
50035.92658007642
 20
2458.373001367232
 30
0.0
 11
50035.92658007642
 21
2916.373001367227
 31
0.0
  0
LINE
  5
1E2C3
102
{ACAD_REACTORS
330
1E2CA
102
}
330
1F
100
AcDbEntity
  8
DIM
  6
CENTER
100
AcDbLine
 10
50226.92658007642
 20
2890.373001367226
 30
0.0
 11
50226.92658007642
 21
2484.373001367229
 31
0.0
  0
LINE
  5
1E2C4
330
1F
100
AcDbEntity
  8
DIM
  6
CENTER
100
AcDbLine
 10
50286.92658007642
 20
2762.373001367226
 30
0.0
 11
50166.92658007642
 21
2762.373001367226
 31
0.0
  0
CIRCLE
  5
1E2C5
330
1F
100
AcDbEntity
  8
base
100
AcDbCircle
 10
50226.92658007642
 20
2762.373001367226
 30
0.0
 40
60.0
  0
CIRCLE
  5
1E2C6
330
1F
100
AcDbEntity
  8
base
100
AcDbCircle
 10
50226.92658007642
 20
2762.373001367226
 30
0.0
 40
57.0
  0
CIRCLE
  5
1E2C7
102
{ACAD_REACTORS
330
1E2CA
102
}
330
1F
100
AcDbEntity
  8
base
100
AcDbCircle
 10
50226.92658007642
 20
2762.373001367226
 30
0.0
 40
47.0
  0
DIMENSION
  5
1E2C8
102
{ACAD_XDICTIONARY
360
1E2C9
102
}
102
{ACAD_REACTORS
330
1E2CA
102
}
330
1F
100
AcDbEntity
  8
DIM
100
AcDbDimension
280
     0
  2
*D16
 10
50338.60828061638
 20
2687.373001367229
 30
0.0
 11
50318.60828061638
 21
2607.373001367237
 31
0.0
 70
    32
  1
<>(3")
 71
     5
 42
74.99999999999818
 73
     0
 74
     0
 75
     0
  3
ISO-25
100
AcDbAlignedDimension
 13
50273.92658007642
 23
2762.373001367226
 33
0.0
 14
50226.92658007642
 24
2687.373001367229
 34
0.0
 50
90.0
100
AcDbRotatedDimension
1001
ACAD
1000
DSTYLE
1002
{
1070
    41
1040
5.0
1070
    42
1040
5.0
1070
    43
1040
5.0
1070
   140
1040
30.0
1070
   141
1040
0.0
1070
   179
1070
     1
1002
}
  0
ARC
  5
1E2CB
330
1F
100
AcDbEntity
  8
base
100
AcDbCircle
 10
50909.84472320593
 20
2855.495271596478
 30
0.0
 40
25.0
100
AcDbArc
 50
92.5000000001747
 51
174.0
  0
ARC
  5
1E2CC
330
1F
100
AcDbEntity
  8
base
100
AcDbCircle
 10
50909.84472320594
 20
2855.495271596478
 30
0.0
 40
26.2
100
AcDbArc
 50
92.5000000001747
 51
174.0
  0
ARC
  5
1E2D3
330
1F
100
AcDbEntity
  8
base
100
AcDbCircle
 10
50911.51068372393
 20
2518.677517388332
 30
0.0
 40
24.5
100
AcDbArc
 50
181.8000000000179
 51
267.4999999998253
  0
ARC
  5
1E2D4
330
1F
100
AcDbEntity
  8
base
100
AcDbCircle
 10
50911.51068372393
 20
2518.677517388333
 30
0.0
 40
25.7
100
AcDbArc
 50
181.8000000000179
 51
267.4999999998253
  0
DIMENSION
  5
1E2DB
102
{ACAD_XDICTIONARY
360
1E2DC
102
}
102
{ACAD_REACTORS
330
1E2DD
102
}
330
1F
100
AcDbEntity
  8
DIM
100
AcDbDimension
280
     0
  2
*D15
 10
50370.05033831018
 20
3112.922653980968
 30
0.0
 11
50276.13755149347
 21
3165.375114657269
 31
0.0
 70
   164
  1
2-<>(1")
 71
     5
 42
25.00000000001455
 73
     0
 74
     0
 75
     0
  3
ISO-25
100
AcDbRadialDimension
 15
50391.87671716389
 25
3100.732117235803
 35
0.0
 40
0.0
1001
ACAD
1000
DSTYLE
1002
{
1070
    41
1040
5.0
1070
    42
1040
5.0
1070
    43
1040
5.0
1070
   140
1040
30.0
1070
   141
1040
0.0
1070
   179
1070
     1
1070
   279
1070
     1
1070
   288
1070
     1
1002
}
  0
LINE
  5
1E2DE
330
1F
100
AcDbEntity
  8
DIM
100
AcDbLine
 10
50404.7595541591
 20
3307.24405273878
 30
0.0
 11
50404.7595541591
 21
3264.806944148097
 31
0.0
  0
LINE
  5
1E2E2
330
1F
100
AcDbEntity
  8
DIM
100
AcDbLine
 10
51104.20020288361
 20
2890.205975449919
 30
0.0
 11
51061.97351702237
 21
2890.205975449919
 31
0.0
  0
CIRCLE
  5
1E2E6
330
1F
100
AcDbEntity
  8
DIM
100
AcDbCircle
 10
49844.92658007642
 20
3083.414418629629
 30
0.0
 40
74.89473559407635
  0
LEADER
  5
1E2E7
330
1F
100
AcDbEntity
  8
DIM
100
AcDbLeader
  3
ISO-25
 73
     0
 74
     0
 75
     1
 40
30.0
 41
10.0
 76
     3
 10
49874.82216985853
 20
3058.93218024027
 30
0.0
 10
49912.05097354534
 20
3010.095226088019
 30
0.0
 10
49917.05097354534
 20
3010.095226088019
 30
0.0
340
1E2E8
213
0.0
223
-15.0
233
0.0
1001
ACAD
1000
DSTYLE
1002
{
1070
   147
1040
5.0
1070
    77
1070
     0
1070
    41
1040
5.0
1070
    42
1040
5.0
1070
    43
1040
5.0
1070
   140
1040
30.0
1070
   141
1040
0.0
1070
   179
1070
     1
1002
}
  0
MTEXT
  5
1E2E8
102
{ACAD_REACTORS
330
1E2E7
102
}
330
1F
100
AcDbEntity
  8
DIM
100
AcDbMText
 10
49922.05097354534
 20
3025.095226088019
 30
0.0
 40
30.0
 41
0.0
 46
0.0
 71
     1
 72
     1
  1
I
 73
     1
 44
1.0
  0
LINE
  5
1E2E9
330
1F
100
AcDbEntity
  8
0
100
AcDbLine
 10
49006.10669946567
 20
3448.168402341369
 30
0.0
 11
49006.10669946567
 21
1770.856402341369
 31
0.0
  0
LINE
  5
1E2EA
330
1F
100
AcDbEntity
  8
0
100
AcDbLine
 10
51384.98669946566
 20
3448.168402341369
 30
0.0
 11
49006.10669946567
 21
3448.168402341369
 31
0.0
  0
LINE
  5
1E2EB
330
1F
100
AcDbEntity
  8
0
100
AcDbLine
 10
49467.29209076047
 20
3317.603260678299
 30
0.0
 11
49467.29209076047
 21
3414.371260678298
 31
0.0
  0
LINE
  5
1E2EC
330
1F
100
AcDbEntity
  8
0
100
AcDbLine
 10
49099.74984284244
 20
3317.603260678299
 30
0.0
 11
49467.29209076047
 21
3317.603260678299
 31
0.0
  0
LINE
  5
1E2EE
330
1F
100
AcDbEntity
  8
0
100
AcDbLine
 10
49099.74984284244
 20
1801.571260678298
 30
0.0
 11
49099.74984284244
 21
3414.371260678298
 31
0.0
  0
LINE
  5
1E2F2
330
1F
100
AcDbEntity
  8
0
100
AcDbLine
 10
51384.98669946566
 20
1770.856402341369
 30
0.0
 11
51384.98669946566
 21
3448.168402341369
 31
0.0
  0
LINE
  5
1E2F3
330
1F
100
AcDbEntity
  8
0
100
AcDbLine
 10
49006.10669946567
 20
1770.856402341369
 30
0.0
 11
51384.98669946566
 21
1770.856402341369
 31
0.0
  0
INSERT
  5
1E2F5
330
1F
100
AcDbEntity
  8
0
100
AcDbBlockReference
  2
SE13
 10
46642.4475560889
 20
1724.013544004436
 30
0.0
 41
8.063999999998486
 42
8.063999999998486
 43
8.063999999999998
  0
LINE
  5
1E32C
330
1F
100
AcDbEntity
  8
0
100
AcDbLine
 10
51353.63784284245
 20
1801.571260678298
 30
0.0
 11
49099.74984284243
 21
1801.571260678298
 31
0.0
  0
LINE
  5
1E32D
330
1F
100
AcDbEntity
  8
0
100
AcDbLine
 10
51353.63784284245
 20
3414.371260678298
 30
0.0
 11
51353.63784284245
 21
1801.571260678298
 31
0.0
  0
LINE
  5
1E32F
330
1F
100
AcDbEntity
  8
base
100
AcDbLine
 10
49352.63338244664
 20
1978.296865531441
 30
0.0
 11
49332.63338244664
 21
1984.296865531442
 31
0.0
  0
LINE
  5
1E330
102
{ACAD_REACTORS
330
1E348
330
1E34B
330
1E34E
102
}
330
1F
100
AcDbEntity
  8
base
100
AcDbLine
 10
49332.63338244664
 20
1984.296865531442
 30
0.0
 11
49326.63338244664
 21
1990.296865531442
 31
0.0
  0
LINE
  5
1E331
330
1F
100
AcDbEntity
  8
base
100
AcDbLine
 10
49331.36418389301
 20
1982.1719515354
 30
0.0
 11
49325.59627526384
 21
1987.939860164546
 31
0.0
  0
LINE
  5
1E332
330
1F
100
AcDbEntity
  8
base
100
AcDbLine
 10
49352.2811372395
 20
1975.896865531442
 30
0.0
 11
49331.36418389301
 21
1982.1719515354
 31
0.0
  0
LINE
  5
1E333
330
1F
100
AcDbEntity
  8
base
100
AcDbLine
 10
49540.98562765377
 20
1975.896865531442
 30
0.0
 11
49352.2811372395
 21
1975.896865531442
 31
0.0
  0
LINE
  5
1E334
330
1F
100
AcDbEntity
  8
base
100
AcDbLine
 10
49540.98562765377
 20
1975.896865531442
 30
0.0
 11
49561.90258100027
 21
1982.1719515354
 31
0.0
  0
LINE
  5
1E335
330
1F
100
AcDbEntity
  8
base
100
AcDbLine
 10
49561.90258100027
 20
1982.1719515354
 30
0.0
 11
49567.67048962943
 21
1987.939860164546
 31
0.0
  0
LINE
  5
1E336
102
{ACAD_REACTORS
330
1E345
330
1E348
102
}
330
1F
100
AcDbEntity
  8
base
100
AcDbLine
 10
49560.63338244664
 20
1984.296865531442
 30
0.0
 11
49566.63338244663
 21
1990.296865531442
 31
0.0
  0
LINE
  5
1E337
330
1F
100
AcDbEntity
  8
base
100
AcDbLine
 10
49540.63338244664
 20
1978.296865531441
 30
0.0
 11
49560.63338244664
 21
1984.296865531442
 31
0.0
  0
LINE
  5
1E338
102
{ACAD_REACTORS
330
1E342
330
1E34E
102
}
330
1F
100
AcDbEntity
  8
base
100
AcDbLine
 10
49540.63338244664
 20
1978.296865531441
 30
0.0
 11
49352.63338244666
 21
1978.296865531441
 31
0.0
  0
LINE
  5
1E339
102
{ACAD_REACTORS
330
1E345
330
1E34B
102
}
330
1F
100
AcDbEntity
  8
base
100
AcDbLine
 10
49560.63338244664
 20
1984.296865531442
 30
0.0
 11
49332.63338244664
 21
1984.296865531442
 31
0.0
  0
LINE
  5
1E33A
330
1F
100
AcDbEntity
  8
DIM
  6
CENTER
100
AcDbLine
 10
49446.63338244664
 20
2022.089941023309
 30
0.0
 11
49446.63338244664
 21
1919.604430054851
 31
0.0
  0
LINE
  5
1E33B
330
1F
100
AcDbEntity
  8
base
100
AcDbLine
 10
49566.63338244664
 20
1990.296865531442
 30
0.0
 11
49326.63338244664
 21
1990.296865531442
 31
0.0
  0
LINE
  5
1E33C
330
1F
100
AcDbEntity
  8
base
100
AcDbLine
 10
49567.67048962943
 20
1987.939860164548
 30
0.0
 11
49602.8171093575
 21
1989.474394721923
 31
0.0
  0
LINE
  5
1E33D
330
1F
100
AcDbEntity
  8
base
100
AcDbLine
 10
49566.63338244663
 20
1990.296865531442
 30
0.0
 11
49601.95942852115
 21
1991.839234012283
 31
0.0
  0
LINE
  5
1E33E
330
1F
100
AcDbEntity
  8
base
100
AcDbLine
 10
49326.63338244664
 20
1990.296865531442
 30
0.0
 11
49291.30733637212
 21
1991.839234012283
 31
0.0
  0
LINE
  5
1E33F
330
1F
100
AcDbEntity
  8
base
100
AcDbLine
 10
49325.59627526384
 20
1987.939860164548
 30
0.0
 11
49290.44965553578
 21
1989.474394721923
 31
0.0
  0
DIMENSION
  5
1E340
102
{ACAD_XDICTIONARY
360
1E341
102
}
102
{ACAD_REACTORS
330
1E342
102
}
330
1F
100
AcDbEntity
  8
DIM
100
AcDbDimension
280
     0
  2
*D14
 10
49540.63338244664
 20
2032.817928629475
 30
0.0
 11
49655.63338244664
 21
2052.817928629474
 31
0.0
 70
    32
  1
{\Ftxt.shx|c1;%%C}94(3.7")
 71
     5
 42
187.9999999999854
 73
     0
 74
     0
 75
     0
  3
ISO-25
100
AcDbAlignedDimension
 13
49352.63338244666
 23
1978.296865531441
 33
0.0
 14
49540.63338244664
 24
1978.296865531441
 34
0.0
100
AcDbRotatedDimension
1001
ACAD
1000
DSTYLE
1002
{
1070
    41
1040
5.0
1070
    42
1040
5.0
1070
    43
1040
5.0
1070
   140
1040
30.0
1070
   141
1040
0.0
1070
   179
1070
     1
1002
}
  0
DIMENSION
  5
1E343
102
{ACAD_XDICTIONARY
360
1E344
102
}
102
{ACAD_REACTORS
330
1E345
102
}
330
1F
100
AcDbEntity
  8
DIM
100
AcDbDimension
280
     0
  2
*D13
 10
49560.63338244664
 20
2096.177367081311
 30
0.0
 11
49680.63338244664
 21
2116.177367081311
 31
0.0
 70
    32
  1
{\Ftxt.shx|c1;%%C}114(4.5")
 71
     5
 42
228.0
 73
     0
 74
     0
 75
     0
  3
ISO-25
100
AcDbAlignedDimension
 13
49332.63338244664
 23
1984.296865531442
 33
0.0
 14
49560.63338244664
 24
1984.296865531442
 34
0.0
100
AcDbRotatedDimension
1001
ACAD
1000
DSTYLE
1002
{
1070
    41
1040
5.0
1070
    42
1040
5.0
1070
    43
1040
5.0
1070
   140
1040
30.0
1070
   141
1040
0.0
1070
   179
1070
     1
1002
}
  0
DIMENSION
  5
1E346
102
{ACAD_XDICTIONARY
360
1E347
102
}
102
{ACAD_REACTORS
330
1E348
102
}
330
1F
100
AcDbEntity
  8
DIM
100
AcDbDimension
280
     0
  2
*D12
 10
49566.63338244663
 20
2160.202086551419
 30
0.0
 11
49446.63338244664
 21
2180.202086551419
 31
0.0
 70
    32
  1
%%C120(4.7")
 71
     5
 42
239.9999999999709
 73
     0
 74
     0
 75
     0
  3
ISO-25
100
AcDbAlignedDimension
 13
49326.63338244664
 23
1990.296865531442
 33
0.0
 14
49566.63338244663
 24
1990.296865531442
 34
0.0
100
AcDbRotatedDimension
1001
ACAD
1000
DSTYLE
1002
{
1070
    41
1040
5.0
1070
    42
1040
5.0
1070
    43
1040
5.0
1070
   140
1040
30.0
1070
   141
1040
0.0
1070
   179
1070
     1
1002
}
  0
DIMENSION
  5
1E349
102
{ACAD_XDICTIONARY
360
1E34A
102
}
102
{ACAD_REACTORS
330
1E34B
102
}
330
1F
100
AcDbEntity
  8
DIM
100
AcDbDimension
280
     0
  2
*D11
 10
49257.14060495714
 20
1984.296865531442
 30
0.0
 11
49257.14060495714
 21
2082.796865531449
 31
0.0
 70
   160
  1
3(0.11")
 71
     5
 42
6.0
 73
     0
 74
     0
 75
     0
  3
ISO-25
100
AcDbAlignedDimension
 13
49326.63338244664
 23
1990.296865531442
 33
0.0
 14
49332.63338244664
 24
1984.296865531442
 34
0.0
 50
90.0
100
AcDbRotatedDimension
1001
ACAD
1000
DSTYLE
1002
{
1070
    41
1040
5.0
1070
    42
1040
5.0
1070
    43
1040
5.0
1070
   140
1040
30.0
1070
   141
1040
0.0
1070
   179
1070
     1
1002
}
  0
DIMENSION
  5
1E34C
102
{ACAD_XDICTIONARY
360
1E34D
102
}
102
{ACAD_REACTORS
330
1E34E
102
}
330
1F
100
AcDbEntity
  8
DIM
100
AcDbDimension
280
     0
  2
*D10
 10
49201.97006616494
 20
1990.296865531442
 30
0.0
 11
49181.97006616495
 21
2092.796865531449
 31
0.0
 70
    32
  1
6(0.23")
 71
     5
 42
12.0
 73
     0
 74
     0
 75
     0
  3
ISO-25
100
AcDbAlignedDimension
 13
49352.63338244666
 23
1978.296865531441
 33
0.0
 14
49326.63338244664
 24
1990.296865531442
 34
0.0
 50
90.0
100
AcDbRotatedDimension
1001
ACAD
1000
DSTYLE
1002
{
1070
    41
1040
5.0
1070
    42
1040
5.0
1070
    43
1040
5.0
1070
   140
1040
30.0
1070
   141
1040
0.0
1070
   179
1070
     1
1002
}
  0
SPLINE
  5
1E34F
330
1F
100
AcDbEntity
  8
DIM
100
AcDbSpline
210
0.0
220
0.0
230
1.0
 70
  1064
 71
     3
 72
    10
 73
     6
 74
     4
 42
0.000000001
 43
0.0000000001
 44
0.0000000001
 40
0.0
 40
0.0
 40
0.0
 40
0.0
 40
48.9684640961515
 40
98.01469611246528
 40
135.2960078901307
 40
135.2960078901307
 40
135.2960078901307
 40
135.2960078901307
 10
49616.04438775268
 20
2058.225976812608
 30
0.0
 10
49606.18084111851
 20
2043.42988364802
 30
0.0
 10
49586.43808332971
 20
2013.814199310213
 30
0.0
 10
49616.37495962293
 20
1969.4053052941
 30
0.0
 10
49604.81727176509
 20
1941.607898392671
 30
0.0
 10
49599.82598224706
 20
1929.603342861983
 30
0.0
 11
49616.04438775268
 21
2058.225976812608
 31
0.0
 11
49596.79492275005
 21
2013.199667025458
 31
0.0
 11
49609.08182154072
 21
1965.717407252929
 31
0.0
 11
49599.82598224706
 21
1929.603342861983
 31
0.0
  0
SPLINE
  5
1E350
330
1F
100
AcDbEntity
  8
DIM
100
AcDbSpline
210
0.0
220
0.0
230
1.0
 70
  1064
 71
     3
 72
    10
 73
     6
 74
     4
 42
0.000000001
 43
0.0000000001
 44
0.0000000001
 40
0.0
 40
0.0
 40
0.0
 40
0.0
 40
48.9684640961515
 40
98.01469611246711
 40
135.2960078901325
 40
135.2960078901325
 40
135.2960078901325
 40
135.2960078901325
 10
49277.2223771406
 20
2058.225976812608
 30
0.0
 10
49287.08592377477
 20
2043.42988364802
 30
0.0
 10
49306.82868156356
 20
2013.814199310211
 30
0.0
 10
49276.89180527035
 20
1969.405305294101
 30
0.0
 10
49288.44949312818
 20
1941.607898392671
 30
0.0
 10
49293.44078264621
 20
1929.603342861983
 30
0.0
 11
49277.2223771406
 21
2058.225976812608
 31
0.0
 11
49296.47184214323
 21
2013.199667025458
 31
0.0
 11
49284.18494335256
 21
1965.717407252929
 31
0.0
 11
49293.44078264621
 21
1929.603342861983
 31
0.0
  0
MTEXT
  5
1E970
330
1F
100
AcDbEntity
  8
Defpoints
100
AcDbMText
 10
21436.36157163224
 20
2195.613799034519
 30
0.0
 40
38.304
 41
331.5446140127624
 46
0.0
 71
     1
 72
     5
  1
{\fSimSun|b0|i0|c134|p54;大佳用图\P2011-9-5}
 73
     1
 44
1.0
  0
LWPOLYLINE
  5
1EF34
330
1F
100
AcDbEntity
  8
Defpoints
  6
ACAD_ISO02W100
 62
     1
100
AcDbPolyline
 90
        8
 70
     1
 43
0.0
 10
-19367.39727344607
 20
-9232.942837813359
 42
-0.4142135623731218
 10
-19382.39727344607
 20
-9217.942837813358
 10
-19382.39727344607
 20
-8863.942837813359
 42
-0.4142135623731284
 10
-19367.39727344607
 20
-8848.942837813359
 10
-18681.39727344606
 20
-8848.942837813359
 42
-0.4142135623731284
 10
-18666.39727344606
 20
-8863.942837813359
 10
-18666.39727344606
 20
-9217.942837813358
 42
-0.4142135623731086
 10
-18681.39727344606
 20
-9232.942837813359
  0
LWPOLYLINE
  5
1EF35
330
1F
100
AcDbEntity
  8
Defpoints
 62
     1
100
AcDbPolyline
 90
        8
 70
     1
 43
0.0
 10
-19367.39727344607
 20
-9255.942837813362
 42
-0.4142135623731197
 10
-19405.39727344607
 20
-9217.942837813358
 10
-19405.39727344607
 20
-8863.942837813359
 42
-0.4142135623731414
 10
-19367.39727344607
 20
-8825.942837813361
 10
-18681.39727344606
 20
-8825.942837813361
 42
-0.4142135623731413
 10
-18643.39727344606
 20
-8863.942837813359
 10
-18643.39727344606
 20
-9217.942837813358
 42
-0.4142135623731073
 10
-18681.39727344606
 20
-9255.942837813361
  0
MTEXT
  5
1F2F3
330
1F
100
AcDbEntity
  8
0
100
AcDbMText
 10
49433.53853454143
 20
3795.246119873409
 30
0.0
 40
84.12330682479396
 41
1712.510174647592
 46
114.1673449765062
 71
     1
 72
     5
  1
Lincoln 50/50
  7
NewTextStyle_0
 73
     1
 44
1.0
  0
ENDSEC
  0
SECTION
  2
OBJECTS
  0
DICTIONARY
  5
C
330
0
100
AcDbDictionary
281
     1
  3
ACAD_COLOR
350
6B
  3
ACAD_DETAILVIEWSTYLE
350
1F2EC
  3
ACAD_GROUP
350
D
  3
ACAD_LAYOUT
350
1A
  3
ACAD_MATERIAL
350
6A
  3
ACAD_MLEADERSTYLE
350
1F2E8
  3
ACAD_MLINESTYLE
350
17
  3
ACAD_PLOTSETTINGS
350
19
  3
ACAD_PLOTSTYLENAME
350
E
  3
ACAD_SCALELIST
350
1F2D6
  3
ACAD_SECTIONVIEWSTYLE
350
1F2EA
  3
ACAD_TABLESTYLE
350
1F2C0
  3
ACAD_VISUALSTYLE
350
1F2AF
  3
AcadDim
350
D72F
  3
ACDB_RECOMPOSE_DATA
350
1F300
  3
AcDbVariableDictionary
350
5E
  3
lxx_dict
350
1EE9A
  0
DICTIONARY
  5
1DAC1
330
2
100
AcDbDictionary
280
     1
281
     1
  3
ACAD_LAYERSTATES
360
1DAC2
  0
DICTIONARY
  5
1E235
330
1E234
100
AcDbDictionary
280
     1
281
     1
  3
ACAD_DIMASSOC
360
1E236
  0
DICTIONARY
  5
1E244
330
1E243
100
AcDbDictionary
280
     1
281
     1
  3
ACAD_DIMASSOC
360
1E245
  0
DICTIONARY
  5
1E24A
330
1E249
100
AcDbDictionary
280
     1
281
     1
  3
ACAD_DIMASSOC
360
1E24B
  0
DICTIONARY
  5
1E24D
330
1E24C
100
AcDbDictionary
280
     1
281
     1
  3
ACAD_DIMASSOC
360
1E24E
  0
DICTIONARY
  5
1E250
330
1E24F
100
AcDbDictionary
280
     1
281
     1
  3
ACAD_DIMASSOC
360
1E251
  0
DICTIONARY
  5
1E253
330
1E252
100
AcDbDictionary
280
     1
281
     1
  3
ACAD_DIMASSOC
360
1E254
  0
DICTIONARY
  5
1E256
330
1E255
100
AcDbDictionary
280
     1
281
     1
  3
ACAD_DIMASSOC
360
1E257
  0
DICTIONARY
  5
1E2C9
330
1E2C8
100
AcDbDictionary
280
     1
281
     1
  3
ACAD_DIMASSOC
360
1E2CA
  0
DICTIONARY
  5
1E2DC
330
1E2DB
100
AcDbDictionary
280
     1
281
     1
  3
ACAD_DIMASSOC
360
1E2DD
  0
DICTIONARY
  5
1E341
330
1E340
100
AcDbDictionary
280
     1
281
     1
  3
ACAD_DIMASSOC
360
1E342
  0
DICTIONARY
  5
1E344
330
1E343
100
AcDbDictionary
280
     1
281
     1
  3
ACAD_DIMASSOC
360
1E345
  0
DICTIONARY
  5
1E347
330
1E346
100
AcDbDictionary
280
     1
281
     1
  3
ACAD_DIMASSOC
360
1E348
  0
DICTIONARY
  5
1E34A
330
1E349
100
AcDbDictionary
280
     1
281
     1
  3
ACAD_DIMASSOC
360
1E34B
  0
DICTIONARY
  5
1E34D
330
1E34C
100
AcDbDictionary
280
     1
281
     1
  3
ACAD_DIMASSOC
360
1E34E
  0
DICTIONARY
  5
6B
102
{ACAD_REACTORS
330
C
102
}
330
C
100
AcDbDictionary
281
     1
  0
DICTIONARY
  5
1F2EC
102
{ACAD_REACTORS
330
C
102
}
330
C
100
AcDbDictionary
281
     1
  3
Metric50
350
1F2ED
  0
DICTIONARY
  5
D
102
{ACAD_REACTORS
330
C
102
}
330
C
100
AcDbDictionary
281
     1
  0
DICTIONARY
  5
1A
102
{ACAD_REACTORS
330
C
102
}
330
C
100
AcDbDictionary
281
     1
  3
Layout1
350
51
  3
Layout2
350
56
  3
Model
350
22
  0
DICTIONARY
  5
6A
102
{ACAD_REACTORS
330
C
102
}
330
C
100
AcDbDictionary
281
     1
  3
ByBlock
350
1F2AE
  3
ByLayer
350
1F2AD
  3
Global
350
1DABE
  0
DICTIONARY
  5
1F2E8
102
{ACAD_REACTORS
330
C
102
}
330
C
100
AcDbDictionary
281
     1
  3
Standard
350
1F2E9
  0
DICTIONARY
  5
17
102
{ACAD_REACTORS
330
C
102
}
330
C
100
AcDbDictionary
281
     1
  3
Standard
350
18
  0
DICTIONARY
  5
19
102
{ACAD_REACTORS
330
C
102
}
330
C
100
AcDbDictionary
281
     1
  0
ACDBDICTIONARYWDFLT
  5
E
102
{ACAD_REACTORS
330
C
102
}
330
C
100
AcDbDictionary
281
     1
  3
Normal
350
F
100
AcDbDictionaryWithDefault
340
F
  0
DICTIONARY
  5
1F2D6
102
{ACAD_REACTORS
330
C
102
}
330
C
100
AcDbDictionary
281
     1
  3
A0
350
1F2D7
  3
A1
350
1F2D8
  3
A2
350
1F2D9
  3
A3
350
1F2DA
  3
A4
350
1F2DB
  3
A5
350
1F2DC
  3
A6
350
1F2DD
  3
A7
350
1F2DE
  3
A8
350
1F2DF
  3
A9
350
1F2E0
  3
B0
350
1F2E1
  3
B1
350
1F2E2
  3
B2
350
1F2E3
  3
B3
350
1F2E4
  3
B4
350
1F2E5
  3
B5
350
1F2E6
  3
B6
350
1F2E7
  0
DICTIONARY
  5
1F2EA
102
{ACAD_REACTORS
330
C
102
}
330
C
100
AcDbDictionary
281
     1
  3
Metric50
350
1F2EB
  0
DICTIONARY
  5
1F2C0
102
{ACAD_REACTORS
330
C
102
}
330
C
100
AcDbDictionary
281
     1
  3
Standard
350
1F2C1
  0
DICTIONARY
  5
1F2AF
102
{ACAD_REACTORS
330
C
102
}
330
C
100
AcDbDictionary
281
     1
  3
2dWireframe
350
1F2B5
  3
3D Hidden
350
1F2B7
  3
3dWireframe
350
1F2B6
  3
Basic
350
1F2B4
  3
Brighten
350
1F2BB
  3
ColorChange
350
1F2BF
  3
Conceptual
350
1F2B8
  3
Dim
350
1F2BA
  3
EdgeColorOff
350
1F2D5
  3
Facepattern
350
1F2BE
  3
Flat
350
1F2B0
  3
FlatWithEdges
350
1F2B1
  3
Gouraud
350
1F2B2
  3
GouraudWithEdges
350
1F2B3
  3
Hidden
350
1F2CD
  3
JitterOff
350
1F2D3
  3
Linepattern
350
1F2BD
  3
OverhangOff
350
1F2D4
  3
Realistic
350
1F2B9
  3
Shaded
350
1F2D2
  3
Shaded with edges
350
1F2D1
  3
Shades of Gray
350
1F2CE
  3
Sketchy
350
1F2CF
  3
Thicken
350
1F2BC
  3
Wireframe
350
1F2CC
  3
X-Ray
350
1F2D0
  0
XRECORD
  5
D72F
102
{ACAD_REACTORS
330
C
102
}
330
C
100
AcDbXrecord
280
     1
 90
   990106
  3

 60
     0
 61
     0
 62
     1
 63
     3
 64
     0
 65
     0
 66
     0
 67
     3
 68
     1
 69
     0
 70
     0
 71
     0
 72
     0
 40
0.0
170
     0
340
0
  0
XRECORD
  5
1F300
102
{ACAD_REACTORS
330
C
102
}
330
C
100
AcDbXrecord
280
     1
 90
        1
330
1F2C1
  0
DICTIONARY
  5
5E
102
{ACAD_REACTORS
330
C
102
}
330
C
100
AcDbDictionary
281
     1
  3
CANNOSCALE
350
1F2F8
  3
CMLEADERSTYLE
350
1F2F4
  3
CTABLESTYLE
350
1F2C8
  3
CVIEWDETAILSTYLE
350
1F2F5
  3
CVIEWSECTIONSTYLE
350
1F2F6
  3
DIMASSOC
350
5F
  3
HIDETEXT
350
63
  3
LAYEREVAL
350
1F2FA
  3
LAYERNOTIFY
350
1F2FB
  3
LIGHTINGUNITS
350
1F2F9
  3
MSLTSCALE
350
1F2F7
  3
PROJECTNAME
350
1CF
  0
DICTIONARY
  5
1EE9A
102
{ACAD_REACTORS
330
C
102
}
330
C
100
AcDbDictionary
281
     1
  3
lxx_dimth
350
1EE9B
  0
DICTIONARY
  5
1DAC2
102
{ACAD_REACTORS
330
1DAC1
102
}
330
1DAC1
100
AcDbDictionary
281
     1
  0
DIMASSOC
  5
1E236
102
{ACAD_REACTORS
330
1E235
102
}
330
1E235
100
AcDbDimAssoc
330
1E234
 90
        2
 70
     0
 71
     0
  1
AcDbOsnapPointRef
 72
     3
331
1E23A
 73
     2
 91
        0
 40
0.0
 10
0.0
 20
0.0
 30
0.0
 75
     0
  0
DIMASSOC
  5
1E245
102
{ACAD_REACTORS
330
1E244
102
}
330
1E244
100
AcDbDimAssoc
330
1E243
 90
        2
 70
     0
 71
     0
  1
AcDbOsnapPointRef
 72
     3
331
1E2BB
 73
     2
 91
        3
 40
0.0
 10
0.0
 20
0.0
 30
0.0
 75
     0
  0
DIMASSOC
  5
1E24B
102
{ACAD_REACTORS
330
1E24A
102
}
330
1E24A
100
AcDbDimAssoc
330
1E249
 90
        1
 70
     0
 71
     0
  1
AcDbOsnapPointRef
 72
     1
331
1E2B9
 73
     2
 91
        0
 40
1.0
 10
0.0
 20
0.0
 30
2.000000000000000E+50
 75
     0
  0
DIMASSOC
  5
1E24E
102
{ACAD_REACTORS
330
1E24D
102
}
330
1E24D
100
AcDbDimAssoc
330
1E24C
 90
        3
 70
     0
 71
     0
  1
AcDbOsnapPointRef
 72
    13
331
1E2C0
 73
     2
 91
        4
 40
0.0
 10
0.0
 20
0.0
 30
2.000000000000000E+50
 75
     0
  1
AcDbOsnapPointRef
 72
     1
331
1E2C0
 73
     2
 91
        8
 40
1.0
 10
0.0
 20
0.0
 30
2.000000000000000E+50
 75
     0
  0
DIMASSOC
  5
1E251
102
{ACAD_REACTORS
330
1E250
102
}
330
1E250
100
AcDbDimAssoc
330
1E24F
 90
        3
 70
     0
 71
     0
  1
AcDbOsnapPointRef
 72
     1
331
1E2BB
 73
     2
 91
        6
 40
1.0
 10
0.0
 20
0.0
 30
2.000000000000000E+50
 75
     0
  1
AcDbOsnapPointRef
 72
    13
331
1E2BB
 73
     2
 91
        2
 40
-0.0000000000000003
 10
0.0
 20
0.0
 30
2.000000000000000E+50
 75
     0
  0
DIMASSOC
  5
1E254
102
{ACAD_REACTORS
330
1E253
102
}
330
1E253
100
AcDbDimAssoc
330
1E252
 90
        3
 70
     0
 71
     0
  1
AcDbOsnapPointRef
 72
     1
331
1E2C0
 73
     2
 91
        6
 40
1.0
 10
0.0
 20
0.0
 30
2.000000000000000E+50
 75
     0
  1
AcDbOsnapPointRef
 72
     1
331
1E2BB
 73
     2
 91
        6
 40
1.0
 10
0.0
 20
0.0
 30
2.000000000000000E+50
 75
     0
  0
DIMASSOC
  5
1E257
102
{ACAD_REACTORS
330
1E256
102
}
330
1E256
100
AcDbDimAssoc
330
1E255
 90
        3
 70
     0
 71
     0
  1
AcDbOsnapPointRef
 72
     1
331
1E2C0
 73
     2
 91
        6
 40
1.0
 10
0.0
 20
0.0
 30
2.000000000000000E+50
 75
     0
  1
AcDbOsnapPointRef
 72
    13
331
1E2C0
 73
     2
 91
        2
 40
-0.0000000000000003
 10
0.0
 20
0.0
 30
2.000000000000000E+50
 75
     0
  0
DIMASSOC
  5
1E2CA
102
{ACAD_REACTORS
330
1E2C9
102
}
330
1E2C9
100
AcDbDimAssoc
330
1E2C8
 90
        3
 70
     0
 71
     0
  1
AcDbOsnapPointRef
 72
     5
331
1E2C7
 73
     2
 91
        0
 40
0.0
 10
0.0
 20
0.0
 30
0.0
 75
     0
  1
AcDbOsnapPointRef
 72
     2
331
1E2C3
 73
     2
 91
        0
 40
0.4999999999999995
 10
0.0
 20
0.0
 30
0.0
 75
     0
  0
DIMASSOC
  5
1E2DD
102
{ACAD_REACTORS
330
1E2DC
102
}
330
1E2DC
100
AcDbDimAssoc
330
1E2DB
 90
        2
 70
     0
 71
     0
  1
AcDbOsnapPointRef
 72
     3
331
1E2A1
 73
     2
 91
        0
 40
0.0
 10
0.0
 20
0.0
 30
0.0
 75
     0
  0
DIMASSOC
  5
1E342
102
{ACAD_REACTORS
330
1E341
102
}
330
1E341
100
AcDbDimAssoc
330
1E340
 90
        3
 70
     0
 71
     0
  1
AcDbOsnapPointRef
 72
     1
331
1E338
 73
     2
 91
        0
 40
1.0
 10
0.0
 20
0.0
 30
2.000000000000000E+50
 75
     0
  1
AcDbOsnapPointRef
 72
    13
331
1E338
 73
     2
 91
        0
 40
0.0
 10
0.0
 20
0.0
 30
2.000000000000000E+50
 75
     0
  0
DIMASSOC
  5
1E345
102
{ACAD_REACTORS
330
1E344
102
}
330
1E344
100
AcDbDimAssoc
330
1E343
 90
        3
 70
     0
 71
     0
  1
AcDbOsnapPointRef
 72
     1
331
1E339
 73
     2
 91
        0
 40
1.0
 10
0.0
 20
0.0
 30
2.000000000000000E+50
 75
     0
  1
AcDbOsnapPointRef
 72
    13
331
1E336
 73
     2
 91
        0
 40
0.0
 10
0.0
 20
0.0
 30
2.000000000000000E+50
 75
     0
  0
DIMASSOC
  5
1E348
102
{ACAD_REACTORS
330
1E347
102
}
330
1E347
100
AcDbDimAssoc
330
1E346
 90
        3
 70
     0
 71
     0
  1
AcDbOsnapPointRef
 72
     1
331
1E330
 73
     2
 91
        0
 40
1.0
 10
0.0
 20
0.0
 30
2.000000000000000E+50
 75
     0
  1
AcDbOsnapPointRef
 72
     1
331
1E336
 73
     2
 91
        0
 40
1.0
 10
0.0
 20
0.0
 30
2.000000000000000E+50
 75
     0
  0
DIMASSOC
  5
1E34B
102
{ACAD_REACTORS
330
1E34A
102
}
330
1E34A
100
AcDbDimAssoc
330
1E349
 90
        3
 70
     0
 71
     0
  1
AcDbOsnapPointRef
 72
     1
331
1E330
 73
     2
 91
        0
 40
1.0
 10
0.0
 20
0.0
 30
2.000000000000000E+50
 75
     0
  1
AcDbOsnapPointRef
 72
     1
331
1E339
 73
     2
 91
        0
 40
1.0
 10
0.0
 20
0.0
 30
2.000000000000000E+50
 75
     0
  0
DIMASSOC
  5
1E34E
102
{ACAD_REACTORS
330
1E34D
102
}
330
1E34D
100
AcDbDimAssoc
330
1E34C
 90
        3
 70
     0
 71
     0
  1
AcDbOsnapPointRef
 72
     1
331
1E338
 73
     2
 91
        0
 40
1.0
 10
0.0
 20
0.0
 30
2.000000000000000E+50
 75
     0
  1
AcDbOsnapPointRef
 72
     1
331
1E330
 73
     2
 91
        0
 40
1.0
 10
0.0
 20
0.0
 30
2.000000000000000E+50
 75
     0
  0
ACDBDETAILVIEWSTYLE
  5
1F2ED
102
{ACAD_REACTORS
330
1F2EC
102
}
330
1F2EC
100
AcDbModelDocViewStyle
 70
     0
  3
Metric50
290
     0
100
AcDbDetailViewStyle
 70
     0
 71
     0
 90
        3
 71
     1
340
11
 62
   256
 40
5.0
340
0
 62
   256
 40
5.0
300

 40
0.0
280
     1
 71
     2
340
16
 90
       25
 62
   256
 71
     3
340
11
 62
   256
 40
5.0
 90
        0
 40
15.0
 90
        1
300
%<\AcVar ViewDetailId>% (%<\AcVar ViewScale \f "%sn">%)
 71
     4
340
16
 90
       25
 62
   256
340
16
 90
       25
 62
   256
280
     0
  0
LAYOUT
  5
51
102
{ACAD_REACTORS
330
1A
102
}
330
1A
100
AcDbPlotSettings
  1

  2
None
  4

  6

 40
0.0
 41
0.0
 42
0.0
 43
0.0
 44
0.0
 45
0.0
 46
0.0
 47
0.0
 48
0.0
 49
0.0
140
0.0
141
0.0
142
1.0
143
1.0
 70
   688
 72
     0
 73
     0
 74
     5
  7

 75
    16
147
1.0
 76
     0
 77
     2
 78
   300
148
0.0
149
0.0
100
AcDbLayout
  1
Layout1
 70
     1
 71
     1
 10
0.0
 20
0.0
 11
12.0
 21
9.0
 12
0.0
 22
0.0
 32
0.0
 14
0.0
 24
0.0
 34
0.0
 15
0.0
 25
0.0
 35
0.0
146
0.0
 13
0.0
 23
0.0
 33
0.0
 16
1.0
 26
0.0
 36
0.0
 17
0.0
 27
1.0
 37
0.0
 76
     0
330
50
  0
LAYOUT
  5
56
102
{ACAD_REACTORS
330
1A
102
}
330
1A
100
AcDbPlotSettings
  1

  2
None
  4

  6

 40
0.0
 41
0.0
 42
0.0
 43
0.0
 44
0.0
 45
0.0
 46
0.0
 47
0.0
 48
0.0
 49
0.0
140
0.0
141
0.0
142
1.0
143
1.0
 70
   688
 72
     0
 73
     0
 74
     5
  7

 75
    16
147
1.0
 76
     0
 77
     2
 78
   300
148
0.0
149
0.0
100
AcDbLayout
  1
Layout2
 70
     1
 71
     2
 10
0.0
 20
0.0
 11
12.0
 21
9.0
 12
0.0
 22
0.0
 32
0.0
 14
0.0
 24
0.0
 34
0.0
 15
0.0
 25
0.0
 35
0.0
146
0.0
 13
0.0
 23
0.0
 33
0.0
 16
1.0
 26
0.0
 36
0.0
 17
0.0
 27
1.0
 37
0.0
 76
     0
330
55
  0
LAYOUT
  5
22
102
{ACAD_REACTORS
330
1A
102
}
330
1A
100
AcDbPlotSettings
  1

  2
Canon iP1100 series
  4
A4
  6

 40
4.180416584014891
 41
5.789089679718017
 42
4.180404663085936
 43
3.757080078125
 44
209.9733276367186
 45
296.9259948730469
 46
0.0
 47
0.72
 48
19461.5683155898
 49
610.4865493162805
140
21840.4483155898
141
2287.798549316281
142
1.0
143
8.319483895302504
 70
 11956
 72
     1
 73
     1
 74
     4
  7

 75
     0
147
0.1201997639017773
 76
     0
 77
     2
 78
   150
148
-19461.5683155898
149
-610.4865493162805
100
AcDbLayout
  1
Model
 70
     1
 71
     0
 10
0.0
 20
0.0
 11
12.0
 21
9.0
 12
0.0
 22
0.0
 32
0.0
 14
0.0
 24
0.0
 34
0.0
 15
0.0
 25
0.0
 35
0.0
146
0.0
 13
0.0
 23
0.0
 33
0.0
 16
1.0
 26
0.0
 36
0.0
 17
0.0
 27
1.0
 37
0.0
 76
     0
330
1F
331
1F2AB
  0
MATERIAL
  5
1F2AE
102
{ACAD_REACTORS
330
6A
102
}
330
6A
100
AcDbMaterial
  1
ByBlock
  0
MATERIAL
  5
1F2AD
102
{ACAD_REACTORS
330
6A
102
}
330
6A
100
AcDbMaterial
  1
ByLayer
  0
MATERIAL
  5
1DABE
102
{ACAD_REACTORS
330
6A
102
}
330
6A
100
AcDbMaterial
  1
Global
  0
MLEADERSTYLE
  5
1F2E9
102
{ACAD_REACTORS
330
1F2E8
102
}
330
1F2E8
100
AcDbMLeaderStyle
179
     2
170
     2
171
     1
172
     0
 90
        2
 40
0.0
 41
0.0
173
     1
 91
-1056964608
340
14
 92
       -2
290
     1
 42
2.0
291
     1
 43
0.36
  3
Standard
 44
4.0
300

342
11
174
     1
178
     6
175
     1
176
     0
 93
-1056964608
 45
4.0
292
     0
297
     0
 46
4.0
 94
-1056964608
 47
1.0
 49
1.0
140
1.0
293
     1
141
0.0
294
     1
177
     0
142
1.0
295
     0
296
     0
143
0.125
271
     0
272
     9
273
     9
  0
MLINESTYLE
  5
18
102
{ACAD_REACTORS
330
17
102
}
330
17
100
AcDbMlineStyle
  2
STANDARD
 70
     0
  3

 62
   256
 51
90.0
 52
90.0
 71
     2
 49
0.5
 62
   256
  6
BYLAYER
 49
-0.5
 62
   256
  6
BYLAYER
  0
ACDBPLACEHOLDER
  5
F
102
{ACAD_REACTORS
330
E
102
}
330
E
  0
SCALE
  5
1F2D7
102
{ACAD_REACTORS
330
1F2D6
102
}
330
1F2D6
100
AcDbScale
 70
     0
300
1:1
140
1.0
141
1.0
290
     1
  0
SCALE
  5
1F2D8
102
{ACAD_REACTORS
330
1F2D6
102
}
330
1F2D6
100
AcDbScale
 70
     0
300
1:2
140
1.0
141
2.0
290
     0
  0
SCALE
  5
1F2D9
102
{ACAD_REACTORS
330
1F2D6
102
}
330
1F2D6
100
AcDbScale
 70
     0
300
1:4
140
1.0
141
4.0
290
     0
  0
SCALE
  5
1F2DA
102
{ACAD_REACTORS
330
1F2D6
102
}
330
1F2D6
100
AcDbScale
 70
     0
300
1:5
140
1.0
141
5.0
290
     0
  0
SCALE
  5
1F2DB
102
{ACAD_REACTORS
330
1F2D6
102
}
330
1F2D6
100
AcDbScale
 70
     0
300
1:8
140
1.0
141
8.0
290
     0
  0
SCALE
  5
1F2DC
102
{ACAD_REACTORS
330
1F2D6
102
}
330
1F2D6
100
AcDbScale
 70
     0
300
1:10
140
1.0
141
10.0
290
     0
  0
SCALE
  5
1F2DD
102
{ACAD_REACTORS
330
1F2D6
102
}
330
1F2D6
100
AcDbScale
 70
     0
300
1:16
140
1.0
141
16.0
290
     0
  0
SCALE
  5
1F2DE
102
{ACAD_REACTORS
330
1F2D6
102
}
330
1F2D6
100
AcDbScale
 70
     0
300
1:20
140
1.0
141
20.0
290
     0
  0
SCALE
  5
1F2DF
102
{ACAD_REACTORS
330
1F2D6
102
}
330
1F2D6
100
AcDbScale
 70
     0
300
1:30
140
1.0
141
30.0
290
     0
  0
SCALE
  5
1F2E0
102
{ACAD_REACTORS
330
1F2D6
102
}
330
1F2D6
100
AcDbScale
 70
     0
300
1:40
140
1.0
141
40.0
290
     0
  0
SCALE
  5
1F2E1
102
{ACAD_REACTORS
330
1F2D6
102
}
330
1F2D6
100
AcDbScale
 70
     0
300
1:50
140
1.0
141
50.0
290
     0
  0
SCALE
  5
1F2E2
102
{ACAD_REACTORS
330
1F2D6
102
}
330
1F2D6
100
AcDbScale
 70
     0
300
1:100
140
1.0
141
100.0
290
     0
  0
SCALE
  5
1F2E3
102
{ACAD_REACTORS
330
1F2D6
102
}
330
1F2D6
100
AcDbScale
 70
     0
300
2:1
140
2.0
141
1.0
290
     0
  0
SCALE
  5
1F2E4
102
{ACAD_REACTORS
330
1F2D6
102
}
330
1F2D6
100
AcDbScale
 70
     0
300
4:1
140
4.0
141
1.0
290
     0
  0
SCALE
  5
1F2E5
102
{ACAD_REACTORS
330
1F2D6
102
}
330
1F2D6
100
AcDbScale
 70
     0
300
8:1
140
8.0
141
1.0
290
     0
  0
SCALE
  5
1F2E6
102
{ACAD_REACTORS
330
1F2D6
102
}
330
1F2D6
100
AcDbScale
 70
     0
300
10:1
140
10.0
141
1.0
290
     0
  0
SCALE
  5
1F2E7
102
{ACAD_REACTORS
330
1F2D6
102
}
330
1F2D6
100
AcDbScale
 70
     0
300
100:1
140
100.0
141
1.0
290
     0
  0
ACDBSECTIONVIEWSTYLE
  5
1F2EB
102
{ACAD_REACTORS
330
1F2EA
102
}
330
1F2EA
100
AcDbModelDocViewStyle
 70
     0
  3
Metric50
290
     0
100
AcDbSectionViewStyle
 70
     0
 71
     0
 90
      102
 71
     1
340
11
 62
   256
 40
5.0
340
0
340
0
 62
   256
 40
5.0
300
I, O, Q, S, X, Z
 40
10.0
 90
        0
 40
2.5
 90
        0
 71
     2
340
16
 90
       25
 62
   256
340
16
 90
       50
 62
   256
 40
5.0
 40
2.5
 40
5.0
 71
     3
340
11
 62
   256
 40
5.0
 90
        0
 40
15.0
 90
        1
300
%<\AcVar ViewSectionStartId>%-%<\AcVar ViewSectionEndId>% (%<\AcVar ViewScale \f "%sn">%)
 71
     4
 62
   256
 62
   257
300
ANSI31
 40
1.0
 90
        0
290
     0
290
     0
 90
        6
 40
0.0
 40
1.570796326794896
 40
0.2617993877991494
 40
1.308996938995747
 40
-0.2617993877991494
 40
1.832595714594046
  0
TABLESTYLE
  5
1F2C1
102
{ACAD_XDICTIONARY
360
1F2FE
102
}
102
{ACAD_REACTORS
330
1F2C0
102
}
330
1F2C0
100
AcDbTableStyle
280
     0
  3
Standard
 70
     0
 71
     0
 40
1.5
 41
1.5
280
     0
281
     0
  7
Standard
140
4.5
170
     2
 62
     0
 63
     7
283
     0
 90
      512
 91
        0
  1

274
    -2
284
     1
 64
     0
275
    -2
285
     1
 65
     0
276
    -2
286
     1
 66
     0
277
    -2
287
     1
 67
     0
278
    -2
288
     1
 68
     0
279
    -2
289
     1
 69
     0
  7
Standard
140
6.0
170
     5
 62
     0
 63
     7
283
     0
 90
      512
 91
        0
  1

274
    -2
284
     1
 64
     0
275
    -2
285
     1
 65
     0
276
    -2
286
     1
 66
     0
277
    -2
287
     1
 67
     0
278
    -2
288
     1
 68
     0
279
    -2
289
     1
 69
     0
  7
Standard
140
4.5
170
     5
 62
     0
 63
     7
283
     0
 90
      512
 91
        0
  1

274
    -2
284
     1
 64
     0
275
    -2
285
     1
 65
     0
276
    -2
286
     1
 66
     0
277
    -2
287
     1
 67
     0
278
    -2
288
     1
 68
     0
279
    -2
289
     1
 69
     0
  0
VISUALSTYLE
  5
1F2B5
102
{ACAD_XDICTIONARY
360
1F30D
102
}
102
{ACAD_REACTORS
330
1F2AF
102
}
330
1F2AF
100
AcDbVisualStyle
  2

 70
     4
177
     2
291
     0
 71
     0
176
     1
 72
     2
176
     1
 73
     0
176
     1
 90
        0
176
     1
 40
0.6
176
     1
 41
30.0
176
     1
 63
     7
421
 16777215
176
     1
 74
     1
176
     1
 91
        4
176
     1
 64
     7
176
     1
 65
   257
176
     1
 75
     1
176
     1
175
     1
176
     1
 42
1.0
176
     1
 92
        0
176
     1
 66
   257
176
     1
 43
1.0
176
     1
 76
     1
176
     1
 77
     6
176
     1
 78
     2
176
     1
 67
     7
176
     1
 79
     5
176
     1
170
     0
176
     1
171
     0
176
     1
290
     0
176
     1
 93
        1
176
     1
 44
0.0
176
     1
173
     0
176
     1
1001
ACAD
1000
AcDbSavedByObjectVersion
1070
     0
  0
VISUALSTYLE
  5
1F2B7
102
{ACAD_XDICTIONARY
360
1F311
102
}
102
{ACAD_REACTORS
330
1F2AF
102
}
330
1F2AF
100
AcDbVisualStyle
  2

 70
     6
177
     2
291
     0
 71
     1
176
     1
 72
     2
176
     1
 73
     2
176
     1
 90
        0
176
     1
 40
0.6
176
     1
 41
30.0
176
     1
 63
     7
421
 16777215
176
     1
 74
     2
176
     1
 91
        2
176
     1
 64
     7
176
     1
 65
   257
176
     1
 75
     2
176
     1
175
     1
176
     1
 42
40.0
176
     1
 92
        0
176
     1
 66
   257
176
     1
 43
1.0
176
     1
 76
     1
176
     1
 77
     6
176
     1
 78
     2
176
     1
 67
     7
176
     1
 79
     3
176
     1
170
     0
176
     1
171
     0
176
     1
290
     0
176
     1
 93
        1
176
     1
 44
0.0
176
     1
173
     0
176
     1
1001
ACAD
1000
AcDbSavedByObjectVersion
1070
     0
  0
VISUALSTYLE
  5
1F2B6
102
{ACAD_XDICTIONARY
360
1F30F
102
}
102
{ACAD_REACTORS
330
1F2AF
102
}
330
1F2AF
100
AcDbVisualStyle
  2

 70
     5
177
     2
291
     0
 71
     0
176
     1
 72
     2
176
     1
 73
     0
176
     1
 90
        0
176
     1
 40
0.6
176
     1
 41
30.0
176
     1
 63
     7
421
 16777215
176
     1
 74
     1
176
     1
 91
        4
176
     1
 64
     7
176
     1
 65
   257
176
     1
 75
     1
176
     1
175
     1
176
     1
 42
1.0
176
     1
 92
        0
176
     1
 66
   257
176
     1
 43
1.0
176
     1
 76
     1
176
     1
 77
     6
176
     1
 78
     2
176
     1
 67
     7
176
     1
 79
     5
176
     1
170
     0
176
     1
171
     0
176
     1
290
     0
176
     1
 93
        1
176
     1
 44
0.0
176
     1
173
     0
176
     1
1001
ACAD
1000
AcDbSavedByObjectVersion
1070
     0
  0
VISUALSTYLE
  5
1F2B4
102
{ACAD_XDICTIONARY
360
1F30B
102
}
102
{ACAD_REACTORS
330
1F2AF
102
}
330
1F2AF
100
AcDbVisualStyle
  2

 70
     7
177
     2
291
     1
 71
     1
176
     1
 72
     0
176
     1
 73
     1
176
     1
 90
        0
176
     1
 40
0.6
176
     1
 41
30.0
176
     1
 63
     7
421
 16777215
176
     1
 74
     0
176
     1
 91
        4
176
     1
 64
     7
176
     1
 65
   257
176
     1
 75
     1
176
     1
175
     1
176
     1
 42
1.0
176
     1
 92
        8
176
     1
 66
     7
176
     1
 43
1.0
176
     1
 76
     1
176
     1
 77
     6
176
     1
 78
     2
176
     1
 67
     7
176
     1
 79
     5
176
     1
170
     0
176
     1
171
     0
176
     1
290
     0
176
     1
 93
        1
176
     1
 44
0.0
176
     1
173
     0
176
     1
1001
ACAD
1000
AcDbSavedByObjectVersion
1070
     0
  0
VISUALSTYLE
  5
1F2BB
102
{ACAD_XDICTIONARY
360
1F319
102
}
102
{ACAD_REACTORS
330
1F2AF
102
}
330
1F2AF
100
AcDbVisualStyle
  2

 70
    12
177
     2
291
     1
 71
     2
176
     1
 72
     2
176
     1
 73
     0
176
     1
 90
        0
176
     1
 40
0.6
176
     1
 41
30.0
176
     1
 63
     7
421
 16777215
176
     1
 74
     1
176
     1
 91
        4
176
     1
 64
     7
176
     1
 65
   257
176
     1
 75
     1
176
     1
175
     1
176
     1
 42
1.0
176
     1
 92
        8
176
     1
 66
     7
176
     1
 43
1.0
176
     1
 76
     1
176
     1
 77
     6
176
     1
 78
     2
176
     1
 67
     7
176
     1
 79
     5
176
     1
170
     0
176
     1
171
     0
176
     1
290
     0
176
     1
 93
        1
176
     1
 44
50.0
176
     1
173
     0
176
     1
1001
ACAD
1000
AcDbSavedByObjectVersion
1070
     0
  0
VISUALSTYLE
  5
1F2BF
102
{ACAD_XDICTIONARY
360
1F321
102
}
102
{ACAD_REACTORS
330
1F2AF
102
}
330
1F2AF
100
AcDbVisualStyle
  2

 70
    16
177
     2
291
     1
 71
     2
176
     1
 72
     2
176
     1
 73
     3
176
     1
 90
        0
176
     1
 40
0.6
176
     1
 41
30.0
176
     1
 63
     8
421
  8421504
176
     1
 74
     1
176
     1
 91
        4
176
     1
 64
     7
176
     1
 65
   257
176
     1
 75
     1
176
     1
175
     1
176
     1
 42
1.0
176
     1
 92
        8
176
     1
 66
     8
424
  8421504
176
     1
 43
1.0
176
     1
 76
     1
176
     1
 77
     6
176
     1
 78
     2
176
     1
 67
     7
176
     1
 79
     5
176
     1
170
     0
176
     1
171
     0
176
     1
290
     0
176
     1
 93
        1
176
     1
 44
0.0
176
     1
173
     0
176
     1
1001
ACAD
1000
AcDbSavedByObjectVersion
1070
     0
  0
VISUALSTYLE
  5
1F2B8
102
{ACAD_XDICTIONARY
360
1F313
102
}
102
{ACAD_REACTORS
330
1F2AF
102
}
330
1F2AF
100
AcDbVisualStyle
  2

 70
     9
177
     2
291
     0
 71
     3
176
     1
 72
     2
176
     1
 73
     0
176
     1
 90
        0
176
     1
 40
0.6
176
     1
 41
30.0
176
     1
 63
     7
421
 16777215
176
     1
 74
     2
176
     1
 91
        2
176
     1
 64
     7
176
     1
 65
   257
176
     1
 75
     1
176
     1
175
     1
176
     1
 42
40.0
176
     1
 92
        8
176
     1
 66
     7
176
     1
 43
1.0
176
     1
 76
     1
176
     1
 77
     6
176
     1
 78
     2
176
     1
 67
     7
176
     1
 79
     3
176
     1
170
     0
176
     1
171
     0
176
     1
290
     0
176
     1
 93
        1
176
     1
 44
0.0
176
     1
173
     0
176
     1
1001
ACAD
1000
AcDbSavedByObjectVersion
1070
     0
  0
VISUALSTYLE
  5
1F2BA
102
{ACAD_XDICTIONARY
360
1F317
102
}
102
{ACAD_REACTORS
330
1F2AF
102
}
330
1F2AF
100
AcDbVisualStyle
  2

 70
    11
177
     2
291
     1
 71
     2
176
     1
 72
     2
176
     1
 73
     0
176
     1
 90
        0
176
     1
 40
0.6
176
     1
 41
30.0
176
     1
 63
     7
421
 16777215
176
     1
 74
     1
176
     1
 91
        4
176
     1
 64
     7
176
     1
 65
   257
176
     1
 75
     1
176
     1
175
     1
176
     1
 42
1.0
176
     1
 92
        8
176
     1
 66
     7
176
     1
 43
1.0
176
     1
 76
     1
176
     1
 77
     6
176
     1
 78
     2
176
     1
 67
     7
176
     1
 79
     5
176
     1
170
     0
176
     1
171
     0
176
     1
290
     0
176
     1
 93
        1
176
     1
 44
-50.0
176
     1
173
     0
176
     1
1001
ACAD
1000
AcDbSavedByObjectVersion
1070
     0
  0
VISUALSTYLE
  5
1F2D5
102
{ACAD_XDICTIONARY
360
1F335
102
}
102
{ACAD_REACTORS
330
1F2AF
102
}
330
1F2AF
100
AcDbVisualStyle
  2
EdgeColorOff
 70
    22
177
     2
291
     1
 71
     2
176
     0
 72
     2
176
     0
 73
     0
176
     0
 90
        0
176
     0
 40
0.6
176
     0
 41
30.0
176
     0
 63
     7
421
 16777215
176
     0
 74
     1
176
     0
 91
        4
176
     0
 64
     7
176
     0
 65
   257
176
     0
 75
     1
176
     0
175
     1
176
     0
 42
1.0
176
     0
 92
        8
176
     2
 66
     7
176
     0
 43
1.0
176
     0
 76
     1
176
     0
 77
     6
176
     0
 78
     2
176
     0
 67
     7
176
     0
 79
     5
176
     0
170
     0
176
     0
171
     0
176
     0
290
     0
176
     0
 93
        1
176
     0
 44
0.0
176
     0
173
     0
176
     0
1001
ACAD
1000
AcDbSavedByObjectVersion
1070
     0
  0
VISUALSTYLE
  5
1F2BE
102
{ACAD_XDICTIONARY
360
1F31F
102
}
102
{ACAD_REACTORS
330
1F2AF
102
}
330
1F2AF
100
AcDbVisualStyle
  2

 70
    15
177
     2
291
     1
 71
     2
176
     1
 72
     2
176
     1
 73
     0
176
     1
 90
        0
176
     1
 40
0.6
176
     1
 41
30.0
176
     1
 63
     7
421
 16777215
176
     1
 74
     1
176
     1
 91
        4
176
     1
 64
     7
176
     1
 65
   257
176
     1
 75
     1
176
     1
175
     1
176
     1
 42
1.0
176
     1
 92
        8
176
     1
 66
     7
176
     1
 43
1.0
176
     1
 76
     1
176
     1
 77
     6
176
     1
 78
     2
176
     1
 67
     7
176
     1
 79
     5
176
     1
170
     0
176
     1
171
     0
176
     1
290
     0
176
     1
 93
        1
176
     1
 44
0.0
176
     1
173
     0
176
     1
1001
ACAD
1000
AcDbSavedByObjectVersion
1070
     0
  0
VISUALSTYLE
  5
1F2B0
102
{ACAD_XDICTIONARY
360
1F303
102
}
102
{ACAD_REACTORS
330
1F2AF
102
}
330
1F2AF
100
AcDbVisualStyle
  2

 70
     0
177
     2
291
     1
 71
     2
176
     1
 72
     1
176
     1
 73
     1
176
     1
 90
        2
176
     1
 40
0.6
176
     1
 41
30.0
176
     1
 63
     7
421
 16777215
176
     1
 74
     0
176
     1
 91
        4
176
     1
 64
     7
176
     1
 65
   257
176
     1
 75
     1
176
     1
175
     1
176
     1
 42
1.0
176
     1
 92
        8
176
     1
 66
     7
176
     1
 43
1.0
176
     1
 76
     1
176
     1
 77
     6
176
     1
 78
     2
176
     1
 67
     7
176
     1
 79
     5
176
     1
170
     0
176
     1
171
     0
176
     1
290
     0
176
     1
 93
       13
176
     1
 44
0.0
176
     1
173
     0
176
     1
1001
ACAD
1000
AcDbSavedByObjectVersion
1070
     0
  0
VISUALSTYLE
  5
1F2B1
102
{ACAD_XDICTIONARY
360
1F305
102
}
102
{ACAD_REACTORS
330
1F2AF
102
}
330
1F2AF
100
AcDbVisualStyle
  2

 70
     1
177
     2
291
     1
 71
     2
176
     1
 72
     1
176
     1
 73
     1
176
     1
 90
        2
176
     1
 40
0.6
176
     1
 41
30.0
176
     1
 63
     7
421
 16777215
176
     1
 74
     1
176
     1
 91
        4
176
     1
 64
     7
176
     1
 65
   257
176
     1
 75
     1
176
     1
175
     1
176
     1
 42
1.0
176
     1
 92
        0
176
     1
 66
   257
176
     1
 43
1.0
176
     1
 76
     1
176
     1
 77
     6
176
     1
 78
     2
176
     1
 67
     7
176
     1
 79
     5
176
     1
170
     0
176
     1
171
     0
176
     1
290
     0
176
     1
 93
       13
176
     1
 44
0.0
176
     1
173
     0
176
     1
1001
ACAD
1000
AcDbSavedByObjectVersion
1070
     0
  0
VISUALSTYLE
  5
1F2B2
102
{ACAD_XDICTIONARY
360
1F307
102
}
102
{ACAD_REACTORS
330
1F2AF
102
}
330
1F2AF
100
AcDbVisualStyle
  2

 70
     2
177
     2
291
     1
 71
     2
176
     1
 72
     2
176
     1
 73
     1
176
     1
 90
        2
176
     1
 40
0.6
176
     1
 41
30.0
176
     1
 63
     7
421
 16777215
176
     1
 74
     0
176
     1
 91
        4
176
     1
 64
     7
176
     1
 65
   257
176
     1
 75
     1
176
     1
175
     1
176
     1
 42
1.0
176
     1
 92
        0
176
     1
 66
     7
176
     1
 43
1.0
176
     1
 76
     1
176
     1
 77
     6
176
     1
 78
     2
176
     1
 67
     7
176
     1
 79
     5
176
     1
170
     0
176
     1
171
     0
176
     1
290
     0
176
     1
 93
       13
176
     1
 44
0.0
176
     1
173
     0
176
     1
1001
ACAD
1000
AcDbSavedByObjectVersion
1070
     0
  0
VISUALSTYLE
  5
1F2B3
102
{ACAD_XDICTIONARY
360
1F309
102
}
102
{ACAD_REACTORS
330
1F2AF
102
}
330
1F2AF
100
AcDbVisualStyle
  2

 70
     3
177
     2
291
     1
 71
     2
176
     1
 72
     2
176
     1
 73
     1
176
     1
 90
        2
176
     1
 40
0.6
176
     1
 41
30.0
176
     1
 63
     7
421
 16777215
176
     1
 74
     1
176
     1
 91
        4
176
     1
 64
     7
176
     1
 65
   257
176
     1
 75
     1
176
     1
175
     1
176
     1
 42
1.0
176
     1
 92
        0
176
     1
 66
   257
176
     1
 43
1.0
176
     1
 76
     1
176
     1
 77
     6
176
     1
 78
     2
176
     1
 67
     7
176
     1
 79
     5
176
     1
170
     0
176
     1
171
     0
176
     1
290
     0
176
     1
 93
       13
176
     1
 44
0.0
176
     1
173
     0
176
     1
1001
ACAD
1000
AcDbSavedByObjectVersion
1070
     0
  0
VISUALSTYLE
  5
1F2CD
102
{ACAD_XDICTIONARY
360
1F325
102
}
102
{ACAD_REACTORS
330
1F2AF
102
}
330
1F2AF
100
AcDbVisualStyle
  2
Hidden
 70
     6
177
     2
291
     0
 71
     1
176
     1
 72
     2
176
     1
 73
     2
176
     1
 90
        0
176
     1
 40
0.6
176
     1
 41
30.0
176
     1
 63
     7
421
 16777215
176
     1
 74
     2
176
     1
 91
        2
176
     1
 64
     7
176
     1
 65
   257
176
     1
 75
     2
176
     1
175
     1
176
     1
 42
40.0
176
     1
 92
        0
176
     1
 66
   257
176
     1
 43
1.0
176
     1
 76
     1
176
     1
 77
     6
176
     1
 78
     2
176
     1
 67
     7
176
     1
 79
     3
176
     1
170
     0
176
     1
171
     0
176
     1
290
     0
176
     1
 93
        1
176
     1
 44
0.0
176
     1
173
     0
176
     1
1001
ACAD
1000
AcDbSavedByObjectVersion
1070
     0
  0
VISUALSTYLE
  5
1F2D3
102
{ACAD_XDICTIONARY
360
1F331
102
}
102
{ACAD_REACTORS
330
1F2AF
102
}
330
1F2AF
100
AcDbVisualStyle
  2
JitterOff
 70
    20
177
     2
291
     1
 71
     2
176
     0
 72
     2
176
     0
 73
     0
176
     0
 90
        0
176
     0
 40
0.6
176
     0
 41
30.0
176
     0
 63
     7
421
 16777215
176
     0
 74
     1
176
     0
 91
        4
176
     0
 64
     7
176
     0
 65
   257
176
     0
 75
     1
176
     0
175
     1
176
     0
 42
1.0
176
     0
 92
       10
176
     2
 66
     7
176
     0
 43
1.0
176
     0
 76
     1
176
     0
 77
     6
176
     0
 78
     2
176
     0
 67
     7
176
     0
 79
     5
176
     0
170
     0
176
     0
171
     0
176
     0
290
     0
176
     0
 93
        1
176
     0
 44
0.0
176
     0
173
     0
176
     0
1001
ACAD
1000
AcDbSavedByObjectVersion
1070
     0
  0
VISUALSTYLE
  5
1F2BD
102
{ACAD_XDICTIONARY
360
1F31D
102
}
102
{ACAD_REACTORS
330
1F2AF
102
}
330
1F2AF
100
AcDbVisualStyle
  2

 70
    14
177
     2
291
     1
 71
     2
176
     1
 72
     2
176
     1
 73
     0
176
     1
 90
        0
176
     1
 40
0.6
176
     1
 41
30.0
176
     1
 63
     7
421
 16777215
176
     1
 74
     1
176
     1
 91
        4
176
     1
 64
     7
176
     1
 65
   257
176
     1
 75
     7
176
     1
175
     7
176
     1
 42
1.0
176
     1
 92
        8
176
     1
 66
     7
176
     1
 43
1.0
176
     1
 76
     1
176
     1
 77
     6
176
     1
 78
     2
176
     1
 67
     7
176
     1
 79
     5
176
     1
170
     0
176
     1
171
     0
176
     1
290
     0
176
     1
 93
        1
176
     1
 44
0.0
176
     1
173
     0
176
     1
1001
ACAD
1000
AcDbSavedByObjectVersion
1070
     0
  0
VISUALSTYLE
  5
1F2D4
102
{ACAD_XDICTIONARY
360
1F333
102
}
102
{ACAD_REACTORS
330
1F2AF
102
}
330
1F2AF
100
AcDbVisualStyle
  2
OverhangOff
 70
    21
177
     2
291
     1
 71
     2
176
     0
 72
     2
176
     0
 73
     0
176
     0
 90
        0
176
     0
 40
0.6
176
     0
 41
30.0
176
     0
 63
     7
421
 16777215
176
     0
 74
     1
176
     0
 91
        4
176
     0
 64
     7
176
     0
 65
   257
176
     0
 75
     1
176
     0
175
     1
176
     0
 42
1.0
176
     0
 92
        9
176
     2
 66
     7
176
     0
 43
1.0
176
     0
 76
     1
176
     0
 77
     6
176
     0
 78
     2
176
     0
 67
     7
176
     0
 79
     5
176
     0
170
     0
176
     0
171
     0
176
     0
290
     0
176
     0
 93
        1
176
     0
 44
0.0
176
     0
173
     0
176
     0
1001
ACAD
1000
AcDbSavedByObjectVersion
1070
     0
  0
VISUALSTYLE
  5
1F2B9
102
{ACAD_XDICTIONARY
360
1F315
102
}
102
{ACAD_REACTORS
330
1F2AF
102
}
330
1F2AF
100
AcDbVisualStyle
  2

 70
     8
177
     2
291
     0
 71
     2
176
     1
 72
     2
176
     1
 73
     0
176
     1
 90
        0
176
     1
 40
0.6
176
     1
 41
30.0
176
     1
 63
     7
421
 16777215
176
     1
 74
     1
176
     1
 91
        0
176
     1
 64
     7
176
     1
 65
   257
176
     1
 75
     1
176
     1
175
     1
176
     1
 42
1.0
176
     1
 92
        8
176
     1
 66
     8
424
  7895160
176
     1
 43
1.0
176
     1
 76
     1
176
     1
 77
     6
176
     1
 78
     2
176
     1
 67
     7
176
     1
 79
     5
176
     1
170
     0
176
     1
171
     0
176
     1
290
     0
176
     1
 93
       13
176
     1
 44
0.0
176
     1
173
     0
176
     1
1001
ACAD
1000
AcDbSavedByObjectVersion
1070
     0
  0
VISUALSTYLE
  5
1F2D2
102
{ACAD_XDICTIONARY
360
1F32F
102
}
102
{ACAD_REACTORS
330
1F2AF
102
}
330
1F2AF
100
AcDbVisualStyle
  2
Shaded
 70
    27
177
     2
291
     0
 71
     2
176
     1
 72
     2
176
     1
 73
     1
176
     1
 90
        2
176
     1
 40
0.6
176
     1
 41
30.0
176
     1
 63
     7
421
 16777215
176
     1
 74
     0
176
     1
 91
        4
176
     1
 64
     7
176
     1
 65
   257
176
     1
 75
     1
176
     1
175
     1
176
     1
 42
1.0
176
     1
 92
        8
176
     1
 66
   257
176
     1
 43
1.0
176
     1
 76
     1
176
     1
 77
     6
176
     1
 78
     2
176
     1
 67
     8
425
  7895160
176
     1
 79
     3
176
     1
170
     0
176
     1
171
     0
176
     1
290
     0
176
     1
 93
        5
176
     1
 44
0.0
176
     1
173
     0
176
     1
1001
ACAD
1000
AcDbSavedByObjectVersion
1070
     0
  0
VISUALSTYLE
  5
1F2D1
102
{ACAD_XDICTIONARY
360
1F32D
102
}
102
{ACAD_REACTORS
330
1F2AF
102
}
330
1F2AF
100
AcDbVisualStyle
  2
Shaded with edges
 70
    26
177
     2
291
     0
 71
     2
176
     1
 72
     2
176
     1
 73
     1
176
     1
 90
        2
176
     1
 40
0.6
176
     1
 41
30.0
176
     1
 63
     7
421
 16777215
176
     1
 74
     1
176
     1
 91
       10
176
     1
 64
     7
176
     1
 65
   257
176
     1
 75
     2
176
     1
175
     1
176
     1
 42
1.0
176
     1
 92
        8
176
     1
 66
   257
176
     1
 43
1.0
176
     1
 76
     1
176
     1
 77
     6
176
     1
 78
     2
176
     1
 67
     7
176
     1
 79
     3
176
     1
170
     0
176
     1
171
     0
176
     1
290
     0
176
     1
 93
        5
176
     1
 44
0.0
176
     1
173
     0
176
     1
1001
ACAD
1000
AcDbSavedByObjectVersion
1070
     0
  0
VISUALSTYLE
  5
1F2CE
102
{ACAD_XDICTIONARY
360
1F327
102
}
102
{ACAD_REACTORS
330
1F2AF
102
}
330
1F2AF
100
AcDbVisualStyle
  2
Shades of Gray
 70
    23
177
     2
291
     0
 71
     2
176
     1
 72
     2
176
     1
 73
     3
176
     1
 90
        0
176
     1
 40
0.6
176
     1
 41
30.0
176
     1
 63
     7
421
 16777215
176
     1
 74
     2
176
     1
 91
        2
176
     1
 64
     7
176
     1
 65
     7
176
     1
 75
     1
176
     1
175
     1
176
     1
 42
40.0
176
     1
 92
        8
176
     1
 66
     7
176
     1
 43
1.0
176
     1
 76
     1
176
     1
 77
     6
176
     1
 78
     2
176
     1
 67
     7
176
     1
 79
     3
176
     1
170
     0
176
     1
171
     0
176
     1
290
     0
176
     1
 93
        1
176
     1
 44
0.0
176
     1
173
     0
176
     1
1001
ACAD
1000
AcDbSavedByObjectVersion
1070
     0
  0
VISUALSTYLE
  5
1F2CF
102
{ACAD_XDICTIONARY
360
1F329
102
}
102
{ACAD_REACTORS
330
1F2AF
102
}
330
1F2AF
100
AcDbVisualStyle
  2
Sketchy
 70
    24
177
     2
291
     0
 71
     1
176
     1
 72
     2
176
     1
 73
     2
176
     1
 90
        0
176
     1
 40
0.6
176
     1
 41
30.0
176
     1
 63
     7
421
 16777215
176
     1
 74
     2
176
     1
 91
        2
176
     1
 64
     7
176
     1
 65
     7
176
     1
 75
     1
176
     1
175
     1
176
     1
 42
40.0
176
     1
 92
       11
176
     1
 66
     7
176
     1
 43
1.0
176
     1
 76
     1
176
     1
 77
     6
176
     1
 78
     2
176
     1
 67
     7
176
     1
 79
     6
176
     1
170
     0
176
     1
171
     0
176
     1
290
     0
176
     1
 93
        1
176
     1
 44
0.0
176
     1
173
     0
176
     1
1001
ACAD
1000
AcDbSavedByObjectVersion
1070
     0
  0
VISUALSTYLE
  5
1F2BC
102
{ACAD_XDICTIONARY
360
1F31B
102
}
102
{ACAD_REACTORS
330
1F2AF
102
}
330
1F2AF
100
AcDbVisualStyle
  2

 70
    13
177
     2
291
     1
 71
     2
176
     1
 72
     2
176
     1
 73
     0
176
     1
 90
        0
176
     1
 40
0.6
176
     1
 41
30.0
176
     1
 63
     7
421
 16777215
176
     1
 74
     1
176
     1
 91
        4
176
     1
 64
     7
176
     1
 65
   257
176
     1
 75
     1
176
     1
175
     1
176
     1
 42
1.0
176
     1
 92
       12
176
     1
 66
     7
176
     1
 43
1.0
176
     1
 76
     1
176
     1
 77
     6
176
     1
 78
     2
176
     1
 67
     7
176
     1
 79
     5
176
     1
170
     0
176
     1
171
     0
176
     1
290
     0
176
     1
 93
        1
176
     1
 44
0.0
176
     1
173
     0
176
     1
1001
ACAD
1000
AcDbSavedByObjectVersion
1070
     0
  0
VISUALSTYLE
  5
1F2CC
102
{ACAD_XDICTIONARY
360
1F323
102
}
102
{ACAD_REACTORS
330
1F2AF
102
}
330
1F2AF
100
AcDbVisualStyle
  2
Wireframe
 70
     5
177
     2
291
     0
 71
     0
176
     1
 72
     2
176
     1
 73
     0
176
     1
 90
        0
176
     1
 40
0.6
176
     1
 41
30.0
176
     1
 63
     7
421
 16777215
176
     1
 74
     1
176
     1
 91
        4
176
     1
 64
     7
176
     1
 65
   257
176
     1
 75
     1
176
     1
175
     1
176
     1
 42
1.0
176
     1
 92
        0
176
     1
 66
   257
176
     1
 43
1.0
176
     1
 76
     1
176
     1
 77
     6
176
     1
 78
     2
176
     1
 67
     7
176
     1
 79
     3
176
     1
170
     0
176
     1
171
     0
176
     1
290
     0
176
     1
 93
        1
176
     1
 44
0.0
176
     1
173
     0
176
     1
1001
ACAD
1000
AcDbSavedByObjectVersion
1070
     0
  0
VISUALSTYLE
  5
1F2D0
102
{ACAD_XDICTIONARY
360
1F32B
102
}
102
{ACAD_REACTORS
330
1F2AF
102
}
330
1F2AF
100
AcDbVisualStyle
  2
X-Ray
 70
    25
177
     2
291
     0
 71
     2
176
     1
 72
     2
176
     1
 73
     1
176
     1
 90
        1
176
     1
 40
0.5
176
     1
 41
30.0
176
     1
 63
     7
421
 16777215
176
     1
 74
     1
176
     1
 91
        0
176
     1
 64
     7
176
     1
 65
   257
176
     1
 75
     1
176
     1
175
     1
176
     1
 42
1.0
176
     1
 92
        8
176
     1
 66
     7
176
     1
 43
1.0
176
     1
 76
     1
176
     1
 77
     6
176
     1
 78
     2
176
     1
 67
     7
176
     1
 79
     3
176
     1
170
     0
176
     1
171
     0
176
     1
290
     0
176
     1
 93
       13
176
     1
 44
0.0
176
     1
173
     0
176
     1
1001
ACAD
1000
AcDbSavedByObjectVersion
1070
     0
  0
DICTIONARYVAR
  5
1F2F8
102
{ACAD_REACTORS
330
5E
102
}
330
5E
100
DictionaryVariables
280
     0
  1
1:1
  0
DICTIONARYVAR
  5
1F2F4
102
{ACAD_REACTORS
330
5E
102
}
330
5E
100
DictionaryVariables
280
     0
  1
STANDARD
  0
DICTIONARYVAR
  5
1F2C8
102
{ACAD_REACTORS
330
5E
102
}
330
5E
100
DictionaryVariables
280
     0
  1
STANDARD
  0
DICTIONARYVAR
  5
1F2F5
102
{ACAD_REACTORS
330
5E
102
}
330
5E
100
DictionaryVariables
280
     0
  1
Metric50
  0
DICTIONARYVAR
  5
1F2F6
102
{ACAD_REACTORS
330
5E
102
}
330
5E
100
DictionaryVariables
280
     0
  1
Metric50
  0
DICTIONARYVAR
  5
5F
102
{ACAD_REACTORS
330
5E
102
}
330
5E
100
DictionaryVariables
280
     0
  1
2
  0
DICTIONARYVAR
  5
63
102
{ACAD_REACTORS
330
5E
102
}
330
5E
100
DictionaryVariables
280
     0
  1
1
  0
DICTIONARYVAR
  5
1F2FA
102
{ACAD_REACTORS
330
5E
102
}
330
5E
100
DictionaryVariables
280
     0
  1
1
  0
DICTIONARYVAR
  5
1F2FB
102
{ACAD_REACTORS
330
5E
102
}
330
5E
100
DictionaryVariables
280
     0
  1
15
  0
DICTIONARYVAR
  5
1F2F9
102
{ACAD_REACTORS
330
5E
102
}
330
5E
100
DictionaryVariables
280
     0
  1
0
  0
DICTIONARYVAR
  5
1F2F7
102
{ACAD_REACTORS
330
5E
102
}
330
5E
100
DictionaryVariables
280
     0
  1
0
  0
DICTIONARYVAR
  5
1CF
102
{ACAD_REACTORS
330
5E
102
}
330
5E
100
DictionaryVariables
280
     0
  1

  0
ACAD_PROXY_OBJECT
  5
1EE9B
102
{ACAD_REACTORS
330
1EE9A
102
}
330
1EE9A
100
AcDbProxyObject
 90
      499
 91
      507
 95
    65563
 70
     1
100
vlo_VL
 90
   -64512
 91
       12
 92
        1
 40
2.5
300
(&VLO-R . 0)
  0
DICTIONARY
  5
1F2FE
330
1F2C1
100
AcDbDictionary
280
     1
281
     1
  3
ACAD_ROUNDTRIP_2008_TABLESTYLE_CELLSTYLEMAP
360
1F2FF
  0
DICTIONARY
  5
1F30D
330
1F2B5
100
AcDbDictionary
280
     1
281
     1
  3
ACAD_XREC_ROUNDTRIP
360
1F30E
  0
DICTIONARY
  5
1F311
330
1F2B7
100
AcDbDictionary
280
     1
281
     1
  3
ACAD_XREC_ROUNDTRIP
360
1F312
  0
DICTIONARY
  5
1F30F
330
1F2B6
100
AcDbDictionary
280
     1
281
     1
  3
ACAD_XREC_ROUNDTRIP
360
1F310
  0
DICTIONARY
  5
1F30B
330
1F2B4
100
AcDbDictionary
280
     1
281
     1
  3
ACAD_XREC_ROUNDTRIP
360
1F30C
  0
DICTIONARY
  5
1F319
330
1F2BB
100
AcDbDictionary
280
     1
281
     1
  3
ACAD_XREC_ROUNDTRIP
360
1F31A
  0
DICTIONARY
  5
1F321
330
1F2BF
100
AcDbDictionary
280
     1
281
     1
  3
ACAD_XREC_ROUNDTRIP
360
1F322
  0
DICTIONARY
  5
1F313
330
1F2B8
100
AcDbDictionary
280
     1
281
     1
  3
ACAD_XREC_ROUNDTRIP
360
1F314
  0
DICTIONARY
  5
1F317
330
1F2BA
100
AcDbDictionary
280
     1
281
     1
  3
ACAD_XREC_ROUNDTRIP
360
1F318
  0
DICTIONARY
  5
1F335
330
1F2D5
100
AcDbDictionary
280
     1
281
     1
  3
ACAD_XREC_ROUNDTRIP
360
1F336
  0
DICTIONARY
  5
1F31F
330
1F2BE
100
AcDbDictionary
280
     1
281
     1
  3
ACAD_XREC_ROUNDTRIP
360
1F320
  0
DICTIONARY
  5
1F303
330
1F2B0
100
AcDbDictionary
280
     1
281
     1
  3
ACAD_XREC_ROUNDTRIP
360
1F304
  0
DICTIONARY
  5
1F305
330
1F2B1
100
AcDbDictionary
280
     1
281
     1
  3
ACAD_XREC_ROUNDTRIP
360
1F306
  0
DICTIONARY
  5
1F307
330
1F2B2
100
AcDbDictionary
280
     1
281
     1
  3
ACAD_XREC_ROUNDTRIP
360
1F308
  0
DICTIONARY
  5
1F309
330
1F2B3
100
AcDbDictionary
280
     1
281
     1
  3
ACAD_XREC_ROUNDTRIP
360
1F30A
  0
DICTIONARY
  5
1F325
330
1F2CD
100
AcDbDictionary
280
     1
281
     1
  3
ACAD_XREC_ROUNDTRIP
360
1F326
  0
DICTIONARY
  5
1F331
330
1F2D3
100
AcDbDictionary
280
     1
281
     1
  3
ACAD_XREC_ROUNDTRIP
360
1F332
  0
DICTIONARY
  5
1F31D
330
1F2BD
100
AcDbDictionary
280
     1
281
     1
  3
ACAD_XREC_ROUNDTRIP
360
1F31E
  0
DICTIONARY
  5
1F333
330
1F2D4
100
AcDbDictionary
280
     1
281
     1
  3
ACAD_XREC_ROUNDTRIP
360
1F334
  0
DICTIONARY
  5
1F315
330
1F2B9
100
AcDbDictionary
280
     1
281
     1
  3
ACAD_XREC_ROUNDTRIP
360
1F316
  0
DICTIONARY
  5
1F32F
330
1F2D2
100
AcDbDictionary
280
     1
281
     1
  3
ACAD_XREC_ROUNDTRIP
360
1F330
  0
DICTIONARY
  5
1F32D
330
1F2D1
100
AcDbDictionary
280
     1
281
     1
  3
ACAD_XREC_ROUNDTRIP
360
1F32E
  0
DICTIONARY
  5
1F327
330
1F2CE
100
AcDbDictionary
280
     1
281
     1
  3
ACAD_XREC_ROUNDTRIP
360
1F328
  0
DICTIONARY
  5
1F329
330
1F2CF
100
AcDbDictionary
280
     1
281
     1
  3
ACAD_XREC_ROUNDTRIP
360
1F32A
  0
DICTIONARY
  5
1F31B
330
1F2BC
100
AcDbDictionary
280
     1
281
     1
  3
ACAD_XREC_ROUNDTRIP
360
1F31C
  0
DICTIONARY
  5
1F323
330
1F2CC
100
AcDbDictionary
280
     1
281
     1
  3
ACAD_XREC_ROUNDTRIP
360
1F324
  0
DICTIONARY
  5
1F32B
330
1F2D0
100
AcDbDictionary
280
     1
281
     1
  3
ACAD_XREC_ROUNDTRIP
360
1F32C
  0
CELLSTYLEMAP
  5
1F2FF
102
{ACAD_REACTORS
330
1F2FE
102
}
330
1F2FE
100
AcDbCellStyleMap
 90
        3
300
CELLSTYLE
  1
TABLEFORMAT_BEGIN
 90
        5
170
     1
 91
        0
 92
    32768
 62
   257
 93
        1
300
CONTENTFORMAT
  1
CONTENTFORMAT_BEGIN
 90
        0
 91
        0
 92
      512
 93
        0
300

 40
0.0
140
1.0
 94
        5
 62
     0
340
11
144
6.0
309
CONTENTFORMAT_END
171
     1
301
MARGIN
  1
CELLMARGIN_BEGIN
 40
1.5
 40
1.5
 40
1.5
 40
1.5
 40
0.18
 40
0.18
309
CELLMARGIN_END
 94
        6
 95
        1
302
GRIDFORMAT
  1
GRIDFORMAT_BEGIN
 90
        0
 91
        1
 62
     0
 92
       -2
340
0
 93
        0
 40
0.045
309
GRIDFORMAT_END
 95
        2
302
GRIDFORMAT
  1
GRIDFORMAT_BEGIN
 90
        0
 91
        1
 62
     0
 92
       -2
340
0
 93
        0
 40
0.045
309
GRIDFORMAT_END
 95
        4
302
GRIDFORMAT
  1
GRIDFORMAT_BEGIN
 90
        0
 91
        1
 62
     0
 92
       -2
340
0
 93
        0
 40
0.045
309
GRIDFORMAT_END
 95
        8
302
GRIDFORMAT
  1
GRIDFORMAT_BEGIN
 90
        0
 91
        1
 62
     0
 92
       -2
340
0
 93
        0
 40
0.045
309
GRIDFORMAT_END
 95
       16
302
GRIDFORMAT
  1
GRIDFORMAT_BEGIN
 90
        0
 91
        1
 62
     0
 92
       -2
340
0
 93
        0
 40
0.045
309
GRIDFORMAT_END
 95
       32
302
GRIDFORMAT
  1
GRIDFORMAT_BEGIN
 90
        0
 91
        1
 62
     0
 92
       -2
340
0
 93
        0
 40
0.045
309
GRIDFORMAT_END
309
TABLEFORMAT_END
  1
CELLSTYLE_BEGIN
 90
        1
 91
        1
300
_TITLE
309
CELLSTYLE_END
300
CELLSTYLE
  1
TABLEFORMAT_BEGIN
 90
        5
170
     1
 91
        0
 92
        0
 62
   257
 93
        1
300
CONTENTFORMAT
  1
CONTENTFORMAT_BEGIN
 90
        0
 91
        0
 92
      512
 93
        0
300

 40
0.0
140
1.0
 94
        5
 62
     0
340
11
144
4.5
309
CONTENTFORMAT_END
171
     1
301
MARGIN
  1
CELLMARGIN_BEGIN
 40
1.5
 40
1.5
 40
1.5
 40
1.5
 40
0.18
 40
0.18
309
CELLMARGIN_END
 94
        6
 95
        1
302
GRIDFORMAT
  1
GRIDFORMAT_BEGIN
 90
        0
 91
        1
 62
     0
 92
       -2
340
0
 93
        0
 40
0.045
309
GRIDFORMAT_END
 95
        2
302
GRIDFORMAT
  1
GRIDFORMAT_BEGIN
 90
        0
 91
        1
 62
     0
 92
       -2
340
0
 93
        0
 40
0.045
309
GRIDFORMAT_END
 95
        4
302
GRIDFORMAT
  1
GRIDFORMAT_BEGIN
 90
        0
 91
        1
 62
     0
 92
       -2
340
0
 93
        0
 40
0.045
309
GRIDFORMAT_END
 95
        8
302
GRIDFORMAT
  1
GRIDFORMAT_BEGIN
 90
        0
 91
        1
 62
     0
 92
       -2
340
0
 93
        0
 40
0.045
309
GRIDFORMAT_END
 95
       16
302
GRIDFORMAT
  1
GRIDFORMAT_BEGIN
 90
        0
 91
        1
 62
     0
 92
       -2
340
0
 93
        0
 40
0.045
309
GRIDFORMAT_END
 95
       32
302
GRIDFORMAT
  1
GRIDFORMAT_BEGIN
 90
        0
 91
        1
 62
     0
 92
       -2
340
0
 93
        0
 40
0.045
309
GRIDFORMAT_END
309
TABLEFORMAT_END
  1
CELLSTYLE_BEGIN
 90
        2
 91
        1
300
_HEADER
309
CELLSTYLE_END
300
CELLSTYLE
  1
TABLEFORMAT_BEGIN
 90
        5
170
     1
 91
        0
 92
        0
 62
   257
 93
        1
300
CONTENTFORMAT
  1
CONTENTFORMAT_BEGIN
 90
        0
 91
        0
 92
      512
 93
        0
300

 40
0.0
140
1.0
 94
        2
 62
     0
340
11
144
4.5
309
CONTENTFORMAT_END
171
     1
301
MARGIN
  1
CELLMARGIN_BEGIN
 40
1.5
 40
1.5
 40
1.5
 40
1.5
 40
0.18
 40
0.18
309
CELLMARGIN_END
 94
        6
 95
        1
302
GRIDFORMAT
  1
GRIDFORMAT_BEGIN
 90
        0
 91
        1
 62
     0
 92
       -2
340
0
 93
        0
 40
0.045
309
GRIDFORMAT_END
 95
        2
302
GRIDFORMAT
  1
GRIDFORMAT_BEGIN
 90
        0
 91
        1
 62
     0
 92
       -2
340
0
 93
        0
 40
0.045
309
GRIDFORMAT_END
 95
        4
302
GRIDFORMAT
  1
GRIDFORMAT_BEGIN
 90
        0
 91
        1
 62
     0
 92
       -2
340
0
 93
        0
 40
0.045
309
GRIDFORMAT_END
 95
        8
302
GRIDFORMAT
  1
GRIDFORMAT_BEGIN
 90
        0
 91
        1
 62
     0
 92
       -2
340
0
 93
        0
 40
0.045
309
GRIDFORMAT_END
 95
       16
302
GRIDFORMAT
  1
GRIDFORMAT_BEGIN
 90
        0
 91
        1
 62
     0
 92
       -2
340
0
 93
        0
 40
0.045
309
GRIDFORMAT_END
 95
       32
302
GRIDFORMAT
  1
GRIDFORMAT_BEGIN
 90
        0
 91
        1
 62
     0
 92
       -2
340
0
 93
        0
 40
0.045
309
GRIDFORMAT_END
309
TABLEFORMAT_END
  1
CELLSTYLE_BEGIN
 90
        3
 91
        2
300
_DATA
309
CELLSTYLE_END
  0
XRECORD
  5
1F30E
102
{ACAD_REACTORS
330
1F30D
102
}
330
1F30D
100
AcDbXrecord
280
     1
102
RTVSPost2010Prop28
280
     1
102
RTVSPost2010PropOp28
 70
     1
102
RTVSPost2010Prop29
280
     1
102
RTVSPost2010PropOp29
 70
     1
102
RTVSPost2010Prop30
280
     0
102
RTVSPost2010PropOp30
 70
     1
102
RTVSPost2010Prop31
280
     0
102
RTVSPost2010PropOp31
 70
     1
102
RTVSPost2010Prop32
280
     0
102
RTVSPost2010PropOp32
 70
     1
102
RTVSPost2010Prop33
280
     0
102
RTVSPost2010PropOp33
 70
     1
102
RTVSPost2010Prop34
280
     0
102
RTVSPost2010PropOp34
 70
     1
102
RTVSPost2010Prop35
280
     0
102
RTVSPost2010PropOp35
 70
     1
102
RTVSPost2010Prop36
280
     0
102
RTVSPost2010PropOp36
 70
     1
102
RTVSPost2010Prop37
 90
       50
102
RTVSPost2010PropOp37
 70
     1
102
RTVSPost2010Prop38
140
0.0
102
RTVSPost2010PropOp38
 70
     1
102
RTVSPost2010Prop39
140
1.0
102
RTVSPost2010PropOp39
 70
     1
102
RTVSPost2010Prop40
 90
        0
102
RTVSPost2010PropOp40
 70
     1
102
RTVSPost2010Prop41ColorIndex
 90
       18
102
RTVSPost2010Prop41ColorRGB
 90
        0
102
RTVSPost2010PropOp41
 70
     1
102
RTVSPost2010Prop42
 90
       50
102
RTVSPost2010PropOp42
 70
     1
102
RTVSPost2010Prop43
 90
        3
102
RTVSPost2010PropOp43
 70
     1
102
RTVSPost2010Prop44ColorIndex
 90
        5
102
RTVSPost2010Prop44ColorRGB
 90
      255
102
RTVSPost2010PropOp44
 70
     1
102
RTVSPost2010Prop45
280
     0
102
RTVSPost2010PropOp45
 70
     1
102
RTVSPost2010Prop46
 90
       50
102
RTVSPost2010PropOp46
 70
     1
102
RTVSPost2010Prop47
 90
       50
102
RTVSPost2010PropOp47
 70
     1
102
RTVSPost2010Prop48
 90
       50
102
RTVSPost2010PropOp48
 70
     1
102
RTVSPost2010Prop49
280
     0
102
RTVSPost2010PropOp49
 70
     1
102
RTVSPost2010Prop50
 90
       50
102
RTVSPost2010PropOp50
 70
     1
102
RTVSPost2010Prop51ColorIndex
 90
      256
102
RTVSPost2010Prop51ColorRGB
 90
-16777216
102
RTVSPost2010PropOp51
 70
     0
102
RTVSPost2010Prop52
140
1.0
102
RTVSPost2010PropOp52
 70
     0
102
RTVSPost2010Prop53
 90
        2
102
RTVSPost2010PropOp53
 70
     1
102
RTVSPost2010Prop54
  1
strokes_ogs.tif
102
RTVSPost2010PropOp54
 70
     1
102
RTVSPost2010Prop55
280
     0
102
RTVSPost2010PropOp55
 70
     1
102
RTVSPost2010Prop56
140
1.0
102
RTVSPost2010PropOp56
 70
     1
102
RTVSPost2010Prop57
140
1.0
102
RTVSPost2010PropOp57
 70
     1
  0
XRECORD
  5
1F312
102
{ACAD_REACTORS
330
1F311
102
}
330
1F311
100
AcDbXrecord
280
     1
102
RTVSPost2010Prop28
280
     0
102
RTVSPost2010PropOp28
 70
     1
102
RTVSPost2010Prop29
280
     1
102
RTVSPost2010PropOp29
 70
     1
102
RTVSPost2010Prop30
280
     1
102
RTVSPost2010PropOp30
 70
     1
102
RTVSPost2010Prop31
280
     0
102
RTVSPost2010PropOp31
 70
     1
102
RTVSPost2010Prop32
280
     0
102
RTVSPost2010PropOp32
 70
     1
102
RTVSPost2010Prop33
280
     0
102
RTVSPost2010PropOp33
 70
     1
102
RTVSPost2010Prop34
280
     0
102
RTVSPost2010PropOp34
 70
     1
102
RTVSPost2010Prop35
280
     0
102
RTVSPost2010PropOp35
 70
     1
102
RTVSPost2010Prop36
280
     0
102
RTVSPost2010PropOp36
 70
     1
102
RTVSPost2010Prop37
 90
       50
102
RTVSPost2010PropOp37
 70
     1
102
RTVSPost2010Prop38
140
0.0
102
RTVSPost2010PropOp38
 70
     1
102
RTVSPost2010Prop39
140
1.0
102
RTVSPost2010PropOp39
 70
     1
102
RTVSPost2010Prop40
 90
        0
102
RTVSPost2010PropOp40
 70
     1
102
RTVSPost2010Prop41ColorIndex
 90
       18
102
RTVSPost2010Prop41ColorRGB
 90
        0
102
RTVSPost2010PropOp41
 70
     1
102
RTVSPost2010Prop42
 90
       50
102
RTVSPost2010PropOp42
 70
     1
102
RTVSPost2010Prop43
 90
        3
102
RTVSPost2010PropOp43
 70
     1
102
RTVSPost2010Prop44ColorIndex
 90
        5
102
RTVSPost2010Prop44ColorRGB
 90
      255
102
RTVSPost2010PropOp44
 70
     1
102
RTVSPost2010Prop45
280
     0
102
RTVSPost2010PropOp45
 70
     1
102
RTVSPost2010Prop46
 90
       50
102
RTVSPost2010PropOp46
 70
     1
102
RTVSPost2010Prop47
 90
       50
102
RTVSPost2010PropOp47
 70
     1
102
RTVSPost2010Prop48
 90
       50
102
RTVSPost2010PropOp48
 70
     1
102
RTVSPost2010Prop49
280
     0
102
RTVSPost2010PropOp49
 70
     1
102
RTVSPost2010Prop50
 90
       50
102
RTVSPost2010PropOp50
 70
     1
102
RTVSPost2010Prop51ColorIndex
 90
      256
102
RTVSPost2010Prop51ColorRGB
 90
-16777216
102
RTVSPost2010PropOp51
 70
     0
102
RTVSPost2010Prop52
140
1.0
102
RTVSPost2010PropOp52
 70
     0
102
RTVSPost2010Prop53
 90
        2
102
RTVSPost2010PropOp53
 70
     1
102
RTVSPost2010Prop54
  1
strokes_ogs.tif
102
RTVSPost2010PropOp54
 70
     1
102
RTVSPost2010Prop55
280
     0
102
RTVSPost2010PropOp55
 70
     1
102
RTVSPost2010Prop56
140
1.0
102
RTVSPost2010PropOp56
 70
     1
102
RTVSPost2010Prop57
140
1.0
102
RTVSPost2010PropOp57
 70
     1
  0
XRECORD
  5
1F310
102
{ACAD_REACTORS
330
1F30F
102
}
330
1F30F
100
AcDbXrecord
280
     1
102
RTVSPost2010Prop28
280
     0
102
RTVSPost2010PropOp28
 70
     1
102
RTVSPost2010Prop29
280
     1
102
RTVSPost2010PropOp29
 70
     1
102
RTVSPost2010Prop30
280
     1
102
RTVSPost2010PropOp30
 70
     1
102
RTVSPost2010Prop31
280
     0
102
RTVSPost2010PropOp31
 70
     1
102
RTVSPost2010Prop32
280
     0
102
RTVSPost2010PropOp32
 70
     1
102
RTVSPost2010Prop33
280
     0
102
RTVSPost2010PropOp33
 70
     1
102
RTVSPost2010Prop34
280
     0
102
RTVSPost2010PropOp34
 70
     1
102
RTVSPost2010Prop35
280
     0
102
RTVSPost2010PropOp35
 70
     1
102
RTVSPost2010Prop36
280
     0
102
RTVSPost2010PropOp36
 70
     1
102
RTVSPost2010Prop37
 90
       50
102
RTVSPost2010PropOp37
 70
     1
102
RTVSPost2010Prop38
140
0.0
102
RTVSPost2010PropOp38
 70
     1
102
RTVSPost2010Prop39
140
1.0
102
RTVSPost2010PropOp39
 70
     1
102
RTVSPost2010Prop40
 90
        0
102
RTVSPost2010PropOp40
 70
     1
102
RTVSPost2010Prop41ColorIndex
 90
       18
102
RTVSPost2010Prop41ColorRGB
 90
        0
102
RTVSPost2010PropOp41
 70
     1
102
RTVSPost2010Prop42
 90
       50
102
RTVSPost2010PropOp42
 70
     1
102
RTVSPost2010Prop43
 90
        3
102
RTVSPost2010PropOp43
 70
     1
102
RTVSPost2010Prop44ColorIndex
 90
        5
102
RTVSPost2010Prop44ColorRGB
 90
      255
102
RTVSPost2010PropOp44
 70
     1
102
RTVSPost2010Prop45
280
     0
102
RTVSPost2010PropOp45
 70
     1
102
RTVSPost2010Prop46
 90
       50
102
RTVSPost2010PropOp46
 70
     1
102
RTVSPost2010Prop47
 90
       50
102
RTVSPost2010PropOp47
 70
     1
102
RTVSPost2010Prop48
 90
       50
102
RTVSPost2010PropOp48
 70
     1
102
RTVSPost2010Prop49
280
     0
102
RTVSPost2010PropOp49
 70
     1
102
RTVSPost2010Prop50
 90
       50
102
RTVSPost2010PropOp50
 70
     1
102
RTVSPost2010Prop51ColorIndex
 90
      256
102
RTVSPost2010Prop51ColorRGB
 90
-16777216
102
RTVSPost2010PropOp51
 70
     0
102
RTVSPost2010Prop52
140
1.0
102
RTVSPost2010PropOp52
 70
     0
102
RTVSPost2010Prop53
 90
        2
102
RTVSPost2010PropOp53
 70
     1
102
RTVSPost2010Prop54
  1
strokes_ogs.tif
102
RTVSPost2010PropOp54
 70
     1
102
RTVSPost2010Prop55
280
     0
102
RTVSPost2010PropOp55
 70
     1
102
RTVSPost2010Prop56
140
1.0
102
RTVSPost2010PropOp56
 70
     1
102
RTVSPost2010Prop57
140
1.0
102
RTVSPost2010PropOp57
 70
     1
  0
XRECORD
  5
1F30C
102
{ACAD_REACTORS
330
1F30B
102
}
330
1F30B
100
AcDbXrecord
280
     1
102
RTVSPost2010Prop28
280
     0
102
RTVSPost2010PropOp28
 70
     1
102
RTVSPost2010Prop29
280
     1
102
RTVSPost2010PropOp29
 70
     1
102
RTVSPost2010Prop30
280
     1
102
RTVSPost2010PropOp30
 70
     1
102
RTVSPost2010Prop31
280
     0
102
RTVSPost2010PropOp31
 70
     1
102
RTVSPost2010Prop32
280
     0
102
RTVSPost2010PropOp32
 70
     1
102
RTVSPost2010Prop33
280
     0
102
RTVSPost2010PropOp33
 70
     1
102
RTVSPost2010Prop34
280
     0
102
RTVSPost2010PropOp34
 70
     1
102
RTVSPost2010Prop35
280
     0
102
RTVSPost2010PropOp35
 70
     1
102
RTVSPost2010Prop36
280
     0
102
RTVSPost2010PropOp36
 70
     1
102
RTVSPost2010Prop37
 90
       50
102
RTVSPost2010PropOp37
 70
     1
102
RTVSPost2010Prop38
140
0.0
102
RTVSPost2010PropOp38
 70
     1
102
RTVSPost2010Prop39
140
1.0
102
RTVSPost2010PropOp39
 70
     1
102
RTVSPost2010Prop40
 90
        0
102
RTVSPost2010PropOp40
 70
     1
102
RTVSPost2010Prop41ColorIndex
 90
       18
102
RTVSPost2010Prop41ColorRGB
 90
        0
102
RTVSPost2010PropOp41
 70
     1
102
RTVSPost2010Prop42
 90
       50
102
RTVSPost2010PropOp42
 70
     1
102
RTVSPost2010Prop43
 90
        3
102
RTVSPost2010PropOp43
 70
     1
102
RTVSPost2010Prop44ColorIndex
 90
        5
102
RTVSPost2010Prop44ColorRGB
 90
      255
102
RTVSPost2010PropOp44
 70
     1
102
RTVSPost2010Prop45
280
     0
102
RTVSPost2010PropOp45
 70
     1
102
RTVSPost2010Prop46
 90
       50
102
RTVSPost2010PropOp46
 70
     1
102
RTVSPost2010Prop47
 90
       50
102
RTVSPost2010PropOp47
 70
     1
102
RTVSPost2010Prop48
 90
       50
102
RTVSPost2010PropOp48
 70
     1
102
RTVSPost2010Prop49
280
     0
102
RTVSPost2010PropOp49
 70
     1
102
RTVSPost2010Prop50
 90
       50
102
RTVSPost2010PropOp50
 70
     1
102
RTVSPost2010Prop51ColorIndex
 90
      256
102
RTVSPost2010Prop51ColorRGB
 90
-16777216
102
RTVSPost2010PropOp51
 70
     0
102
RTVSPost2010Prop52
140
1.0
102
RTVSPost2010PropOp52
 70
     0
102
RTVSPost2010Prop53
 90
        2
102
RTVSPost2010PropOp53
 70
     1
102
RTVSPost2010Prop54
  1
strokes_ogs.tif
102
RTVSPost2010PropOp54
 70
     1
102
RTVSPost2010Prop55
280
     0
102
RTVSPost2010PropOp55
 70
     1
102
RTVSPost2010Prop56
140
1.0
102
RTVSPost2010PropOp56
 70
     1
102
RTVSPost2010Prop57
140
1.0
102
RTVSPost2010PropOp57
 70
     1
  0
XRECORD
  5
1F31A
102
{ACAD_REACTORS
330
1F319
102
}
330
1F319
100
AcDbXrecord
280
     1
102
RTVSPost2010Prop28
280
     0
102
RTVSPost2010PropOp28
 70
     1
102
RTVSPost2010Prop29
280
     1
102
RTVSPost2010PropOp29
 70
     1
102
RTVSPost2010Prop30
280
     1
102
RTVSPost2010PropOp30
 70
     1
102
RTVSPost2010Prop31
280
     0
102
RTVSPost2010PropOp31
 70
     1
102
RTVSPost2010Prop32
280
     0
102
RTVSPost2010PropOp32
 70
     1
102
RTVSPost2010Prop33
280
     0
102
RTVSPost2010PropOp33
 70
     1
102
RTVSPost2010Prop34
280
     0
102
RTVSPost2010PropOp34
 70
     1
102
RTVSPost2010Prop35
280
     0
102
RTVSPost2010PropOp35
 70
     1
102
RTVSPost2010Prop36
280
     0
102
RTVSPost2010PropOp36
 70
     1
102
RTVSPost2010Prop37
 90
       50
102
RTVSPost2010PropOp37
 70
     1
102
RTVSPost2010Prop38
140
0.0
102
RTVSPost2010PropOp38
 70
     1
102
RTVSPost2010Prop39
140
1.0
102
RTVSPost2010PropOp39
 70
     1
102
RTVSPost2010Prop40
 90
        0
102
RTVSPost2010PropOp40
 70
     1
102
RTVSPost2010Prop41ColorIndex
 90
       18
102
RTVSPost2010Prop41ColorRGB
 90
        0
102
RTVSPost2010PropOp41
 70
     1
102
RTVSPost2010Prop42
 90
       50
102
RTVSPost2010PropOp42
 70
     1
102
RTVSPost2010Prop43
 90
        3
102
RTVSPost2010PropOp43
 70
     1
102
RTVSPost2010Prop44ColorIndex
 90
        5
102
RTVSPost2010Prop44ColorRGB
 90
      255
102
RTVSPost2010PropOp44
 70
     1
102
RTVSPost2010Prop45
280
     0
102
RTVSPost2010PropOp45
 70
     1
102
RTVSPost2010Prop46
 90
       50
102
RTVSPost2010PropOp46
 70
     1
102
RTVSPost2010Prop47
 90
       50
102
RTVSPost2010PropOp47
 70
     1
102
RTVSPost2010Prop48
 90
       50
102
RTVSPost2010PropOp48
 70
     1
102
RTVSPost2010Prop49
280
     0
102
RTVSPost2010PropOp49
 70
     1
102
RTVSPost2010Prop50
 90
       50
102
RTVSPost2010PropOp50
 70
     1
102
RTVSPost2010Prop51ColorIndex
 90
      256
102
RTVSPost2010Prop51ColorRGB
 90
-16777216
102
RTVSPost2010PropOp51
 70
     0
102
RTVSPost2010Prop52
140
1.0
102
RTVSPost2010PropOp52
 70
     0
102
RTVSPost2010Prop53
 90
        2
102
RTVSPost2010PropOp53
 70
     1
102
RTVSPost2010Prop54
  1
strokes_ogs.tif
102
RTVSPost2010PropOp54
 70
     1
102
RTVSPost2010Prop55
280
     0
102
RTVSPost2010PropOp55
 70
     1
102
RTVSPost2010Prop56
140
1.0
102
RTVSPost2010PropOp56
 70
     1
102
RTVSPost2010Prop57
140
1.0
102
RTVSPost2010PropOp57
 70
     1
  0
XRECORD
  5
1F322
102
{ACAD_REACTORS
330
1F321
102
}
330
1F321
100
AcDbXrecord
280
     1
102
RTVSPost2010Prop28
280
     0
102
RTVSPost2010PropOp28
 70
     1
102
RTVSPost2010Prop29
280
     1
102
RTVSPost2010PropOp29
 70
     1
102
RTVSPost2010Prop30
280
     1
102
RTVSPost2010PropOp30
 70
     1
102
RTVSPost2010Prop31
280
     0
102
RTVSPost2010PropOp31
 70
     1
102
RTVSPost2010Prop32
280
     0
102
RTVSPost2010PropOp32
 70
     1
102
RTVSPost2010Prop33
280
     0
102
RTVSPost2010PropOp33
 70
     1
102
RTVSPost2010Prop34
280
     0
102
RTVSPost2010PropOp34
 70
     1
102
RTVSPost2010Prop35
280
     0
102
RTVSPost2010PropOp35
 70
     1
102
RTVSPost2010Prop36
280
     0
102
RTVSPost2010PropOp36
 70
     1
102
RTVSPost2010Prop37
 90
       50
102
RTVSPost2010PropOp37
 70
     1
102
RTVSPost2010Prop38
140
0.0
102
RTVSPost2010PropOp38
 70
     1
102
RTVSPost2010Prop39
140
1.0
102
RTVSPost2010PropOp39
 70
     1
102
RTVSPost2010Prop40
 90
        0
102
RTVSPost2010PropOp40
 70
     1
102
RTVSPost2010Prop41ColorIndex
 90
       18
102
RTVSPost2010Prop41ColorRGB
 90
        0
102
RTVSPost2010PropOp41
 70
     1
102
RTVSPost2010Prop42
 90
       50
102
RTVSPost2010PropOp42
 70
     1
102
RTVSPost2010Prop43
 90
        3
102
RTVSPost2010PropOp43
 70
     1
102
RTVSPost2010Prop44ColorIndex
 90
        5
102
RTVSPost2010Prop44ColorRGB
 90
      255
102
RTVSPost2010PropOp44
 70
     1
102
RTVSPost2010Prop45
280
     0
102
RTVSPost2010PropOp45
 70
     1
102
RTVSPost2010Prop46
 90
       50
102
RTVSPost2010PropOp46
 70
     1
102
RTVSPost2010Prop47
 90
       50
102
RTVSPost2010PropOp47
 70
     1
102
RTVSPost2010Prop48
 90
       50
102
RTVSPost2010PropOp48
 70
     1
102
RTVSPost2010Prop49
280
     0
102
RTVSPost2010PropOp49
 70
     1
102
RTVSPost2010Prop50
 90
       50
102
RTVSPost2010PropOp50
 70
     1
102
RTVSPost2010Prop51ColorIndex
 90
      256
102
RTVSPost2010Prop51ColorRGB
 90
-16777216
102
RTVSPost2010PropOp51
 70
     0
102
RTVSPost2010Prop52
140
1.0
102
RTVSPost2010PropOp52
 70
     0
102
RTVSPost2010Prop53
 90
        2
102
RTVSPost2010PropOp53
 70
     1
102
RTVSPost2010Prop54
  1
strokes_ogs.tif
102
RTVSPost2010PropOp54
 70
     1
102
RTVSPost2010Prop55
280
     0
102
RTVSPost2010PropOp55
 70
     1
102
RTVSPost2010Prop56
140
1.0
102
RTVSPost2010PropOp56
 70
     1
102
RTVSPost2010Prop57
140
1.0
102
RTVSPost2010PropOp57
 70
     1
  0
XRECORD
  5
1F314
102
{ACAD_REACTORS
330
1F313
102
}
330
1F313
100
AcDbXrecord
280
     1
102
RTVSPost2010Prop28
280
     0
102
RTVSPost2010PropOp28
 70
     1
102
RTVSPost2010Prop29
280
     1
102
RTVSPost2010PropOp29
 70
     1
102
RTVSPost2010Prop30
280
     1
102
RTVSPost2010PropOp30
 70
     1
102
RTVSPost2010Prop31
280
     0
102
RTVSPost2010PropOp31
 70
     1
102
RTVSPost2010Prop32
280
     0
102
RTVSPost2010PropOp32
 70
     1
102
RTVSPost2010Prop33
280
     0
102
RTVSPost2010PropOp33
 70
     1
102
RTVSPost2010Prop34
280
     0
102
RTVSPost2010PropOp34
 70
     1
102
RTVSPost2010Prop35
280
     0
102
RTVSPost2010PropOp35
 70
     1
102
RTVSPost2010Prop36
280
     0
102
RTVSPost2010PropOp36
 70
     1
102
RTVSPost2010Prop37
 90
       50
102
RTVSPost2010PropOp37
 70
     1
102
RTVSPost2010Prop38
140
0.0
102
RTVSPost2010PropOp38
 70
     1
102
RTVSPost2010Prop39
140
1.0
102
RTVSPost2010PropOp39
 70
     1
102
RTVSPost2010Prop40
 90
        0
102
RTVSPost2010PropOp40
 70
     1
102
RTVSPost2010Prop41ColorIndex
 90
       18
102
RTVSPost2010Prop41ColorRGB
 90
        0
102
RTVSPost2010PropOp41
 70
     1
102
RTVSPost2010Prop42
 90
       50
102
RTVSPost2010PropOp42
 70
     1
102
RTVSPost2010Prop43
 90
        3
102
RTVSPost2010PropOp43
 70
     1
102
RTVSPost2010Prop44ColorIndex
 90
        5
102
RTVSPost2010Prop44ColorRGB
 90
      255
102
RTVSPost2010PropOp44
 70
     1
102
RTVSPost2010Prop45
280
     0
102
RTVSPost2010PropOp45
 70
     1
102
RTVSPost2010Prop46
 90
       50
102
RTVSPost2010PropOp46
 70
     1
102
RTVSPost2010Prop47
 90
       50
102
RTVSPost2010PropOp47
 70
     1
102
RTVSPost2010Prop48
 90
       50
102
RTVSPost2010PropOp48
 70
     1
102
RTVSPost2010Prop49
280
     0
102
RTVSPost2010PropOp49
 70
     1
102
RTVSPost2010Prop50
 90
       50
102
RTVSPost2010PropOp50
 70
     1
102
RTVSPost2010Prop51ColorIndex
 90
      256
102
RTVSPost2010Prop51ColorRGB
 90
-16777216
102
RTVSPost2010PropOp51
 70
     0
102
RTVSPost2010Prop52
140
1.0
102
RTVSPost2010PropOp52
 70
     0
102
RTVSPost2010Prop53
 90
        2
102
RTVSPost2010PropOp53
 70
     1
102
RTVSPost2010Prop54
  1
strokes_ogs.tif
102
RTVSPost2010PropOp54
 70
     1
102
RTVSPost2010Prop55
280
     0
102
RTVSPost2010PropOp55
 70
     1
102
RTVSPost2010Prop56
140
1.0
102
RTVSPost2010PropOp56
 70
     1
102
RTVSPost2010Prop57
140
1.0
102
RTVSPost2010PropOp57
 70
     1
  0
XRECORD
  5
1F318
102
{ACAD_REACTORS
330
1F317
102
}
330
1F317
100
AcDbXrecord
280
     1
102
RTVSPost2010Prop28
280
     0
102
RTVSPost2010PropOp28
 70
     1
102
RTVSPost2010Prop29
280
     1
102
RTVSPost2010PropOp29
 70
     1
102
RTVSPost2010Prop30
280
     1
102
RTVSPost2010PropOp30
 70
     1
102
RTVSPost2010Prop31
280
     0
102
RTVSPost2010PropOp31
 70
     1
102
RTVSPost2010Prop32
280
     0
102
RTVSPost2010PropOp32
 70
     1
102
RTVSPost2010Prop33
280
     0
102
RTVSPost2010PropOp33
 70
     1
102
RTVSPost2010Prop34
280
     0
102
RTVSPost2010PropOp34
 70
     1
102
RTVSPost2010Prop35
280
     0
102
RTVSPost2010PropOp35
 70
     1
102
RTVSPost2010Prop36
280
     0
102
RTVSPost2010PropOp36
 70
     1
102
RTVSPost2010Prop37
 90
       50
102
RTVSPost2010PropOp37
 70
     1
102
RTVSPost2010Prop38
140
0.0
102
RTVSPost2010PropOp38
 70
     1
102
RTVSPost2010Prop39
140
1.0
102
RTVSPost2010PropOp39
 70
     1
102
RTVSPost2010Prop40
 90
        0
102
RTVSPost2010PropOp40
 70
     1
102
RTVSPost2010Prop41ColorIndex
 90
       18
102
RTVSPost2010Prop41ColorRGB
 90
        0
102
RTVSPost2010PropOp41
 70
     1
102
RTVSPost2010Prop42
 90
       50
102
RTVSPost2010PropOp42
 70
     1
102
RTVSPost2010Prop43
 90
        3
102
RTVSPost2010PropOp43
 70
     1
102
RTVSPost2010Prop44ColorIndex
 90
        5
102
RTVSPost2010Prop44ColorRGB
 90
      255
102
RTVSPost2010PropOp44
 70
     1
102
RTVSPost2010Prop45
280
     0
102
RTVSPost2010PropOp45
 70
     1
102
RTVSPost2010Prop46
 90
       50
102
RTVSPost2010PropOp46
 70
     1
102
RTVSPost2010Prop47
 90
       50
102
RTVSPost2010PropOp47
 70
     1
102
RTVSPost2010Prop48
 90
       50
102
RTVSPost2010PropOp48
 70
     1
102
RTVSPost2010Prop49
280
     0
102
RTVSPost2010PropOp49
 70
     1
102
RTVSPost2010Prop50
 90
       50
102
RTVSPost2010PropOp50
 70
     1
102
RTVSPost2010Prop51ColorIndex
 90
      256
102
RTVSPost2010Prop51ColorRGB
 90
-16777216
102
RTVSPost2010PropOp51
 70
     0
102
RTVSPost2010Prop52
140
1.0
102
RTVSPost2010PropOp52
 70
     0
102
RTVSPost2010Prop53
 90
        2
102
RTVSPost2010PropOp53
 70
     1
102
RTVSPost2010Prop54
  1
strokes_ogs.tif
102
RTVSPost2010PropOp54
 70
     1
102
RTVSPost2010Prop55
280
     0
102
RTVSPost2010PropOp55
 70
     1
102
RTVSPost2010Prop56
140
1.0
102
RTVSPost2010PropOp56
 70
     1
102
RTVSPost2010Prop57
140
1.0
102
RTVSPost2010PropOp57
 70
     1
  0
XRECORD
  5
1F336
102
{ACAD_REACTORS
330
1F335
102
}
330
1F335
100
AcDbXrecord
280
     1
102
RTVSPost2010Prop28
280
     0
102
RTVSPost2010PropOp28
 70
     1
102
RTVSPost2010Prop29
280
     1
102
RTVSPost2010PropOp29
 70
     1
102
RTVSPost2010Prop30
280
     1
102
RTVSPost2010PropOp30
 70
     1
102
RTVSPost2010Prop31
280
     0
102
RTVSPost2010PropOp31
 70
     1
102
RTVSPost2010Prop32
280
     0
102
RTVSPost2010PropOp32
 70
     1
102
RTVSPost2010Prop33
280
     0
102
RTVSPost2010PropOp33
 70
     1
102
RTVSPost2010Prop34
280
     0
102
RTVSPost2010PropOp34
 70
     1
102
RTVSPost2010Prop35
280
     0
102
RTVSPost2010PropOp35
 70
     1
102
RTVSPost2010Prop36
280
     0
102
RTVSPost2010PropOp36
 70
     1
102
RTVSPost2010Prop37
 90
       50
102
RTVSPost2010PropOp37
 70
     0
102
RTVSPost2010Prop38
140
0.0
102
RTVSPost2010PropOp38
 70
     0
102
RTVSPost2010Prop39
140
1.0
102
RTVSPost2010PropOp39
 70
     0
102
RTVSPost2010Prop40
 90
        0
102
RTVSPost2010PropOp40
 70
     0
102
RTVSPost2010Prop41ColorIndex
 90
       18
102
RTVSPost2010Prop41ColorRGB
 90
        0
102
RTVSPost2010PropOp41
 70
     0
102
RTVSPost2010Prop42
 90
       50
102
RTVSPost2010PropOp42
 70
     0
102
RTVSPost2010Prop43
 90
        3
102
RTVSPost2010PropOp43
 70
     0
102
RTVSPost2010Prop44ColorIndex
 90
        5
102
RTVSPost2010Prop44ColorRGB
 90
      255
102
RTVSPost2010PropOp44
 70
     0
102
RTVSPost2010Prop45
280
     0
102
RTVSPost2010PropOp45
 70
     1
102
RTVSPost2010Prop46
 90
       50
102
RTVSPost2010PropOp46
 70
     0
102
RTVSPost2010Prop47
 90
       50
102
RTVSPost2010PropOp47
 70
     0
102
RTVSPost2010Prop48
 90
       50
102
RTVSPost2010PropOp48
 70
     0
102
RTVSPost2010Prop49
280
     0
102
RTVSPost2010PropOp49
 70
     1
102
RTVSPost2010Prop50
 90
       50
102
RTVSPost2010PropOp50
 70
     0
102
RTVSPost2010Prop51ColorIndex
 90
      256
102
RTVSPost2010Prop51ColorRGB
 90
-16777216
102
RTVSPost2010PropOp51
 70
     0
102
RTVSPost2010Prop52
140
1.0
102
RTVSPost2010PropOp52
 70
     0
102
RTVSPost2010Prop53
 90
        2
102
RTVSPost2010PropOp53
 70
     0
102
RTVSPost2010Prop54
  1
strokes_ogs.tif
102
RTVSPost2010PropOp54
 70
     0
102
RTVSPost2010Prop55
280
     0
102
RTVSPost2010PropOp55
 70
     1
102
RTVSPost2010Prop56
140
1.0
102
RTVSPost2010PropOp56
 70
     0
102
RTVSPost2010Prop57
140
1.0
102
RTVSPost2010PropOp57
 70
     0
  0
XRECORD
  5
1F320
102
{ACAD_REACTORS
330
1F31F
102
}
330
1F31F
100
AcDbXrecord
280
     1
102
RTVSPost2010Prop28
280
     0
102
RTVSPost2010PropOp28
 70
     1
102
RTVSPost2010Prop29
280
     1
102
RTVSPost2010PropOp29
 70
     1
102
RTVSPost2010Prop30
280
     1
102
RTVSPost2010PropOp30
 70
     1
102
RTVSPost2010Prop31
280
     0
102
RTVSPost2010PropOp31
 70
     1
102
RTVSPost2010Prop32
280
     0
102
RTVSPost2010PropOp32
 70
     1
102
RTVSPost2010Prop33
280
     0
102
RTVSPost2010PropOp33
 70
     1
102
RTVSPost2010Prop34
280
     0
102
RTVSPost2010PropOp34
 70
     1
102
RTVSPost2010Prop35
280
     0
102
RTVSPost2010PropOp35
 70
     1
102
RTVSPost2010Prop36
280
     0
102
RTVSPost2010PropOp36
 70
     1
102
RTVSPost2010Prop37
 90
       50
102
RTVSPost2010PropOp37
 70
     1
102
RTVSPost2010Prop38
140
0.0
102
RTVSPost2010PropOp38
 70
     1
102
RTVSPost2010Prop39
140
1.0
102
RTVSPost2010PropOp39
 70
     1
102
RTVSPost2010Prop40
 90
        0
102
RTVSPost2010PropOp40
 70
     1
102
RTVSPost2010Prop41ColorIndex
 90
       18
102
RTVSPost2010Prop41ColorRGB
 90
        0
102
RTVSPost2010PropOp41
 70
     1
102
RTVSPost2010Prop42
 90
       50
102
RTVSPost2010PropOp42
 70
     1
102
RTVSPost2010Prop43
 90
        3
102
RTVSPost2010PropOp43
 70
     1
102
RTVSPost2010Prop44ColorIndex
 90
        5
102
RTVSPost2010Prop44ColorRGB
 90
      255
102
RTVSPost2010PropOp44
 70
     1
102
RTVSPost2010Prop45
280
     0
102
RTVSPost2010PropOp45
 70
     1
102
RTVSPost2010Prop46
 90
       50
102
RTVSPost2010PropOp46
 70
     1
102
RTVSPost2010Prop47
 90
       50
102
RTVSPost2010PropOp47
 70
     1
102
RTVSPost2010Prop48
 90
       50
102
RTVSPost2010PropOp48
 70
     1
102
RTVSPost2010Prop49
280
     0
102
RTVSPost2010PropOp49
 70
     1
102
RTVSPost2010Prop50
 90
       50
102
RTVSPost2010PropOp50
 70
     1
102
RTVSPost2010Prop51ColorIndex
 90
      256
102
RTVSPost2010Prop51ColorRGB
 90
-16777216
102
RTVSPost2010PropOp51
 70
     0
102
RTVSPost2010Prop52
140
1.0
102
RTVSPost2010PropOp52
 70
     0
102
RTVSPost2010Prop53
 90
        2
102
RTVSPost2010PropOp53
 70
     1
102
RTVSPost2010Prop54
  1
strokes_ogs.tif
102
RTVSPost2010PropOp54
 70
     1
102
RTVSPost2010Prop55
280
     0
102
RTVSPost2010PropOp55
 70
     1
102
RTVSPost2010Prop56
140
1.0
102
RTVSPost2010PropOp56
 70
     1
102
RTVSPost2010Prop57
140
1.0
102
RTVSPost2010PropOp57
 70
     1
  0
XRECORD
  5
1F304
102
{ACAD_REACTORS
330
1F303
102
}
330
1F303
100
AcDbXrecord
280
     1
102
RTVSPost2010Prop28
280
     0
102
RTVSPost2010PropOp28
 70
     1
102
RTVSPost2010Prop29
280
     1
102
RTVSPost2010PropOp29
 70
     1
102
RTVSPost2010Prop30
280
     1
102
RTVSPost2010PropOp30
 70
     1
102
RTVSPost2010Prop31
280
     0
102
RTVSPost2010PropOp31
 70
     1
102
RTVSPost2010Prop32
280
     0
102
RTVSPost2010PropOp32
 70
     1
102
RTVSPost2010Prop33
280
     0
102
RTVSPost2010PropOp33
 70
     1
102
RTVSPost2010Prop34
280
     0
102
RTVSPost2010PropOp34
 70
     1
102
RTVSPost2010Prop35
280
     0
102
RTVSPost2010PropOp35
 70
     1
102
RTVSPost2010Prop36
280
     0
102
RTVSPost2010PropOp36
 70
     1
102
RTVSPost2010Prop37
 90
       50
102
RTVSPost2010PropOp37
 70
     1
102
RTVSPost2010Prop38
140
0.0
102
RTVSPost2010PropOp38
 70
     1
102
RTVSPost2010Prop39
140
1.0
102
RTVSPost2010PropOp39
 70
     1
102
RTVSPost2010Prop40
 90
        0
102
RTVSPost2010PropOp40
 70
     1
102
RTVSPost2010Prop41ColorIndex
 90
       18
102
RTVSPost2010Prop41ColorRGB
 90
        0
102
RTVSPost2010PropOp41
 70
     1
102
RTVSPost2010Prop42
 90
       50
102
RTVSPost2010PropOp42
 70
     1
102
RTVSPost2010Prop43
 90
        3
102
RTVSPost2010PropOp43
 70
     1
102
RTVSPost2010Prop44ColorIndex
 90
        5
102
RTVSPost2010Prop44ColorRGB
 90
      255
102
RTVSPost2010PropOp44
 70
     1
102
RTVSPost2010Prop45
280
     0
102
RTVSPost2010PropOp45
 70
     1
102
RTVSPost2010Prop46
 90
       50
102
RTVSPost2010PropOp46
 70
     1
102
RTVSPost2010Prop47
 90
       50
102
RTVSPost2010PropOp47
 70
     1
102
RTVSPost2010Prop48
 90
       50
102
RTVSPost2010PropOp48
 70
     1
102
RTVSPost2010Prop49
280
     0
102
RTVSPost2010PropOp49
 70
     1
102
RTVSPost2010Prop50
 90
       50
102
RTVSPost2010PropOp50
 70
     1
102
RTVSPost2010Prop51ColorIndex
 90
      256
102
RTVSPost2010Prop51ColorRGB
 90
-16777216
102
RTVSPost2010PropOp51
 70
     0
102
RTVSPost2010Prop52
140
1.0
102
RTVSPost2010PropOp52
 70
     0
102
RTVSPost2010Prop53
 90
        2
102
RTVSPost2010PropOp53
 70
     1
102
RTVSPost2010Prop54
  1
strokes_ogs.tif
102
RTVSPost2010PropOp54
 70
     1
102
RTVSPost2010Prop55
280
     0
102
RTVSPost2010PropOp55
 70
     1
102
RTVSPost2010Prop56
140
1.0
102
RTVSPost2010PropOp56
 70
     1
102
RTVSPost2010Prop57
140
1.0
102
RTVSPost2010PropOp57
 70
     1
  0
XRECORD
  5
1F306
102
{ACAD_REACTORS
330
1F305
102
}
330
1F305
100
AcDbXrecord
280
     1
102
RTVSPost2010Prop28
280
     0
102
RTVSPost2010PropOp28
 70
     1
102
RTVSPost2010Prop29
280
     1
102
RTVSPost2010PropOp29
 70
     1
102
RTVSPost2010Prop30
280
     1
102
RTVSPost2010PropOp30
 70
     1
102
RTVSPost2010Prop31
280
     0
102
RTVSPost2010PropOp31
 70
     1
102
RTVSPost2010Prop32
280
     0
102
RTVSPost2010PropOp32
 70
     1
102
RTVSPost2010Prop33
280
     0
102
RTVSPost2010PropOp33
 70
     1
102
RTVSPost2010Prop34
280
     0
102
RTVSPost2010PropOp34
 70
     1
102
RTVSPost2010Prop35
280
     0
102
RTVSPost2010PropOp35
 70
     1
102
RTVSPost2010Prop36
280
     0
102
RTVSPost2010PropOp36
 70
     1
102
RTVSPost2010Prop37
 90
       50
102
RTVSPost2010PropOp37
 70
     1
102
RTVSPost2010Prop38
140
0.0
102
RTVSPost2010PropOp38
 70
     1
102
RTVSPost2010Prop39
140
1.0
102
RTVSPost2010PropOp39
 70
     1
102
RTVSPost2010Prop40
 90
        0
102
RTVSPost2010PropOp40
 70
     1
102
RTVSPost2010Prop41ColorIndex
 90
       18
102
RTVSPost2010Prop41ColorRGB
 90
        0
102
RTVSPost2010PropOp41
 70
     1
102
RTVSPost2010Prop42
 90
       50
102
RTVSPost2010PropOp42
 70
     1
102
RTVSPost2010Prop43
 90
        3
102
RTVSPost2010PropOp43
 70
     1
102
RTVSPost2010Prop44ColorIndex
 90
        5
102
RTVSPost2010Prop44ColorRGB
 90
      255
102
RTVSPost2010PropOp44
 70
     1
102
RTVSPost2010Prop45
280
     0
102
RTVSPost2010PropOp45
 70
     1
102
RTVSPost2010Prop46
 90
       50
102
RTVSPost2010PropOp46
 70
     1
102
RTVSPost2010Prop47
 90
       50
102
RTVSPost2010PropOp47
 70
     1
102
RTVSPost2010Prop48
 90
       50
102
RTVSPost2010PropOp48
 70
     1
102
RTVSPost2010Prop49
280
     0
102
RTVSPost2010PropOp49
 70
     1
102
RTVSPost2010Prop50
 90
       50
102
RTVSPost2010PropOp50
 70
     1
102
RTVSPost2010Prop51ColorIndex
 90
      256
102
RTVSPost2010Prop51ColorRGB
 90
-16777216
102
RTVSPost2010PropOp51
 70
     0
102
RTVSPost2010Prop52
140
1.0
102
RTVSPost2010PropOp52
 70
     0
102
RTVSPost2010Prop53
 90
        2
102
RTVSPost2010PropOp53
 70
     1
102
RTVSPost2010Prop54
  1
strokes_ogs.tif
102
RTVSPost2010PropOp54
 70
     1
102
RTVSPost2010Prop55
280
     0
102
RTVSPost2010PropOp55
 70
     1
102
RTVSPost2010Prop56
140
1.0
102
RTVSPost2010PropOp56
 70
     1
102
RTVSPost2010Prop57
140
1.0
102
RTVSPost2010PropOp57
 70
     1
  0
XRECORD
  5
1F308
102
{ACAD_REACTORS
330
1F307
102
}
330
1F307
100
AcDbXrecord
280
     1
102
RTVSPost2010Prop28
280
     0
102
RTVSPost2010PropOp28
 70
     1
102
RTVSPost2010Prop29
280
     1
102
RTVSPost2010PropOp29
 70
     1
102
RTVSPost2010Prop30
280
     1
102
RTVSPost2010PropOp30
 70
     1
102
RTVSPost2010Prop31
280
     0
102
RTVSPost2010PropOp31
 70
     1
102
RTVSPost2010Prop32
280
     0
102
RTVSPost2010PropOp32
 70
     1
102
RTVSPost2010Prop33
280
     0
102
RTVSPost2010PropOp33
 70
     1
102
RTVSPost2010Prop34
280
     0
102
RTVSPost2010PropOp34
 70
     1
102
RTVSPost2010Prop35
280
     0
102
RTVSPost2010PropOp35
 70
     1
102
RTVSPost2010Prop36
280
     0
102
RTVSPost2010PropOp36
 70
     1
102
RTVSPost2010Prop37
 90
       50
102
RTVSPost2010PropOp37
 70
     1
102
RTVSPost2010Prop38
140
0.0
102
RTVSPost2010PropOp38
 70
     1
102
RTVSPost2010Prop39
140
1.0
102
RTVSPost2010PropOp39
 70
     1
102
RTVSPost2010Prop40
 90
        0
102
RTVSPost2010PropOp40
 70
     1
102
RTVSPost2010Prop41ColorIndex
 90
       18
102
RTVSPost2010Prop41ColorRGB
 90
        0
102
RTVSPost2010PropOp41
 70
     1
102
RTVSPost2010Prop42
 90
       50
102
RTVSPost2010PropOp42
 70
     1
102
RTVSPost2010Prop43
 90
        3
102
RTVSPost2010PropOp43
 70
     1
102
RTVSPost2010Prop44ColorIndex
 90
        5
102
RTVSPost2010Prop44ColorRGB
 90
      255
102
RTVSPost2010PropOp44
 70
     1
102
RTVSPost2010Prop45
280
     0
102
RTVSPost2010PropOp45
 70
     1
102
RTVSPost2010Prop46
 90
       50
102
RTVSPost2010PropOp46
 70
     1
102
RTVSPost2010Prop47
 90
       50
102
RTVSPost2010PropOp47
 70
     1
102
RTVSPost2010Prop48
 90
       50
102
RTVSPost2010PropOp48
 70
     1
102
RTVSPost2010Prop49
280
     0
102
RTVSPost2010PropOp49
 70
     1
102
RTVSPost2010Prop50
 90
       50
102
RTVSPost2010PropOp50
 70
     1
102
RTVSPost2010Prop51ColorIndex
 90
      256
102
RTVSPost2010Prop51ColorRGB
 90
-16777216
102
RTVSPost2010PropOp51
 70
     0
102
RTVSPost2010Prop52
140
1.0
102
RTVSPost2010PropOp52
 70
     0
102
RTVSPost2010Prop53
 90
        2
102
RTVSPost2010PropOp53
 70
     1
102
RTVSPost2010Prop54
  1
strokes_ogs.tif
102
RTVSPost2010PropOp54
 70
     1
102
RTVSPost2010Prop55
280
     0
102
RTVSPost2010PropOp55
 70
     1
102
RTVSPost2010Prop56
140
1.0
102
RTVSPost2010PropOp56
 70
     1
102
RTVSPost2010Prop57
140
1.0
102
RTVSPost2010PropOp57
 70
     1
  0
XRECORD
  5
1F30A
102
{ACAD_REACTORS
330
1F309
102
}
330
1F309
100
AcDbXrecord
280
     1
102
RTVSPost2010Prop28
280
     0
102
RTVSPost2010PropOp28
 70
     1
102
RTVSPost2010Prop29
280
     1
102
RTVSPost2010PropOp29
 70
     1
102
RTVSPost2010Prop30
280
     1
102
RTVSPost2010PropOp30
 70
     1
102
RTVSPost2010Prop31
280
     0
102
RTVSPost2010PropOp31
 70
     1
102
RTVSPost2010Prop32
280
     0
102
RTVSPost2010PropOp32
 70
     1
102
RTVSPost2010Prop33
280
     0
102
RTVSPost2010PropOp33
 70
     1
102
RTVSPost2010Prop34
280
     0
102
RTVSPost2010PropOp34
 70
     1
102
RTVSPost2010Prop35
280
     0
102
RTVSPost2010PropOp35
 70
     1
102
RTVSPost2010Prop36
280
     0
102
RTVSPost2010PropOp36
 70
     1
102
RTVSPost2010Prop37
 90
       50
102
RTVSPost2010PropOp37
 70
     1
102
RTVSPost2010Prop38
140
0.0
102
RTVSPost2010PropOp38
 70
     1
102
RTVSPost2010Prop39
140
1.0
102
RTVSPost2010PropOp39
 70
     1
102
RTVSPost2010Prop40
 90
        0
102
RTVSPost2010PropOp40
 70
     1
102
RTVSPost2010Prop41ColorIndex
 90
       18
102
RTVSPost2010Prop41ColorRGB
 90
        0
102
RTVSPost2010PropOp41
 70
     1
102
RTVSPost2010Prop42
 90
       50
102
RTVSPost2010PropOp42
 70
     1
102
RTVSPost2010Prop43
 90
        3
102
RTVSPost2010PropOp43
 70
     1
102
RTVSPost2010Prop44ColorIndex
 90
        5
102
RTVSPost2010Prop44ColorRGB
 90
      255
102
RTVSPost2010PropOp44
 70
     1
102
RTVSPost2010Prop45
280
     0
102
RTVSPost2010PropOp45
 70
     1
102
RTVSPost2010Prop46
 90
       50
102
RTVSPost2010PropOp46
 70
     1
102
RTVSPost2010Prop47
 90
       50
102
RTVSPost2010PropOp47
 70
     1
102
RTVSPost2010Prop48
 90
       50
102
RTVSPost2010PropOp48
 70
     1
102
RTVSPost2010Prop49
280
     0
102
RTVSPost2010PropOp49
 70
     1
102
RTVSPost2010Prop50
 90
       50
102
RTVSPost2010PropOp50
 70
     1
102
RTVSPost2010Prop51ColorIndex
 90
      256
102
RTVSPost2010Prop51ColorRGB
 90
-16777216
102
RTVSPost2010PropOp51
 70
     0
102
RTVSPost2010Prop52
140
1.0
102
RTVSPost2010PropOp52
 70
     0
102
RTVSPost2010Prop53
 90
        2
102
RTVSPost2010PropOp53
 70
     1
102
RTVSPost2010Prop54
  1
strokes_ogs.tif
102
RTVSPost2010PropOp54
 70
     1
102
RTVSPost2010Prop55
280
     0
102
RTVSPost2010PropOp55
 70
     1
102
RTVSPost2010Prop56
140
1.0
102
RTVSPost2010PropOp56
 70
     1
102
RTVSPost2010Prop57
140
1.0
102
RTVSPost2010PropOp57
 70
     1
  0
XRECORD
  5
1F326
102
{ACAD_REACTORS
330
1F325
102
}
330
1F325
100
AcDbXrecord
280
     1
102
RTVSPost2010Prop28
280
     0
102
RTVSPost2010PropOp28
 70
     1
102
RTVSPost2010Prop29
280
     1
102
RTVSPost2010PropOp29
 70
     1
102
RTVSPost2010Prop30
280
     1
102
RTVSPost2010PropOp30
 70
     1
102
RTVSPost2010Prop31
280
     0
102
RTVSPost2010PropOp31
 70
     1
102
RTVSPost2010Prop32
280
     0
102
RTVSPost2010PropOp32
 70
     1
102
RTVSPost2010Prop33
280
     0
102
RTVSPost2010PropOp33
 70
     1
102
RTVSPost2010Prop34
280
     0
102
RTVSPost2010PropOp34
 70
     1
102
RTVSPost2010Prop35
280
     0
102
RTVSPost2010PropOp35
 70
     1
102
RTVSPost2010Prop36
280
     0
102
RTVSPost2010PropOp36
 70
     1
102
RTVSPost2010Prop37
 90
       50
102
RTVSPost2010PropOp37
 70
     1
102
RTVSPost2010Prop38
140
0.0
102
RTVSPost2010PropOp38
 70
     1
102
RTVSPost2010Prop39
140
1.0
102
RTVSPost2010PropOp39
 70
     1
102
RTVSPost2010Prop40
 90
        0
102
RTVSPost2010PropOp40
 70
     1
102
RTVSPost2010Prop41ColorIndex
 90
       18
102
RTVSPost2010Prop41ColorRGB
 90
        0
102
RTVSPost2010PropOp41
 70
     1
102
RTVSPost2010Prop42
 90
       50
102
RTVSPost2010PropOp42
 70
     1
102
RTVSPost2010Prop43
 90
        3
102
RTVSPost2010PropOp43
 70
     1
102
RTVSPost2010Prop44ColorIndex
 90
        5
102
RTVSPost2010Prop44ColorRGB
 90
      255
102
RTVSPost2010PropOp44
 70
     1
102
RTVSPost2010Prop45
280
     0
102
RTVSPost2010PropOp45
 70
     1
102
RTVSPost2010Prop46
 90
       50
102
RTVSPost2010PropOp46
 70
     1
102
RTVSPost2010Prop47
 90
       50
102
RTVSPost2010PropOp47
 70
     1
102
RTVSPost2010Prop48
 90
       50
102
RTVSPost2010PropOp48
 70
     1
102
RTVSPost2010Prop49
280
     0
102
RTVSPost2010PropOp49
 70
     1
102
RTVSPost2010Prop50
 90
       50
102
RTVSPost2010PropOp50
 70
     1
102
RTVSPost2010Prop51ColorIndex
 90
      256
102
RTVSPost2010Prop51ColorRGB
 90
-16777216
102
RTVSPost2010PropOp51
 70
     0
102
RTVSPost2010Prop52
140
1.0
102
RTVSPost2010PropOp52
 70
     0
102
RTVSPost2010Prop53
 90
        2
102
RTVSPost2010PropOp53
 70
     1
102
RTVSPost2010Prop54
  1
strokes_ogs.tif
102
RTVSPost2010PropOp54
 70
     1
102
RTVSPost2010Prop55
280
     0
102
RTVSPost2010PropOp55
 70
     1
102
RTVSPost2010Prop56
140
1.0
102
RTVSPost2010PropOp56
 70
     1
102
RTVSPost2010Prop57
140
1.0
102
RTVSPost2010PropOp57
 70
     1
  0
XRECORD
  5
1F332
102
{ACAD_REACTORS
330
1F331
102
}
330
1F331
100
AcDbXrecord
280
     1
102
RTVSPost2010Prop28
280
     0
102
RTVSPost2010PropOp28
 70
     1
102
RTVSPost2010Prop29
280
     1
102
RTVSPost2010PropOp29
 70
     1
102
RTVSPost2010Prop30
280
     1
102
RTVSPost2010PropOp30
 70
     1
102
RTVSPost2010Prop31
280
     0
102
RTVSPost2010PropOp31
 70
     1
102
RTVSPost2010Prop32
280
     0
102
RTVSPost2010PropOp32
 70
     1
102
RTVSPost2010Prop33
280
     0
102
RTVSPost2010PropOp33
 70
     1
102
RTVSPost2010Prop34
280
     0
102
RTVSPost2010PropOp34
 70
     1
102
RTVSPost2010Prop35
280
     0
102
RTVSPost2010PropOp35
 70
     1
102
RTVSPost2010Prop36
280
     0
102
RTVSPost2010PropOp36
 70
     1
102
RTVSPost2010Prop37
 90
       50
102
RTVSPost2010PropOp37
 70
     0
102
RTVSPost2010Prop38
140
0.0
102
RTVSPost2010PropOp38
 70
     0
102
RTVSPost2010Prop39
140
1.0
102
RTVSPost2010PropOp39
 70
     0
102
RTVSPost2010Prop40
 90
        0
102
RTVSPost2010PropOp40
 70
     0
102
RTVSPost2010Prop41ColorIndex
 90
       18
102
RTVSPost2010Prop41ColorRGB
 90
        0
102
RTVSPost2010PropOp41
 70
     0
102
RTVSPost2010Prop42
 90
       50
102
RTVSPost2010PropOp42
 70
     0
102
RTVSPost2010Prop43
 90
        3
102
RTVSPost2010PropOp43
 70
     0
102
RTVSPost2010Prop44ColorIndex
 90
        5
102
RTVSPost2010Prop44ColorRGB
 90
      255
102
RTVSPost2010PropOp44
 70
     0
102
RTVSPost2010Prop45
280
     0
102
RTVSPost2010PropOp45
 70
     1
102
RTVSPost2010Prop46
 90
       50
102
RTVSPost2010PropOp46
 70
     0
102
RTVSPost2010Prop47
 90
       50
102
RTVSPost2010PropOp47
 70
     0
102
RTVSPost2010Prop48
 90
       50
102
RTVSPost2010PropOp48
 70
     0
102
RTVSPost2010Prop49
280
     0
102
RTVSPost2010PropOp49
 70
     1
102
RTVSPost2010Prop50
 90
       50
102
RTVSPost2010PropOp50
 70
     0
102
RTVSPost2010Prop51ColorIndex
 90
      256
102
RTVSPost2010Prop51ColorRGB
 90
-16777216
102
RTVSPost2010PropOp51
 70
     0
102
RTVSPost2010Prop52
140
1.0
102
RTVSPost2010PropOp52
 70
     0
102
RTVSPost2010Prop53
 90
        2
102
RTVSPost2010PropOp53
 70
     0
102
RTVSPost2010Prop54
  1
strokes_ogs.tif
102
RTVSPost2010PropOp54
 70
     0
102
RTVSPost2010Prop55
280
     0
102
RTVSPost2010PropOp55
 70
     1
102
RTVSPost2010Prop56
140
1.0
102
RTVSPost2010PropOp56
 70
     0
102
RTVSPost2010Prop57
140
1.0
102
RTVSPost2010PropOp57
 70
     0
  0
XRECORD
  5
1F31E
102
{ACAD_REACTORS
330
1F31D
102
}
330
1F31D
100
AcDbXrecord
280
     1
102
RTVSPost2010Prop28
280
     0
102
RTVSPost2010PropOp28
 70
     1
102
RTVSPost2010Prop29
280
     1
102
RTVSPost2010PropOp29
 70
     1
102
RTVSPost2010Prop30
280
     1
102
RTVSPost2010PropOp30
 70
     1
102
RTVSPost2010Prop31
280
     0
102
RTVSPost2010PropOp31
 70
     1
102
RTVSPost2010Prop32
280
     0
102
RTVSPost2010PropOp32
 70
     1
102
RTVSPost2010Prop33
280
     0
102
RTVSPost2010PropOp33
 70
     1
102
RTVSPost2010Prop34
280
     0
102
RTVSPost2010PropOp34
 70
     1
102
RTVSPost2010Prop35
280
     0
102
RTVSPost2010PropOp35
 70
     1
102
RTVSPost2010Prop36
280
     0
102
RTVSPost2010PropOp36
 70
     1
102
RTVSPost2010Prop37
 90
       50
102
RTVSPost2010PropOp37
 70
     1
102
RTVSPost2010Prop38
140
0.0
102
RTVSPost2010PropOp38
 70
     1
102
RTVSPost2010Prop39
140
1.0
102
RTVSPost2010PropOp39
 70
     1
102
RTVSPost2010Prop40
 90
        0
102
RTVSPost2010PropOp40
 70
     1
102
RTVSPost2010Prop41ColorIndex
 90
       18
102
RTVSPost2010Prop41ColorRGB
 90
        0
102
RTVSPost2010PropOp41
 70
     1
102
RTVSPost2010Prop42
 90
       50
102
RTVSPost2010PropOp42
 70
     1
102
RTVSPost2010Prop43
 90
        3
102
RTVSPost2010PropOp43
 70
     1
102
RTVSPost2010Prop44ColorIndex
 90
        5
102
RTVSPost2010Prop44ColorRGB
 90
      255
102
RTVSPost2010PropOp44
 70
     1
102
RTVSPost2010Prop45
280
     0
102
RTVSPost2010PropOp45
 70
     1
102
RTVSPost2010Prop46
 90
       50
102
RTVSPost2010PropOp46
 70
     1
102
RTVSPost2010Prop47
 90
       50
102
RTVSPost2010PropOp47
 70
     1
102
RTVSPost2010Prop48
 90
       50
102
RTVSPost2010PropOp48
 70
     1
102
RTVSPost2010Prop49
280
     0
102
RTVSPost2010PropOp49
 70
     1
102
RTVSPost2010Prop50
 90
       50
102
RTVSPost2010PropOp50
 70
     1
102
RTVSPost2010Prop51ColorIndex
 90
      256
102
RTVSPost2010Prop51ColorRGB
 90
-16777216
102
RTVSPost2010PropOp51
 70
     0
102
RTVSPost2010Prop52
140
1.0
102
RTVSPost2010PropOp52
 70
     0
102
RTVSPost2010Prop53
 90
        2
102
RTVSPost2010PropOp53
 70
     1
102
RTVSPost2010Prop54
  1
strokes_ogs.tif
102
RTVSPost2010PropOp54
 70
     1
102
RTVSPost2010Prop55
280
     0
102
RTVSPost2010PropOp55
 70
     1
102
RTVSPost2010Prop56
140
1.0
102
RTVSPost2010PropOp56
 70
     1
102
RTVSPost2010Prop57
140
1.0
102
RTVSPost2010PropOp57
 70
     1
  0
XRECORD
  5
1F334
102
{ACAD_REACTORS
330
1F333
102
}
330
1F333
100
AcDbXrecord
280
     1
102
RTVSPost2010Prop28
280
     0
102
RTVSPost2010PropOp28
 70
     1
102
RTVSPost2010Prop29
280
     1
102
RTVSPost2010PropOp29
 70
     1
102
RTVSPost2010Prop30
280
     1
102
RTVSPost2010PropOp30
 70
     1
102
RTVSPost2010Prop31
280
     0
102
RTVSPost2010PropOp31
 70
     1
102
RTVSPost2010Prop32
280
     0
102
RTVSPost2010PropOp32
 70
     1
102
RTVSPost2010Prop33
280
     0
102
RTVSPost2010PropOp33
 70
     1
102
RTVSPost2010Prop34
280
     0
102
RTVSPost2010PropOp34
 70
     1
102
RTVSPost2010Prop35
280
     0
102
RTVSPost2010PropOp35
 70
     1
102
RTVSPost2010Prop36
280
     0
102
RTVSPost2010PropOp36
 70
     1
102
RTVSPost2010Prop37
 90
       50
102
RTVSPost2010PropOp37
 70
     0
102
RTVSPost2010Prop38
140
0.0
102
RTVSPost2010PropOp38
 70
     0
102
RTVSPost2010Prop39
140
1.0
102
RTVSPost2010PropOp39
 70
     0
102
RTVSPost2010Prop40
 90
        0
102
RTVSPost2010PropOp40
 70
     0
102
RTVSPost2010Prop41ColorIndex
 90
       18
102
RTVSPost2010Prop41ColorRGB
 90
        0
102
RTVSPost2010PropOp41
 70
     0
102
RTVSPost2010Prop42
 90
       50
102
RTVSPost2010PropOp42
 70
     0
102
RTVSPost2010Prop43
 90
        3
102
RTVSPost2010PropOp43
 70
     0
102
RTVSPost2010Prop44ColorIndex
 90
        5
102
RTVSPost2010Prop44ColorRGB
 90
      255
102
RTVSPost2010PropOp44
 70
     0
102
RTVSPost2010Prop45
280
     0
102
RTVSPost2010PropOp45
 70
     1
102
RTVSPost2010Prop46
 90
       50
102
RTVSPost2010PropOp46
 70
     0
102
RTVSPost2010Prop47
 90
       50
102
RTVSPost2010PropOp47
 70
     0
102
RTVSPost2010Prop48
 90
       50
102
RTVSPost2010PropOp48
 70
     0
102
RTVSPost2010Prop49
280
     0
102
RTVSPost2010PropOp49
 70
     1
102
RTVSPost2010Prop50
 90
       50
102
RTVSPost2010PropOp50
 70
     0
102
RTVSPost2010Prop51ColorIndex
 90
      256
102
RTVSPost2010Prop51ColorRGB
 90
-16777216
102
RTVSPost2010PropOp51
 70
     0
102
RTVSPost2010Prop52
140
1.0
102
RTVSPost2010PropOp52
 70
     0
102
RTVSPost2010Prop53
 90
        2
102
RTVSPost2010PropOp53
 70
     0
102
RTVSPost2010Prop54
  1
strokes_ogs.tif
102
RTVSPost2010PropOp54
 70
     0
102
RTVSPost2010Prop55
280
     0
102
RTVSPost2010PropOp55
 70
     1
102
RTVSPost2010Prop56
140
1.0
102
RTVSPost2010PropOp56
 70
     0
102
RTVSPost2010Prop57
140
1.0
102
RTVSPost2010PropOp57
 70
     0
  0
XRECORD
  5
1F316
102
{ACAD_REACTORS
330
1F315
102
}
330
1F315
100
AcDbXrecord
280
     1
102
RTVSPost2010Prop28
280
     0
102
RTVSPost2010PropOp28
 70
     1
102
RTVSPost2010Prop29
280
     1
102
RTVSPost2010PropOp29
 70
     1
102
RTVSPost2010Prop30
280
     1
102
RTVSPost2010PropOp30
 70
     1
102
RTVSPost2010Prop31
280
     0
102
RTVSPost2010PropOp31
 70
     1
102
RTVSPost2010Prop32
280
     0
102
RTVSPost2010PropOp32
 70
     1
102
RTVSPost2010Prop33
280
     0
102
RTVSPost2010PropOp33
 70
     1
102
RTVSPost2010Prop34
280
     0
102
RTVSPost2010PropOp34
 70
     1
102
RTVSPost2010Prop35
280
     0
102
RTVSPost2010PropOp35
 70
     1
102
RTVSPost2010Prop36
280
     0
102
RTVSPost2010PropOp36
 70
     1
102
RTVSPost2010Prop37
 90
       50
102
RTVSPost2010PropOp37
 70
     1
102
RTVSPost2010Prop38
140
0.0
102
RTVSPost2010PropOp38
 70
     1
102
RTVSPost2010Prop39
140
1.0
102
RTVSPost2010PropOp39
 70
     1
102
RTVSPost2010Prop40
 90
        0
102
RTVSPost2010PropOp40
 70
     1
102
RTVSPost2010Prop41ColorIndex
 90
       18
102
RTVSPost2010Prop41ColorRGB
 90
        0
102
RTVSPost2010PropOp41
 70
     1
102
RTVSPost2010Prop42
 90
       50
102
RTVSPost2010PropOp42
 70
     1
102
RTVSPost2010Prop43
 90
        3
102
RTVSPost2010PropOp43
 70
     1
102
RTVSPost2010Prop44ColorIndex
 90
        5
102
RTVSPost2010Prop44ColorRGB
 90
      255
102
RTVSPost2010PropOp44
 70
     1
102
RTVSPost2010Prop45
280
     0
102
RTVSPost2010PropOp45
 70
     1
102
RTVSPost2010Prop46
 90
       50
102
RTVSPost2010PropOp46
 70
     1
102
RTVSPost2010Prop47
 90
       50
102
RTVSPost2010PropOp47
 70
     1
102
RTVSPost2010Prop48
 90
       50
102
RTVSPost2010PropOp48
 70
     1
102
RTVSPost2010Prop49
280
     0
102
RTVSPost2010PropOp49
 70
     1
102
RTVSPost2010Prop50
 90
       50
102
RTVSPost2010PropOp50
 70
     1
102
RTVSPost2010Prop51ColorIndex
 90
      256
102
RTVSPost2010Prop51ColorRGB
 90
-16777216
102
RTVSPost2010PropOp51
 70
     0
102
RTVSPost2010Prop52
140
1.0
102
RTVSPost2010PropOp52
 70
     0
102
RTVSPost2010Prop53
 90
        2
102
RTVSPost2010PropOp53
 70
     1
102
RTVSPost2010Prop54
  1
strokes_ogs.tif
102
RTVSPost2010PropOp54
 70
     1
102
RTVSPost2010Prop55
280
     0
102
RTVSPost2010PropOp55
 70
     1
102
RTVSPost2010Prop56
140
1.0
102
RTVSPost2010PropOp56
 70
     1
102
RTVSPost2010Prop57
140
1.0
102
RTVSPost2010PropOp57
 70
     1
  0
XRECORD
  5
1F330
102
{ACAD_REACTORS
330
1F32F
102
}
330
1F32F
100
AcDbXrecord
280
     1
102
RTVSPost2010Prop28
280
     0
102
RTVSPost2010PropOp28
 70
     1
102
RTVSPost2010Prop29
280
     1
102
RTVSPost2010PropOp29
 70
     1
102
RTVSPost2010Prop30
280
     1
102
RTVSPost2010PropOp30
 70
     1
102
RTVSPost2010Prop31
280
     0
102
RTVSPost2010PropOp31
 70
     1
102
RTVSPost2010Prop32
280
     0
102
RTVSPost2010PropOp32
 70
     1
102
RTVSPost2010Prop33
280
     0
102
RTVSPost2010PropOp33
 70
     1
102
RTVSPost2010Prop34
280
     0
102
RTVSPost2010PropOp34
 70
     1
102
RTVSPost2010Prop35
280
     0
102
RTVSPost2010PropOp35
 70
     1
102
RTVSPost2010Prop36
280
     0
102
RTVSPost2010PropOp36
 70
     1
102
RTVSPost2010Prop37
 90
       50
102
RTVSPost2010PropOp37
 70
     1
102
RTVSPost2010Prop38
140
0.0
102
RTVSPost2010PropOp38
 70
     1
102
RTVSPost2010Prop39
140
1.0
102
RTVSPost2010PropOp39
 70
     1
102
RTVSPost2010Prop40
 90
        0
102
RTVSPost2010PropOp40
 70
     1
102
RTVSPost2010Prop41ColorIndex
 90
       18
102
RTVSPost2010Prop41ColorRGB
 90
        0
102
RTVSPost2010PropOp41
 70
     1
102
RTVSPost2010Prop42
 90
       50
102
RTVSPost2010PropOp42
 70
     1
102
RTVSPost2010Prop43
 90
        3
102
RTVSPost2010PropOp43
 70
     1
102
RTVSPost2010Prop44ColorIndex
 90
        5
102
RTVSPost2010Prop44ColorRGB
 90
      255
102
RTVSPost2010PropOp44
 70
     1
102
RTVSPost2010Prop45
280
     0
102
RTVSPost2010PropOp45
 70
     1
102
RTVSPost2010Prop46
 90
       50
102
RTVSPost2010PropOp46
 70
     1
102
RTVSPost2010Prop47
 90
       50
102
RTVSPost2010PropOp47
 70
     1
102
RTVSPost2010Prop48
 90
       50
102
RTVSPost2010PropOp48
 70
     1
102
RTVSPost2010Prop49
280
     0
102
RTVSPost2010PropOp49
 70
     1
102
RTVSPost2010Prop50
 90
       50
102
RTVSPost2010PropOp50
 70
     1
102
RTVSPost2010Prop51ColorIndex
 90
      256
102
RTVSPost2010Prop51ColorRGB
 90
-16777216
102
RTVSPost2010PropOp51
 70
     0
102
RTVSPost2010Prop52
140
1.0
102
RTVSPost2010PropOp52
 70
     0
102
RTVSPost2010Prop53
 90
        2
102
RTVSPost2010PropOp53
 70
     1
102
RTVSPost2010Prop54
  1
strokes_ogs.tif
102
RTVSPost2010PropOp54
 70
     1
102
RTVSPost2010Prop55
280
     0
102
RTVSPost2010PropOp55
 70
     1
102
RTVSPost2010Prop56
140
1.0
102
RTVSPost2010PropOp56
 70
     1
102
RTVSPost2010Prop57
140
1.0
102
RTVSPost2010PropOp57
 70
     1
  0
XRECORD
  5
1F32E
102
{ACAD_REACTORS
330
1F32D
102
}
330
1F32D
100
AcDbXrecord
280
     1
102
RTVSPost2010Prop28
280
     0
102
RTVSPost2010PropOp28
 70
     1
102
RTVSPost2010Prop29
280
     1
102
RTVSPost2010PropOp29
 70
     1
102
RTVSPost2010Prop30
280
     1
102
RTVSPost2010PropOp30
 70
     1
102
RTVSPost2010Prop31
280
     0
102
RTVSPost2010PropOp31
 70
     1
102
RTVSPost2010Prop32
280
     0
102
RTVSPost2010PropOp32
 70
     1
102
RTVSPost2010Prop33
280
     0
102
RTVSPost2010PropOp33
 70
     1
102
RTVSPost2010Prop34
280
     0
102
RTVSPost2010PropOp34
 70
     1
102
RTVSPost2010Prop35
280
     0
102
RTVSPost2010PropOp35
 70
     1
102
RTVSPost2010Prop36
280
     0
102
RTVSPost2010PropOp36
 70
     1
102
RTVSPost2010Prop37
 90
       50
102
RTVSPost2010PropOp37
 70
     1
102
RTVSPost2010Prop38
140
0.0
102
RTVSPost2010PropOp38
 70
     1
102
RTVSPost2010Prop39
140
1.0
102
RTVSPost2010PropOp39
 70
     1
102
RTVSPost2010Prop40
 90
        0
102
RTVSPost2010PropOp40
 70
     1
102
RTVSPost2010Prop41ColorIndex
 90
       18
102
RTVSPost2010Prop41ColorRGB
 90
        0
102
RTVSPost2010PropOp41
 70
     1
102
RTVSPost2010Prop42
 90
       50
102
RTVSPost2010PropOp42
 70
     1
102
RTVSPost2010Prop43
 90
        3
102
RTVSPost2010PropOp43
 70
     1
102
RTVSPost2010Prop44ColorIndex
 90
        5
102
RTVSPost2010Prop44ColorRGB
 90
      255
102
RTVSPost2010PropOp44
 70
     1
102
RTVSPost2010Prop45
280
     0
102
RTVSPost2010PropOp45
 70
     1
102
RTVSPost2010Prop46
 90
       50
102
RTVSPost2010PropOp46
 70
     1
102
RTVSPost2010Prop47
 90
       50
102
RTVSPost2010PropOp47
 70
     1
102
RTVSPost2010Prop48
 90
       50
102
RTVSPost2010PropOp48
 70
     1
102
RTVSPost2010Prop49
280
     0
102
RTVSPost2010PropOp49
 70
     1
102
RTVSPost2010Prop50
 90
       50
102
RTVSPost2010PropOp50
 70
     1
102
RTVSPost2010Prop51ColorIndex
 90
      256
102
RTVSPost2010Prop51ColorRGB
 90
-16777216
102
RTVSPost2010PropOp51
 70
     0
102
RTVSPost2010Prop52
140
1.0
102
RTVSPost2010PropOp52
 70
     0
102
RTVSPost2010Prop53
 90
        2
102
RTVSPost2010PropOp53
 70
     1
102
RTVSPost2010Prop54
  1
strokes_ogs.tif
102
RTVSPost2010PropOp54
 70
     1
102
RTVSPost2010Prop55
280
     0
102
RTVSPost2010PropOp55
 70
     1
102
RTVSPost2010Prop56
140
1.0
102
RTVSPost2010PropOp56
 70
     1
102
RTVSPost2010Prop57
140
1.0
102
RTVSPost2010PropOp57
 70
     1
  0
XRECORD
  5
1F328
102
{ACAD_REACTORS
330
1F327
102
}
330
1F327
100
AcDbXrecord
280
     1
102
RTVSPost2010Prop28
280
     0
102
RTVSPost2010PropOp28
 70
     1
102
RTVSPost2010Prop29
280
     1
102
RTVSPost2010PropOp29
 70
     1
102
RTVSPost2010Prop30
280
     1
102
RTVSPost2010PropOp30
 70
     1
102
RTVSPost2010Prop31
280
     0
102
RTVSPost2010PropOp31
 70
     1
102
RTVSPost2010Prop32
280
     0
102
RTVSPost2010PropOp32
 70
     1
102
RTVSPost2010Prop33
280
     0
102
RTVSPost2010PropOp33
 70
     1
102
RTVSPost2010Prop34
280
     0
102
RTVSPost2010PropOp34
 70
     1
102
RTVSPost2010Prop35
280
     0
102
RTVSPost2010PropOp35
 70
     1
102
RTVSPost2010Prop36
280
     0
102
RTVSPost2010PropOp36
 70
     1
102
RTVSPost2010Prop37
 90
       50
102
RTVSPost2010PropOp37
 70
     1
102
RTVSPost2010Prop38
140
0.0
102
RTVSPost2010PropOp38
 70
     1
102
RTVSPost2010Prop39
140
1.0
102
RTVSPost2010PropOp39
 70
     1
102
RTVSPost2010Prop40
 90
        0
102
RTVSPost2010PropOp40
 70
     1
102
RTVSPost2010Prop41ColorIndex
 90
       18
102
RTVSPost2010Prop41ColorRGB
 90
        0
102
RTVSPost2010PropOp41
 70
     1
102
RTVSPost2010Prop42
 90
       50
102
RTVSPost2010PropOp42
 70
     1
102
RTVSPost2010Prop43
 90
        3
102
RTVSPost2010PropOp43
 70
     1
102
RTVSPost2010Prop44ColorIndex
 90
        5
102
RTVSPost2010Prop44ColorRGB
 90
      255
102
RTVSPost2010PropOp44
 70
     1
102
RTVSPost2010Prop45
280
     0
102
RTVSPost2010PropOp45
 70
     1
102
RTVSPost2010Prop46
 90
       50
102
RTVSPost2010PropOp46
 70
     1
102
RTVSPost2010Prop47
 90
       50
102
RTVSPost2010PropOp47
 70
     1
102
RTVSPost2010Prop48
 90
       50
102
RTVSPost2010PropOp48
 70
     1
102
RTVSPost2010Prop49
280
     0
102
RTVSPost2010PropOp49
 70
     1
102
RTVSPost2010Prop50
 90
       50
102
RTVSPost2010PropOp50
 70
     1
102
RTVSPost2010Prop51ColorIndex
 90
      256
102
RTVSPost2010Prop51ColorRGB
 90
-16777216
102
RTVSPost2010PropOp51
 70
     0
102
RTVSPost2010Prop52
140
1.0
102
RTVSPost2010PropOp52
 70
     0
102
RTVSPost2010Prop53
 90
        2
102
RTVSPost2010PropOp53
 70
     1
102
RTVSPost2010Prop54
  1
strokes_ogs.tif
102
RTVSPost2010PropOp54
 70
     1
102
RTVSPost2010Prop55
280
     0
102
RTVSPost2010PropOp55
 70
     1
102
RTVSPost2010Prop56
140
1.0
102
RTVSPost2010PropOp56
 70
     1
102
RTVSPost2010Prop57
140
1.0
102
RTVSPost2010PropOp57
 70
     1
  0
XRECORD
  5
1F32A
102
{ACAD_REACTORS
330
1F329
102
}
330
1F329
100
AcDbXrecord
280
     1
102
RTVSPost2010Prop28
280
     0
102
RTVSPost2010PropOp28
 70
     1
102
RTVSPost2010Prop29
280
     1
102
RTVSPost2010PropOp29
 70
     1
102
RTVSPost2010Prop30
280
     1
102
RTVSPost2010PropOp30
 70
     1
102
RTVSPost2010Prop31
280
     0
102
RTVSPost2010PropOp31
 70
     1
102
RTVSPost2010Prop32
280
     0
102
RTVSPost2010PropOp32
 70
     1
102
RTVSPost2010Prop33
280
     0
102
RTVSPost2010PropOp33
 70
     1
102
RTVSPost2010Prop34
280
     0
102
RTVSPost2010PropOp34
 70
     1
102
RTVSPost2010Prop35
280
     0
102
RTVSPost2010PropOp35
 70
     1
102
RTVSPost2010Prop36
280
     0
102
RTVSPost2010PropOp36
 70
     1
102
RTVSPost2010Prop37
 90
       50
102
RTVSPost2010PropOp37
 70
     1
102
RTVSPost2010Prop38
140
0.0
102
RTVSPost2010PropOp38
 70
     1
102
RTVSPost2010Prop39
140
1.0
102
RTVSPost2010PropOp39
 70
     1
102
RTVSPost2010Prop40
 90
        0
102
RTVSPost2010PropOp40
 70
     1
102
RTVSPost2010Prop41ColorIndex
 90
       18
102
RTVSPost2010Prop41ColorRGB
 90
        0
102
RTVSPost2010PropOp41
 70
     1
102
RTVSPost2010Prop42
 90
       50
102
RTVSPost2010PropOp42
 70
     1
102
RTVSPost2010Prop43
 90
        3
102
RTVSPost2010PropOp43
 70
     1
102
RTVSPost2010Prop44ColorIndex
 90
        5
102
RTVSPost2010Prop44ColorRGB
 90
      255
102
RTVSPost2010PropOp44
 70
     1
102
RTVSPost2010Prop45
280
     0
102
RTVSPost2010PropOp45
 70
     1
102
RTVSPost2010Prop46
 90
       50
102
RTVSPost2010PropOp46
 70
     1
102
RTVSPost2010Prop47
 90
       50
102
RTVSPost2010PropOp47
 70
     1
102
RTVSPost2010Prop48
 90
       50
102
RTVSPost2010PropOp48
 70
     1
102
RTVSPost2010Prop49
280
     0
102
RTVSPost2010PropOp49
 70
     1
102
RTVSPost2010Prop50
 90
       50
102
RTVSPost2010PropOp50
 70
     1
102
RTVSPost2010Prop51ColorIndex
 90
      256
102
RTVSPost2010Prop51ColorRGB
 90
-16777216
102
RTVSPost2010PropOp51
 70
     0
102
RTVSPost2010Prop52
140
1.0
102
RTVSPost2010PropOp52
 70
     0
102
RTVSPost2010Prop53
 90
        2
102
RTVSPost2010PropOp53
 70
     1
102
RTVSPost2010Prop54
  1
strokes_ogs.tif
102
RTVSPost2010PropOp54
 70
     1
102
RTVSPost2010Prop55
280
     0
102
RTVSPost2010PropOp55
 70
     1
102
RTVSPost2010Prop56
140
1.0
102
RTVSPost2010PropOp56
 70
     1
102
RTVSPost2010Prop57
140
1.0
102
RTVSPost2010PropOp57
 70
     1
  0
XRECORD
  5
1F31C
102
{ACAD_REACTORS
330
1F31B
102
}
330
1F31B
100
AcDbXrecord
280
     1
102
RTVSPost2010Prop28
280
     0
102
RTVSPost2010PropOp28
 70
     1
102
RTVSPost2010Prop29
280
     1
102
RTVSPost2010PropOp29
 70
     1
102
RTVSPost2010Prop30
280
     1
102
RTVSPost2010PropOp30
 70
     1
102
RTVSPost2010Prop31
280
     0
102
RTVSPost2010PropOp31
 70
     1
102
RTVSPost2010Prop32
280
     0
102
RTVSPost2010PropOp32
 70
     1
102
RTVSPost2010Prop33
280
     0
102
RTVSPost2010PropOp33
 70
     1
102
RTVSPost2010Prop34
280
     0
102
RTVSPost2010PropOp34
 70
     1
102
RTVSPost2010Prop35
280
     0
102
RTVSPost2010PropOp35
 70
     1
102
RTVSPost2010Prop36
280
     0
102
RTVSPost2010PropOp36
 70
     1
102
RTVSPost2010Prop37
 90
       50
102
RTVSPost2010PropOp37
 70
     1
102
RTVSPost2010Prop38
140
0.0
102
RTVSPost2010PropOp38
 70
     1
102
RTVSPost2010Prop39
140
1.0
102
RTVSPost2010PropOp39
 70
     1
102
RTVSPost2010Prop40
 90
        0
102
RTVSPost2010PropOp40
 70
     1
102
RTVSPost2010Prop41ColorIndex
 90
       18
102
RTVSPost2010Prop41ColorRGB
 90
        0
102
RTVSPost2010PropOp41
 70
     1
102
RTVSPost2010Prop42
 90
       50
102
RTVSPost2010PropOp42
 70
     1
102
RTVSPost2010Prop43
 90
        3
102
RTVSPost2010PropOp43
 70
     1
102
RTVSPost2010Prop44ColorIndex
 90
        5
102
RTVSPost2010Prop44ColorRGB
 90
      255
102
RTVSPost2010PropOp44
 70
     1
102
RTVSPost2010Prop45
280
     0
102
RTVSPost2010PropOp45
 70
     1
102
RTVSPost2010Prop46
 90
       50
102
RTVSPost2010PropOp46
 70
     1
102
RTVSPost2010Prop47
 90
       50
102
RTVSPost2010PropOp47
 70
     1
102
RTVSPost2010Prop48
 90
       50
102
RTVSPost2010PropOp48
 70
     1
102
RTVSPost2010Prop49
280
     0
102
RTVSPost2010PropOp49
 70
     1
102
RTVSPost2010Prop50
 90
       50
102
RTVSPost2010PropOp50
 70
     1
102
RTVSPost2010Prop51ColorIndex
 90
      256
102
RTVSPost2010Prop51ColorRGB
 90
-16777216
102
RTVSPost2010PropOp51
 70
     0
102
RTVSPost2010Prop52
140
1.0
102
RTVSPost2010PropOp52
 70
     0
102
RTVSPost2010Prop53
 90
        2
102
RTVSPost2010PropOp53
 70
     1
102
RTVSPost2010Prop54
  1
strokes_ogs.tif
102
RTVSPost2010PropOp54
 70
     1
102
RTVSPost2010Prop55
280
     0
102
RTVSPost2010PropOp55
 70
     1
102
RTVSPost2010Prop56
140
1.0
102
RTVSPost2010PropOp56
 70
     1
102
RTVSPost2010Prop57
140
1.0
102
RTVSPost2010PropOp57
 70
     1
  0
XRECORD
  5
1F324
102
{ACAD_REACTORS
330
1F323
102
}
330
1F323
100
AcDbXrecord
280
     1
102
RTVSPost2010Prop28
280
     0
102
RTVSPost2010PropOp28
 70
     1
102
RTVSPost2010Prop29
280
     1
102
RTVSPost2010PropOp29
 70
     1
102
RTVSPost2010Prop30
280
     1
102
RTVSPost2010PropOp30
 70
     1
102
RTVSPost2010Prop31
280
     0
102
RTVSPost2010PropOp31
 70
     1
102
RTVSPost2010Prop32
280
     0
102
RTVSPost2010PropOp32
 70
     1
102
RTVSPost2010Prop33
280
     0
102
RTVSPost2010PropOp33
 70
     1
102
RTVSPost2010Prop34
280
     0
102
RTVSPost2010PropOp34
 70
     1
102
RTVSPost2010Prop35
280
     0
102
RTVSPost2010PropOp35
 70
     1
102
RTVSPost2010Prop36
280
     0
102
RTVSPost2010PropOp36
 70
     1
102
RTVSPost2010Prop37
 90
       50
102
RTVSPost2010PropOp37
 70
     1
102
RTVSPost2010Prop38
140
0.0
102
RTVSPost2010PropOp38
 70
     1
102
RTVSPost2010Prop39
140
1.0
102
RTVSPost2010PropOp39
 70
     1
102
RTVSPost2010Prop40
 90
        0
102
RTVSPost2010PropOp40
 70
     1
102
RTVSPost2010Prop41ColorIndex
 90
       18
102
RTVSPost2010Prop41ColorRGB
 90
        0
102
RTVSPost2010PropOp41
 70
     1
102
RTVSPost2010Prop42
 90
       50
102
RTVSPost2010PropOp42
 70
     1
102
RTVSPost2010Prop43
 90
        3
102
RTVSPost2010PropOp43
 70
     1
102
RTVSPost2010Prop44ColorIndex
 90
        5
102
RTVSPost2010Prop44ColorRGB
 90
      255
102
RTVSPost2010PropOp44
 70
     1
102
RTVSPost2010Prop45
280
     0
102
RTVSPost2010PropOp45
 70
     1
102
RTVSPost2010Prop46
 90
       50
102
RTVSPost2010PropOp46
 70
     1
102
RTVSPost2010Prop47
 90
       50
102
RTVSPost2010PropOp47
 70
     1
102
RTVSPost2010Prop48
 90
       50
102
RTVSPost2010PropOp48
 70
     1
102
RTVSPost2010Prop49
280
     0
102
RTVSPost2010PropOp49
 70
     1
102
RTVSPost2010Prop50
 90
       50
102
RTVSPost2010PropOp50
 70
     1
102
RTVSPost2010Prop51ColorIndex
 90
      256
102
RTVSPost2010Prop51ColorRGB
 90
-16777216
102
RTVSPost2010PropOp51
 70
     0
102
RTVSPost2010Prop52
140
1.0
102
RTVSPost2010PropOp52
 70
     0
102
RTVSPost2010Prop53
 90
        2
102
RTVSPost2010PropOp53
 70
     1
102
RTVSPost2010Prop54
  1
strokes_ogs.tif
102
RTVSPost2010PropOp54
 70
     1
102
RTVSPost2010Prop55
280
     0
102
RTVSPost2010PropOp55
 70
     1
102
RTVSPost2010Prop56
140
1.0
102
RTVSPost2010PropOp56
 70
     1
102
RTVSPost2010Prop57
140
1.0
102
RTVSPost2010PropOp57
 70
     1
  0
XRECORD
  5
1F32C
102
{ACAD_REACTORS
330
1F32B
102
}
330
1F32B
100
AcDbXrecord
280
     1
102
RTVSPost2010Prop28
280
     0
102
RTVSPost2010PropOp28
 70
     1
102
RTVSPost2010Prop29
280
     1
102
RTVSPost2010PropOp29
 70
     1
102
RTVSPost2010Prop30
280
     1
102
RTVSPost2010PropOp30
 70
     1
102
RTVSPost2010Prop31
280
     0
102
RTVSPost2010PropOp31
 70
     1
102
RTVSPost2010Prop32
280
     0
102
RTVSPost2010PropOp32
 70
     1
102
RTVSPost2010Prop33
280
     0
102
RTVSPost2010PropOp33
 70
     1
102
RTVSPost2010Prop34
280
     0
102
RTVSPost2010PropOp34
 70
     1
102
RTVSPost2010Prop35
280
     0
102
RTVSPost2010PropOp35
 70
     1
102
RTVSPost2010Prop36
280
     0
102
RTVSPost2010PropOp36
 70
     1
102
RTVSPost2010Prop37
 90
       50
102
RTVSPost2010PropOp37
 70
     1
102
RTVSPost2010Prop38
140
0.0
102
RTVSPost2010PropOp38
 70
     1
102
RTVSPost2010Prop39
140
1.0
102
RTVSPost2010PropOp39
 70
     1
102
RTVSPost2010Prop40
 90
        0
102
RTVSPost2010PropOp40
 70
     1
102
RTVSPost2010Prop41ColorIndex
 90
       18
102
RTVSPost2010Prop41ColorRGB
 90
        0
102
RTVSPost2010PropOp41
 70
     1
102
RTVSPost2010Prop42
 90
       50
102
RTVSPost2010PropOp42
 70
     1
102
RTVSPost2010Prop43
 90
        3
102
RTVSPost2010PropOp43
 70
     1
102
RTVSPost2010Prop44ColorIndex
 90
        5
102
RTVSPost2010Prop44ColorRGB
 90
      255
102
RTVSPost2010PropOp44
 70
     1
102
RTVSPost2010Prop45
280
     0
102
RTVSPost2010PropOp45
 70
     1
102
RTVSPost2010Prop46
 90
       50
102
RTVSPost2010PropOp46
 70
     1
102
RTVSPost2010Prop47
 90
       50
102
RTVSPost2010PropOp47
 70
     1
102
RTVSPost2010Prop48
 90
       50
102
RTVSPost2010PropOp48
 70
     1
102
RTVSPost2010Prop49
280
     0
102
RTVSPost2010PropOp49
 70
     1
102
RTVSPost2010Prop50
 90
       50
102
RTVSPost2010PropOp50
 70
     1
102
RTVSPost2010Prop51ColorIndex
 90
      256
102
RTVSPost2010Prop51ColorRGB
 90
-16777216
102
RTVSPost2010PropOp51
 70
     0
102
RTVSPost2010Prop52
140
1.0
102
RTVSPost2010PropOp52
 70
     0
102
RTVSPost2010Prop53
 90
        2
102
RTVSPost2010PropOp53
 70
     1
102
RTVSPost2010Prop54
  1
strokes_ogs.tif
102
RTVSPost2010PropOp54
 70
     1
102
RTVSPost2010Prop55
280
     0
102
RTVSPost2010PropOp55
 70
     1
102
RTVSPost2010Prop56
140
1.0
102
RTVSPost2010PropOp56
 70
     1
102
RTVSPost2010Prop57
140
1.0
102
RTVSPost2010PropOp57
 70
     1
  0
ENDSEC
  0
EOF
