  0
SECTION
  2
HEADER
  9
$ACADVER
  1
AC1021
  9
$ACADMAINTVER
 70
     1
  9
$DWGCODEPAGE
  3
ANSI_936
  9
$LASTSAVEDBY
  1
Administrator
  9
$INSBASE
 10
0.0
 20
0.0
 30
0.0
  9
$EXTMIN
 10
1550.312085153851
 20
-1380.615873311183
 30
0.0
  9
$EXTMAX
 10
2584.955541153855
 20
232.1654066888177
 30
0.0
  9
$LIMMIN
 10
0.0
 20
0.0
  9
$LIMMAX
 10
420.0
 20
297.0
  9
$ORTHOMODE
 70
     1
  9
$REGENMODE
 70
     1
  9
$FILLMODE
 70
     1
  9
$QTEXTMODE
 70
     0
  9
$MIRRTEXT
 70
     0
  9
$LTSCALE
 40
1.0
  9
$ATTMODE
 70
     1
  9
$TEXTSIZE
 40
2.5
  9
$TRACEWID
 40
1.0
  9
$TEXTSTYLE
  7
Standard
  9
$CLAYER
  8
0
  9
$CELTYPE
  6
ByLayer
  9
$CECOLOR
 62
   256
  9
$CELTSCALE
 40
1.0
  9
$DISPSILH
 70
     0
  9
$DIMSCALE
 40
1.0
  9
$DIMASZ
 40
8.0
  9
$DIMEXO
 40
1.0
  9
$DIMDLI
 40
3.75
  9
$DIMRND
 40
0.0
  9
$DIMDLE
 40
0.0
  9
$DIMEXE
 40
1.25
  9
$DIMTP
 40
0.0
  9
$DIMTM
 40
0.0
  9
$DIMTXT
 40
12.0
  9
$DIMCEN
 40
2.5
  9
$DIMTSZ
 40
0.0
  9
$DIMTOL
 70
     0
  9
$DIMLIM
 70
     0
  9
$DIMTIH
 70
     0
  9
$DIMTOH
 70
     0
  9
$DIMSE1
 70
     0
  9
$DIMSE2
 70
     0
  9
$DIMTAD
 70
     1
  9
$DIMZIN
 70
     8
  9
$DIMBLK
  1

  9
$DIMASO
 70
     1
  9
$DIMSHO
 70
     1
  9
$DIMPOST
  1

  9
$DIMAPOST
  1

  9
$DIMALT
 70
     0
  9
$DIMALTD
 70
     3
  9
$DIMALTF
 40
0.03937007874016
  9
$DIMLFAC
 40
1.0
  9
$DIMTOFL
 70
     1
  9
$DIMTVP
 40
0.0
  9
$DIMTIX
 70
     0
  9
$DIMSOXD
 70
     0
  9
$DIMSAH
 70
     0
  9
$DIMBLK1
  1

  9
$DIMBLK2
  1

  9
$DIMSTYLE
  2
ISO-25
  9
$DIMCLRD
 70
     0
  9
$DIMCLRE
 70
     0
  9
$DIMCLRT
 70
     0
  9
$DIMTFAC
 40
1.0
  9
$DIMGAP
 40
0.625
  9
$DIMJUST
 70
     0
  9
$DIMSD1
 70
     0
  9
$DIMSD2
 70
     0
  9
$DIMTOLJ
 70
     0
  9
$DIMTZIN
 70
     8
  9
$DIMALTZ
 70
     0
  9
$DIMALTTZ
 70
     0
  9
$DIMUPT
 70
     0
  9
$DIMDEC
 70
     2
  9
$DIMTDEC
 70
     2
  9
$DIMALTU
 70
     2
  9
$DIMALTTD
 70
     3
  9
$DIMTXSTY
  7
Standard
  9
$DIMAUNIT
 70
     0
  9
$DIMADEC
 70
     0
  9
$DIMALTRND
 40
0.0
  9
$DIMAZIN
 70
     0
  9
$DIMDSEP
 70
    44
  9
$DIMATFIT
 70
     3
  9
$DIMFRAC
 70
     0
  9
$DIMLDRBLK
  1

  9
$DIMLUNIT
 70
     2
  9
$DIMLWD
 70
    -2
  9
$DIMLWE
 70
    -2
  9
$DIMTMOVE
 70
     0
  9
$DIMFXL
 40
1.0
  9
$DIMFXLON
 70
     0
  9
$DIMJOGANG
 40
0.7853981633974483
  9
$DIMTFILL
 70
     0
  9
$DIMTFILLCLR
 70
     0
  9
$DIMARCSYM
 70
     0
  9
$DIMLTYPE
  6

  9
$DIMLTEX1
  6

  9
$DIMLTEX2
  6

  9
$LUNITS
 70
     2
  9
$LUPREC
 70
     4
  9
$SKETCHINC
 40
1.0
  9
$FILLETRAD
 40
0.0
  9
$AUNITS
 70
     0
  9
$AUPREC
 70
     0
  9
$MENU
  1
.
  9
$ELEVATION
 40
0.0
  9
$PELEVATION
 40
0.0
  9
$THICKNESS
 40
0.0
  9
$LIMCHECK
 70
     0
  9
$CHAMFERA
 40
0.0
  9
$CHAMFERB
 40
0.0
  9
$CHAMFERC
 40
0.0
  9
$CHAMFERD
 40
0.0
  9
$SKPOLY
 70
     0
  9
$TDCREATE
 40
2456150.385370544
  9
$TDUCREATE
 40
2456150.052037211
  9
$TDUPDATE
 40
2456169.411088866
  9
$TDUUPDATE
 40
2456169.077755532
  9
$TDINDWG
 40
0.2252291435
  9
$TDUSRTIMER
 40
0.2252291435
  9
$USRTIMER
 70
     1
  9
$ANGBASE
 50
0.0
  9
$ANGDIR
 70
     0
  9
$PDMODE
 70
     0
  9
$PDSIZE
 40
0.0
  9
$PLINEWID
 40
0.0
  9
$SPLFRAME
 70
     0
  9
$SPLINETYPE
 70
     6
  9
$SPLINESEGS
 70
     8
  9
$HANDSEED
  5
1E2D
  9
$SURFTAB1
 70
     6
  9
$SURFTAB2
 70
     6
  9
$SURFTYPE
 70
     6
  9
$SURFU
 70
     6
  9
$SURFV
 70
     6
  9
$UCSBASE
  2

  9
$UCSNAME
  2

  9
$UCSORG
 10
0.0
 20
0.0
 30
0.0
  9
$UCSXDIR
 10
1.0
 20
0.0
 30
0.0
  9
$UCSYDIR
 10
0.0
 20
1.0
 30
0.0
  9
$UCSORTHOREF
  2

  9
$UCSORTHOVIEW
 70
     0
  9
$UCSORGTOP
 10
0.0
 20
0.0
 30
0.0
  9
$UCSORGBOTTOM
 10
0.0
 20
0.0
 30
0.0
  9
$UCSORGLEFT
 10
0.0
 20
0.0
 30
0.0
  9
$UCSORGRIGHT
 10
0.0
 20
0.0
 30
0.0
  9
$UCSORGFRONT
 10
0.0
 20
0.0
 30
0.0
  9
$UCSORGBACK
 10
0.0
 20
0.0
 30
0.0
  9
$PUCSBASE
  2

  9
$PUCSNAME
  2

  9
$PUCSORG
 10
0.0
 20
0.0
 30
0.0
  9
$PUCSXDIR
 10
1.0
 20
0.0
 30
0.0
  9
$PUCSYDIR
 10
0.0
 20
1.0
 30
0.0
  9
$PUCSORTHOREF
  2

  9
$PUCSORTHOVIEW
 70
     0
  9
$PUCSORGTOP
 10
0.0
 20
0.0
 30
0.0
  9
$PUCSORGBOTTOM
 10
0.0
 20
0.0
 30
0.0
  9
$PUCSORGLEFT
 10
0.0
 20
0.0
 30
0.0
  9
$PUCSORGRIGHT
 10
0.0
 20
0.0
 30
0.0
  9
$PUCSORGFRONT
 10
0.0
 20
0.0
 30
0.0
  9
$PUCSORGBACK
 10
0.0
 20
0.0
 30
0.0
  9
$USERI1
 70
     0
  9
$USERI2
 70
     0
  9
$USERI3
 70
     0
  9
$USERI4
 70
     0
  9
$USERI5
 70
     0
  9
$USERR1
 40
0.0
  9
$USERR2
 40
0.0
  9
$USERR3
 40
0.0
  9
$USERR4
 40
0.0
  9
$USERR5
 40
0.0
  9
$WORLDVIEW
 70
     1
  9
$SHADEDGE
 70
     3
  9
$SHADEDIF
 70
    70
  9
$TILEMODE
 70
     1
  9
$MAXACTVP
 70
    64
  9
$PINSBASE
 10
0.0
 20
0.0
 30
0.0
  9
$PLIMCHECK
 70
     0
  9
$PEXTMIN
 10
0.0
 20
0.0
 30
0.0
  9
$PEXTMAX
 10
0.0
 20
0.0
 30
0.0
  9
$PLIMMIN
 10
0.0
 20
0.0
  9
$PLIMMAX
 10
12.0
 20
9.0
  9
$UNITMODE
 70
     0
  9
$VISRETAIN
 70
     1
  9
$PLINEGEN
 70
     0
  9
$PSLTSCALE
 70
     1
  9
$TREEDEPTH
 70
  3020
  9
$CMLSTYLE
  2
Standard
  9
$CMLJUST
 70
     0
  9
$CMLSCALE
 40
20.0
  9
$PROXYGRAPHICS
 70
     1
  9
$MEASUREMENT
 70
     1
  9
$CELWEIGHT
370
    25
  9
$ENDCAPS
280
     0
  9
$JOINSTYLE
280
     0
  9
$LWDISPLAY
290
     1
  9
$INSUNITS
 70
     4
  9
$HYPERLINKBASE
  1

  9
$STYLESHEET
  1

  9
$XEDIT
290
     1
  9
$CEPSNTYPE
380
     0
  9
$PSTYLEMODE
290
     1
  9
$FINGERPRINTGUID
  2
{FDEAD578-A652-11D2-9A35-0060089B3A3F}
  9
$VERSIONGUID
  2
{3D2EBC12-B047-4B8D-A415-22524B05C393}
  9
$EXTNAMES
290
     1
  9
$PSVPSCALE
 40
0.0
  9
$OLESTARTUP
290
     0
  9
$SORTENTS
280
   127
  9
$INDEXCTL
280
     0
  9
$HIDETEXT
280
     1
  9
$XCLIPFRAME
290
     0
  9
$HALOGAP
280
     0
  9
$OBSCOLOR
 70
   257
  9
$OBSLTYPE
280
     0
  9
$INTERSECTIONDISPLAY
280
     0
  9
$INTERSECTIONCOLOR
 70
   257
  9
$DIMASSOC
280
     2
  9
$PROJECTNAME
  1

  9
$CAMERADISPLAY
290
     0
  9
$LENSLENGTH
 40
50.0
  9
$CAMERAHEIGHT
 40
0.0
  9
$STEPSPERSEC
 40
2.0
  9
$STEPSIZE
 40
6.0
  9
$3DDWFPREC
 40
2.0
  9
$PSOLWIDTH
 40
0.25
  9
$PSOLHEIGHT
 40
4.0
  9
$LOFTANG1
 40
1.570796326794896
  9
$LOFTANG2
 40
1.570796326794896
  9
$LOFTMAG1
 40
0.0
  9
$LOFTMAG2
 40
0.0
  9
$LOFTPARAM
 70
     7
  9
$LOFTNORMALS
280
     1
  9
$LATITUDE
 40
37.795
  9
$LONGITUDE
 40
-122.394
  9
$NORTHDIRECTION
 40
0.0
  9
$TIMEZONE
 70
 -8000
  9
$LIGHTGLYPHDISPLAY
280
     1
  9
$TILEMODELIGHTSYNCH
280
     1
  9
$CMATERIAL
347
1E11
  9
$SOLIDHIST
280
     1
  9
$SHOWHIST
280
     1
  9
$DWFFRAME
280
     2
  9
$DGNFRAME
280
     0
  9
$REALWORLDSCALE
290
     1
  9
$INTERFERECOLOR
 62
     1
  9
$INTERFEREOBJVS
345
1E1D
  9
$INTERFEREVPVS
346
1E1A
  9
$CSHADOW
280
     0
  9
$SHADOWPLANELOCATION
 40
0.0
  0
ENDSEC
  0
SECTION
  2
CLASSES
  0
CLASS
  1
ACDBDICTIONARYWDFLT
  2
AcDbDictionaryWithDefault
  3
ObjectDBX Classes
 90
        0
 91
        1
280
     0
281
     0
  0
CLASS
  1
DICTIONARYVAR
  2
AcDbDictionaryVar
  3
ObjectDBX Classes
 90
        0
 91
        3
280
     0
281
     0
  0
CLASS
  1
DIMASSOC
  2
AcDbDimAssoc
  3
"AcDbDimAssoc|Product Desc:     AcDim ARX App For Dimension|Company:          Autodesk, Inc.|WEB Address:      www.autodesk.com"
 90
        0
 91
        9
280
     0
281
     0
  0
CLASS
  1
SORTENTSTABLE
  2
AcDbSortentsTable
  3
ObjectDBX Classes
 90
        0
 91
        1
280
     0
281
     0
  0
CLASS
  1
MATERIAL
  2
AcDbMaterial
  3
ObjectDBX Classes
 90
     1024
 91
        3
280
     0
281
     0
  0
CLASS
  1
VISUALSTYLE
  2
AcDbVisualStyle
  3
ObjectDBX Classes
 90
     4095
 91
       16
280
     0
281
     0
  0
CLASS
  1
TABLESTYLE
  2
AcDbTableStyle
  3
ObjectDBX Classes
 90
     4095
 91
        1
280
     0
281
     0
  0
ENDSEC
  0
SECTION
  2
TABLES
  0
TABLE
  2
VPORT
  5
8
330
0
100
AcDbSymbolTable
 70
     1
  0
VPORT
  5
1E0F
330
8
100
AcDbSymbolTableRecord
100
AcDbViewportTableRecord
  2
*Active
 70
     0
 10
0.0
 20
0.0
 11
1.0
 21
1.0
 12
1832.120011219923
 22
-406.8409352807507
 13
0.0
 23
0.0
 14
10.0
 24
10.0
 15
10.0
 25
10.0
 16
0.0
 26
0.0
 36
1.0
 17
0.0
 27
0.0
 37
0.0
 40
1329.531216784151
 41
1.32484076433121
 42
50.0
 43
0.0
 44
0.0
 50
0.0
 51
0.0
 71
     0
 72
  1000
 73
     1
 74
     3
 75
     0
 76
     0
 77
     0
 78
     0
281
     0
 65
     1
110
0.0
120
0.0
130
0.0
111
1.0
121
0.0
131
0.0
112
0.0
122
1.0
132
0.0
 79
     0
146
0.0
348
1E19
 60
     3
 61
     5
292
     1
282
     1
141
0.0
142
0.0
 63
   250
421
  3355443
  0
ENDTAB
  0
TABLE
  2
LTYPE
  5
5
330
0
100
AcDbSymbolTable
 70
     2
  0
LTYPE
  5
14
330
5
100
AcDbSymbolTableRecord
100
AcDbLinetypeTableRecord
  2
ByBlock
 70
     0
  3

 72
    65
 73
     0
 40
0.0
  0
LTYPE
  5
15
330
5
100
AcDbSymbolTableRecord
100
AcDbLinetypeTableRecord
  2
ByLayer
 70
     0
  3

 72
    65
 73
     0
 40
0.0
  0
LTYPE
  5
16
330
5
100
AcDbSymbolTableRecord
100
AcDbLinetypeTableRecord
  2
Continuous
 70
     0
  3
Solid line
 72
    65
 73
     0
 40
0.0
  0
LTYPE
  5
161
330
5
100
AcDbSymbolTableRecord
100
AcDbLinetypeTableRecord
  2
ACAD_ISO04W100
 70
     0
  3
ISO long-dash dot ____ . ____ . ____ . ____ . _
 72
    65
 73
     4
 40
30.0
 49
24.0
 74
     0
 49
-3.0
 74
     0
 49
0.0
 74
     0
 49
-3.0
 74
     0
  0
ENDTAB
  0
TABLE
  2
LAYER
  5
2
102
{ACAD_XDICTIONARY
360
1259
102
}
330
0
100
AcDbSymbolTable
 70
     4
  0
LAYER
  5
10
330
2
100
AcDbSymbolTableRecord
100
AcDbLayerTableRecord
  2
0
 70
     0
 62
     7
  6
Continuous
370
     0
390
F
347
1256
  0
LAYER
  5
AC
330
2
100
AcDbSymbolTableRecord
100
AcDbLayerTableRecord
  2
Defpoints
 70
     0
 62
     7
  6
Continuous
290
     0
370
    25
390
F
347
1256
  0
LAYER
  5
B16
330
2
100
AcDbSymbolTableRecord
100
AcDbLayerTableRecord
  2
图层1
 70
     0
 62
     6
  6
Continuous
370
     9
390
F
347
1256
  0
LAYER
  5
C74
330
2
100
AcDbSymbolTableRecord
100
AcDbLayerTableRecord
  2
图层2
 70
     0
 62
     1
  6
Continuous
370
     9
390
F
347
1256
  0
ENDTAB
  0
TABLE
  2
STYLE
  5
3
330
0
100
AcDbSymbolTable
 70
     2
  0
STYLE
  5
11
330
3
100
AcDbSymbolTableRecord
100
AcDbTextStyleTableRecord
  2
Standard
 70
     0
 40
0.0
 41
1.0
 50
0.0
 71
     0
 42
2.5
  3
txt
  4

  0
STYLE
  5
91
330
3
100
AcDbSymbolTableRecord
100
AcDbTextStyleTableRecord
  2

 70
     1
 40
0.0
 41
1.0
 50
0.0
 71
     0
 42
2.5
  3
ltypeshp.shx
  4

  0
ENDTAB
  0
TABLE
  2
VIEW
  5
6
330
0
100
AcDbSymbolTable
 70
     0
  0
ENDTAB
  0
TABLE
  2
UCS
  5
7
330
0
100
AcDbSymbolTable
 70
     0
  0
ENDTAB
  0
TABLE
  2
APPID
  5
9
330
0
100
AcDbSymbolTable
 70
     2
  0
APPID
  5
12
330
9
100
AcDbSymbolTableRecord
100
AcDbRegAppTableRecord
  2
ACAD
 70
     0
  0
APPID
  5
1255
330
9
100
AcDbSymbolTableRecord
100
AcDbRegAppTableRecord
  2
AcAecLayerStandard
 70
     0
  0
ENDTAB
  0
TABLE
  2
DIMSTYLE
  5
A
330
0
100
AcDbSymbolTable
 70
     1
100
AcDbDimStyleTable
 71
     1
340
27
  0
DIMSTYLE
105
27
102
{ACAD_REACTORS
330
17B
330
193
330
1AB
330
1C3
330
1DB
330
20B
330
223
330
834
330
15FC
330
15FD
330
15FE
330
15FF
102
}
330
A
100
AcDbSymbolTableRecord
100
AcDbDimStyleTableRecord
  2
ISO-25
 70
     0
 41
8.0
 42
1.0
 43
3.75
 44
1.25
 73
     0
 74
     0
 77
     1
 78
     8
140
12.0
141
2.5
143
0.03937007874016
147
0.625
171
     3
172
     1
271
     2
272
     2
274
     3
278
    44
283
     0
284
     8
340
11
  0
ENDTAB
  0
TABLE
  2
BLOCK_RECORD
  5
1
330
0
100
AcDbSymbolTable
 70
    20
  0
BLOCK_RECORD
  5
1F
102
{ACAD_XDICTIONARY
360
C75
102
}
330
1
100
AcDbSymbolTableRecord
100
AcDbBlockTableRecord
  2
*Model_Space
340
22
 70
     0
280
     1
281
     0
  0
BLOCK_RECORD
  5
50
330
1
100
AcDbSymbolTableRecord
100
AcDbBlockTableRecord
  2
*Paper_Space
340
51
 70
     0
280
     1
281
     0
  0
BLOCK_RECORD
  5
55
330
1
100
AcDbSymbolTableRecord
100
AcDbBlockTableRecord
  2
*Paper_Space0
340
56
 70
     0
280
     1
281
     0
  0
BLOCK_RECORD
  5
17C
330
1
100
AcDbSymbolTableRecord
100
AcDbBlockTableRecord
  2
*D1
340
0
 70
     0
280
     1
281
     0
  0
BLOCK_RECORD
  5
194
330
1
100
AcDbSymbolTableRecord
100
AcDbBlockTableRecord
  2
*D2
340
0
 70
     0
280
     1
281
     0
  0
BLOCK_RECORD
  5
1AC
330
1
100
AcDbSymbolTableRecord
100
AcDbBlockTableRecord
  2
*D3
340
0
 70
     0
280
     1
281
     0
  0
BLOCK_RECORD
  5
1C4
330
1
100
AcDbSymbolTableRecord
100
AcDbBlockTableRecord
  2
*D4
340
0
 70
     0
280
     1
281
     0
  0
BLOCK_RECORD
  5
1DC
330
1
100
AcDbSymbolTableRecord
100
AcDbBlockTableRecord
  2
*D5
340
0
 70
     0
280
     1
281
     0
  0
BLOCK_RECORD
  5
20C
330
1
100
AcDbSymbolTableRecord
100
AcDbBlockTableRecord
  2
*D6
340
0
 70
     0
280
     1
281
     0
  0
BLOCK_RECORD
  5
224
330
1
100
AcDbSymbolTableRecord
100
AcDbBlockTableRecord
  2
*D7
340
0
 70
     0
280
     1
281
     0
  0
BLOCK_RECORD
  5
2D1
330
1
100
AcDbSymbolTableRecord
100
AcDbBlockTableRecord
  2
A$C44B06F47
340
0
 70
     0
280
     1
281
     0
  0
BLOCK_RECORD
  5
6A6
330
1
100
AcDbSymbolTableRecord
100
AcDbBlockTableRecord
  2
*D9
340
0
 70
     0
280
     1
281
     0
  0
BLOCK_RECORD
  5
6B1
330
1
100
AcDbSymbolTableRecord
100
AcDbBlockTableRecord
  2
*D10
340
0
 70
     0
280
     1
281
     0
  0
BLOCK_RECORD
  5
6BC
330
1
100
AcDbSymbolTableRecord
100
AcDbBlockTableRecord
  2
A$C4CAF202F
340
0
 70
     0
280
     1
281
     0
  0
BLOCK_RECORD
  5
835
330
1
100
AcDbSymbolTableRecord
100
AcDbBlockTableRecord
  2
*D14
340
0
 70
     0
280
     1
281
     0
  0
BLOCK_RECORD
  5
1600
330
1
100
AcDbSymbolTableRecord
100
AcDbBlockTableRecord
  2
*D16
340
0
 70
     0
280
     1
281
     0
  0
BLOCK_RECORD
  5
160C
330
1
100
AcDbSymbolTableRecord
100
AcDbBlockTableRecord
  2
*D17
340
0
 70
     0
280
     1
281
     0
  0
BLOCK_RECORD
  5
1618
330
1
100
AcDbSymbolTableRecord
100
AcDbBlockTableRecord
  2
*D18
340
0
 70
     0
280
     1
281
     0
  0
BLOCK_RECORD
  5
1624
330
1
100
AcDbSymbolTableRecord
100
AcDbBlockTableRecord
  2
*D19
340
0
 70
     0
280
     1
281
     0
  0
ENDTAB
  0
ENDSEC
  0
SECTION
  2
BLOCKS
  0
BLOCK
  5
20
330
1F
100
AcDbEntity
  8
0
100
AcDbBlockBegin
  2
*Model_Space
 70
     0
 10
0.0
 20
0.0
 30
0.0
  3
*Model_Space
  1

  0
ENDBLK
  5
21
330
1F
100
AcDbEntity
  8
0
100
AcDbBlockEnd
  0
BLOCK
  5
52
330
50
100
AcDbEntity
 67
     1
  8
0
100
AcDbBlockBegin
  2
*Paper_Space
 70
     0
 10
0.0
 20
0.0
 30
0.0
  3
*Paper_Space
  1

  0
ENDBLK
  5
53
330
50
100
AcDbEntity
 67
     1
  8
0
100
AcDbBlockEnd
  0
BLOCK
  5
57
330
55
100
AcDbEntity
 67
     1
  8
0
100
AcDbBlockBegin
  2
*Paper_Space0
 70
     0
 10
0.0
 20
0.0
 30
0.0
  3
*Paper_Space0
  1

  0
ENDBLK
  5
58
330
55
100
AcDbEntity
 67
     1
  8
0
100
AcDbBlockEnd
  0
BLOCK
  5
186
330
17C
100
AcDbEntity
  8
0
370
     9
100
AcDbBlockBegin
  2
*D1
 70
     1
 10
0.0
 20
0.0
 30
0.0
  3
*D1
  1

  0
LINE
  5
1DCE
330
17C
100
AcDbEntity
  8
图层1
 62
     0
370
    -2
100
AcDbLine
 10
2125.228923381728
 20
-351.4666287912303
 30
0.0
 11
2125.228923381728
 21
-404.8125709424867
 31
0.0
  0
LINE
  5
1DCF
330
17C
100
AcDbEntity
  8
图层1
 62
     0
370
    -2
100
AcDbLine
 10
2150.228923381728
 20
-351.4666287912303
 30
0.0
 11
2150.228923381728
 21
-404.8125709424867
 31
0.0
  0
LINE
  5
1DD0
330
17C
100
AcDbEntity
  8
图层1
 62
     0
370
    -2
100
AcDbLine
 10
2133.228923381728
 20
-403.5625709424866
 30
0.0
 11
2142.228923381728
 21
-403.5625709424866
 31
0.0
  0
LINE
  5
1DD1
330
17C
100
AcDbEntity
  8
图层1
 62
     0
370
    -2
100
AcDbLine
 10
2150.228923381728
 20
-403.5625709424866
 30
0.0
 11
2211.478923381728
 21
-403.5625709424866
 31
0.0
  0
SOLID
  5
1DD2
330
17C
100
AcDbEntity
  8
图层1
 62
     0
370
    25
100
AcDbTrace
 10
2133.228923381728
 20
-402.2292376091533
 30
0.0
 11
2133.228923381728
 21
-404.8959042758199
 31
0.0
 12
2125.228923381728
 22
-403.5625709424866
 32
0.0
 13
2125.228923381728
 23
-403.5625709424866
 33
0.0
  0
SOLID
  5
1DD3
330
17C
100
AcDbEntity
  8
图层1
 62
     0
370
    25
100
AcDbTrace
 10
2142.228923381728
 20
-402.2292376091533
 30
0.0
 11
2142.228923381728
 21
-404.8959042758199
 31
0.0
 12
2150.228923381728
 22
-403.5625709424866
 32
0.0
 13
2150.228923381728
 23
-403.5625709424866
 33
0.0
  0
MTEXT
  5
1DD4
330
17C
100
AcDbEntity
  8
图层1
 62
     0
370
     9
100
AcDbMText
 10
2184.853923381728
 20
-396.9375709424867
 30
0.0
 40
12.0
 41
0.0
 46
0.0
 71
     5
 72
     1
  1
25(1")
 73
     1
 44
1.0
  0
POINT
  5
1DD5
330
17C
100
AcDbEntity
  8
Defpoints
 62
     0
370
    25
100
AcDbPoint
 10
2125.228923381728
 20
-350.4666287912303
 30
0.0
  0
POINT
  5
1DD6
330
17C
100
AcDbEntity
  8
Defpoints
 62
     0
370
    25
100
AcDbPoint
 10
2150.228923381728
 20
-350.4666287912303
 30
0.0
  0
POINT
  5
1DD7
330
17C
100
AcDbEntity
  8
Defpoints
 62
     0
370
    25
100
AcDbPoint
 10
2150.228923381728
 20
-403.5625709424866
 30
0.0
  0
ENDBLK
  5
187
330
17C
100
AcDbEntity
  8
0
370
     9
100
AcDbBlockEnd
  0
BLOCK
  5
19E
330
194
100
AcDbEntity
  8
0
370
     9
100
AcDbBlockBegin
  2
*D2
 70
     1
 10
0.0
 20
0.0
 30
0.0
  3
*D2
  1

  0
LINE
  5
1DBB
330
194
100
AcDbEntity
  8
图层1
 62
     0
370
    -2
100
AcDbLine
 10
2429.728923381728
 20
-351.4666287912302
 30
0.0
 11
2429.728923381728
 21
-421.8973842215044
 31
0.0
  0
LINE
  5
1DBC
330
194
100
AcDbEntity
  8
图层1
 62
     0
370
    -2
100
AcDbLine
 10
2150.228923381728
 20
-351.4666287912303
 30
0.0
 11
2150.228923381728
 21
-421.8973842215044
 31
0.0
  0
LINE
  5
1DBD
330
194
100
AcDbEntity
  8
图层1
 62
     0
370
    -2
100
AcDbLine
 10
2421.728923381728
 20
-420.6473842215044
 30
0.0
 11
2158.228923381728
 21
-420.6473842215044
 31
0.0
  0
SOLID
  5
1DBE
330
194
100
AcDbEntity
  8
图层1
 62
     0
370
    25
100
AcDbTrace
 10
2421.728923381728
 20
-419.314050888171
 30
0.0
 11
2421.728923381728
 21
-421.9807175548377
 31
0.0
 12
2429.728923381728
 22
-420.6473842215044
 32
0.0
 13
2429.728923381728
 23
-420.6473842215044
 33
0.0
  0
SOLID
  5
1DBF
330
194
100
AcDbEntity
  8
图层1
 62
     0
370
    25
100
AcDbTrace
 10
2158.228923381728
 20
-419.314050888171
 30
0.0
 11
2158.228923381728
 21
-421.9807175548377
 31
0.0
 12
2150.228923381728
 22
-420.6473842215044
 32
0.0
 13
2150.228923381728
 23
-420.6473842215044
 33
0.0
  0
MTEXT
  5
1DC0
330
194
100
AcDbEntity
  8
图层1
 62
     0
370
     9
100
AcDbMText
 10
2289.978923381728
 20
-413.0223842215044
 30
0.0
 40
12.0
 41
0.0
 46
0.0
 71
     5
 72
     1
  1
279,5(11")
 73
     1
 44
1.0
  0
POINT
  5
1DC1
330
194
100
AcDbEntity
  8
Defpoints
 62
     0
370
    25
100
AcDbPoint
 10
2429.728923381728
 20
-350.4666287912302
 30
0.0
  0
POINT
  5
1DC2
330
194
100
AcDbEntity
  8
Defpoints
 62
     0
370
    25
100
AcDbPoint
 10
2150.228923381728
 20
-350.4666287912303
 30
0.0
  0
POINT
  5
1DC3
330
194
100
AcDbEntity
  8
Defpoints
 62
     0
370
    25
100
AcDbPoint
 10
2150.228923381728
 20
-420.6473842215044
 30
0.0
  0
ENDBLK
  5
19F
330
194
100
AcDbEntity
  8
0
370
     9
100
AcDbBlockEnd
  0
BLOCK
  5
1B6
330
1AC
100
AcDbEntity
  8
0
370
     9
100
AcDbBlockBegin
  2
*D3
 70
     1
 10
0.0
 20
0.0
 30
0.0
  3
*D3
  1

  0
LINE
  5
1DD8
330
1AC
100
AcDbEntity
  8
图层1
 62
     0
370
    -2
100
AcDbLine
 10
1744.228923381728
 20
-351.4666287912303
 30
0.0
 11
1744.228923381728
 21
-421.8973842215044
 31
0.0
  0
LINE
  5
1DD9
330
1AC
100
AcDbEntity
  8
图层1
 62
     0
370
    -2
100
AcDbLine
 10
2125.228923381728
 20
-351.4666287912303
 30
0.0
 11
2125.228923381728
 21
-421.8973842215044
 31
0.0
  0
LINE
  5
1DDA
330
1AC
100
AcDbEntity
  8
图层1
 62
     0
370
    -2
100
AcDbLine
 10
1752.228923381728
 20
-420.6473842215044
 30
0.0
 11
2117.228923381728
 21
-420.6473842215044
 31
0.0
  0
SOLID
  5
1DDB
330
1AC
100
AcDbEntity
  8
图层1
 62
     0
370
    25
100
AcDbTrace
 10
1752.228923381728
 20
-419.314050888171
 30
0.0
 11
1752.228923381728
 21
-421.9807175548377
 31
0.0
 12
1744.228923381728
 22
-420.6473842215044
 32
0.0
 13
1744.228923381728
 23
-420.6473842215044
 33
0.0
  0
SOLID
  5
1DDC
330
1AC
100
AcDbEntity
  8
图层1
 62
     0
370
    25
100
AcDbTrace
 10
2117.228923381728
 20
-419.314050888171
 30
0.0
 11
2117.228923381728
 21
-421.9807175548377
 31
0.0
 12
2125.228923381728
 22
-420.6473842215044
 32
0.0
 13
2125.228923381728
 23
-420.6473842215044
 33
0.0
  0
MTEXT
  5
1DDD
330
1AC
100
AcDbEntity
  8
图层1
 62
     0
370
     9
100
AcDbMText
 10
1934.728923381728
 20
-414.0223842215044
 30
0.0
 40
12.0
 41
0.0
 46
0.0
 71
     5
 72
     1
  1
381(15")
 73
     1
 44
1.0
  0
POINT
  5
1DDE
330
1AC
100
AcDbEntity
  8
Defpoints
 62
     0
370
    25
100
AcDbPoint
 10
1744.228923381728
 20
-350.4666287912303
 30
0.0
  0
POINT
  5
1DDF
330
1AC
100
AcDbEntity
  8
Defpoints
 62
     0
370
    25
100
AcDbPoint
 10
2125.228923381728
 20
-350.4666287912303
 30
0.0
  0
POINT
  5
1DE0
330
1AC
100
AcDbEntity
  8
Defpoints
 62
     0
370
    25
100
AcDbPoint
 10
2125.228923381728
 20
-420.6473842215044
 30
0.0
  0
ENDBLK
  5
1B7
330
1AC
100
AcDbEntity
  8
0
370
     9
100
AcDbBlockEnd
  0
BLOCK
  5
1CE
330
1C4
100
AcDbEntity
  8
0
370
     9
100
AcDbBlockBegin
  2
*D4
 70
     1
 10
0.0
 20
0.0
 30
0.0
  3
*D4
  1

  0
LINE
  5
1D8D
330
1C4
100
AcDbEntity
  8
图层1
 62
     0
370
    -2
100
AcDbLine
 10
1717.478923381728
 20
-375.4666287912303
 30
0.0
 11
1631.659660903652
 21
-375.4666287912302
 31
0.0
  0
LINE
  5
1D8E
330
1C4
100
AcDbEntity
  8
图层1
 62
     0
370
    -2
100
AcDbLine
 10
1717.478923381728
 20
81.53337120876967
 30
0.0
 11
1631.659660903652
 21
81.53337120876969
 31
0.0
  0
LINE
  5
1D8F
330
1C4
100
AcDbEntity
  8
图层1
 62
     0
370
    -2
100
AcDbLine
 10
1632.909660903652
 20
-367.4666287912302
 30
0.0
 11
1632.909660903652
 21
73.53337120876968
 31
0.0
  0
SOLID
  5
1D90
330
1C4
100
AcDbEntity
  8
图层1
 62
     0
370
    25
100
AcDbTrace
 10
1631.576327570319
 20
-367.4666287912302
 30
0.0
 11
1634.242994236986
 21
-367.4666287912302
 31
0.0
 12
1632.909660903652
 22
-375.4666287912302
 32
0.0
 13
1632.909660903652
 23
-375.4666287912302
 33
0.0
  0
SOLID
  5
1D91
330
1C4
100
AcDbEntity
  8
图层1
 62
     0
370
    25
100
AcDbTrace
 10
1631.576327570319
 20
73.53337120876969
 30
0.0
 11
1634.242994236986
 21
73.53337120876968
 31
0.0
 12
1632.909660903652
 22
81.53337120876967
 32
0.0
 13
1632.909660903652
 23
81.53337120876967
 33
0.0
  0
MTEXT
  5
1D92
330
1C4
100
AcDbEntity
  8
图层1
 62
     0
370
     9
100
AcDbMText
 10
1626.284660903652
 20
-146.96662879123
 30
0.0
 40
12.0
 41
0.0
 46
0.0
 71
     5
 72
     1
  1
457(18")
 11
0.0000000000000001
 21
1.0
 31
0.0
 73
     1
 44
1.0
  0
POINT
  5
1D93
330
1C4
100
AcDbEntity
  8
Defpoints
 62
     0
370
    25
100
AcDbPoint
 10
1718.478923381728
 20
-375.4666287912303
 30
0.0
  0
POINT
  5
1D94
330
1C4
100
AcDbEntity
  8
Defpoints
 62
     0
370
    25
100
AcDbPoint
 10
1718.478923381728
 20
81.53337120876967
 30
0.0
  0
POINT
  5
1D95
330
1C4
100
AcDbEntity
  8
Defpoints
 62
     0
370
    25
100
AcDbPoint
 10
1632.909660903652
 20
81.53337120876967
 30
0.0
  0
ENDBLK
  5
1CF
330
1C4
100
AcDbEntity
  8
0
370
     9
100
AcDbBlockEnd
  0
BLOCK
  5
1E6
330
1DC
100
AcDbEntity
  8
0
370
     9
100
AcDbBlockBegin
  2
*D5
 70
     1
 10
0.0
 20
0.0
 30
0.0
  3
*D5
  1

  0
LINE
  5
1D84
330
1DC
100
AcDbEntity
  8
图层1
 62
     0
370
    -2
100
AcDbLine
 10
1758.678923381728
 20
56.53337120876978
 30
0.0
 11
1669.133076011044
 21
56.5333712087698
 31
0.0
  0
LINE
  5
1D85
330
1DC
100
AcDbEntity
  8
图层1
 62
     0
370
    -2
100
AcDbLine
 10
1758.678923381728
 20
-350.4666287912302
 30
0.0
 11
1669.133076011044
 21
-350.4666287912302
 31
0.0
  0
LINE
  5
1D86
330
1DC
100
AcDbEntity
  8
图层1
 62
     0
370
    -2
100
AcDbLine
 10
1670.383076011044
 20
48.53337120876981
 30
0.0
 11
1670.383076011044
 21
-342.4666287912302
 31
0.0
  0
SOLID
  5
1D87
330
1DC
100
AcDbEntity
  8
图层1
 62
     0
370
    25
100
AcDbTrace
 10
1669.04974267771
 20
48.53337120876981
 30
0.0
 11
1671.716409344377
 21
48.53337120876981
 31
0.0
 12
1670.383076011044
 22
56.5333712087698
 32
0.0
 13
1670.383076011044
 23
56.5333712087698
 33
0.0
  0
SOLID
  5
1D88
330
1DC
100
AcDbEntity
  8
图层1
 62
     0
370
    25
100
AcDbTrace
 10
1669.04974267771
 20
-342.4666287912302
 30
0.0
 11
1671.716409344377
 21
-342.4666287912302
 31
0.0
 12
1670.383076011044
 22
-350.4666287912302
 32
0.0
 13
1670.383076011044
 23
-350.4666287912302
 33
0.0
  0
MTEXT
  5
1D89
330
1DC
100
AcDbEntity
  8
图层1
 62
     0
370
     9
100
AcDbMText
 10
1663.758076011044
 20
-146.9666287912299
 30
0.0
 40
12.0
 41
0.0
 46
0.0
 71
     5
 72
     1
  1
407(16")
 11
0.0000000000000001
 21
1.0
 31
0.0
 73
     1
 44
1.0
  0
POINT
  5
1D8A
330
1DC
100
AcDbEntity
  8
Defpoints
 62
     0
370
    25
100
AcDbPoint
 10
1759.678923381728
 20
56.53337120876978
 30
0.0
  0
POINT
  5
1D8B
330
1DC
100
AcDbEntity
  8
Defpoints
 62
     0
370
    25
100
AcDbPoint
 10
1759.678923381728
 20
-350.4666287912302
 30
0.0
  0
POINT
  5
1D8C
330
1DC
100
AcDbEntity
  8
Defpoints
 62
     0
370
    25
100
AcDbPoint
 10
1670.383076011044
 20
-350.4666287912302
 30
0.0
  0
ENDBLK
  5
1E7
330
1DC
100
AcDbEntity
  8
0
370
     9
100
AcDbBlockEnd
  0
BLOCK
  5
216
330
20C
100
AcDbEntity
  8
0
370
     9
100
AcDbBlockBegin
  2
*D6
 70
     1
 10
0.0
 20
0.0
 30
0.0
  3
*D6
  1

  0
LINE
  5
1D7B
330
20C
100
AcDbEntity
  8
图层1
 62
     0
370
    -2
100
AcDbLine
 10
2455.478923381728
 20
-376.4666287912303
 30
0.0
 11
2455.478923381728
 21
-464.7081308992399
 31
0.0
  0
LINE
  5
1D7C
330
20C
100
AcDbEntity
  8
图层1
 62
     0
370
    -2
100
AcDbLine
 10
1718.478923381728
 20
-376.4666287912303
 30
0.0
 11
1718.478923381728
 21
-464.7081308992399
 31
0.0
  0
LINE
  5
1D7D
330
20C
100
AcDbEntity
  8
图层1
 62
     0
370
    -2
100
AcDbLine
 10
2447.478923381729
 20
-463.4581308992399
 30
0.0
 11
1726.478923381728
 21
-463.4581308992399
 31
0.0
  0
SOLID
  5
1D7E
330
20C
100
AcDbEntity
  8
图层1
 62
     0
370
    25
100
AcDbTrace
 10
2447.478923381729
 20
-462.1247975659066
 30
0.0
 11
2447.478923381729
 21
-464.7914642325733
 31
0.0
 12
2455.478923381728
 22
-463.4581308992399
 32
0.0
 13
2455.478923381728
 23
-463.4581308992399
 33
0.0
  0
SOLID
  5
1D7F
330
20C
100
AcDbEntity
  8
图层1
 62
     0
370
    25
100
AcDbTrace
 10
1726.478923381728
 20
-462.1247975659066
 30
0.0
 11
1726.478923381728
 21
-464.7914642325733
 31
0.0
 12
1718.478923381728
 22
-463.4581308992399
 32
0.0
 13
1718.478923381728
 23
-463.4581308992399
 33
0.0
  0
MTEXT
  5
1D80
330
20C
100
AcDbEntity
  8
图层1
 62
     0
370
     9
100
AcDbMText
 10
2086.978923381728
 20
-456.8331308992399
 30
0.0
 40
12.0
 41
0.0
 46
0.0
 71
     5
 72
     1
  1
737(29")
 73
     1
 44
1.0
  0
POINT
  5
1D81
330
20C
100
AcDbEntity
  8
Defpoints
 62
     0
370
    25
100
AcDbPoint
 10
2455.478923381728
 20
-375.4666287912303
 30
0.0
  0
POINT
  5
1D82
330
20C
100
AcDbEntity
  8
Defpoints
 62
     0
370
    25
100
AcDbPoint
 10
1718.478923381728
 20
-375.4666287912303
 30
0.0
  0
POINT
  5
1D83
330
20C
100
AcDbEntity
  8
Defpoints
 62
     0
370
    25
100
AcDbPoint
 10
1718.478923381728
 20
-463.4581308992399
 30
0.0
  0
ENDBLK
  5
217
330
20C
100
AcDbEntity
  8
0
370
     9
100
AcDbBlockEnd
  0
BLOCK
  5
22E
330
224
100
AcDbEntity
  8
0
370
     9
100
AcDbBlockBegin
  2
*D7
 70
     1
 10
0.0
 20
0.0
 30
0.0
  3
*D7
  1

  0
LINE
  5
1DA8
330
224
100
AcDbEntity
  8
图层1
 62
     0
370
    -2
100
AcDbLine
 10
2429.728923381728
 20
-351.4666287912303
 30
0.0
 11
2429.728923381728
 21
-421.8973842215042
 31
0.0
  0
LINE
  5
1DA9
330
224
100
AcDbEntity
  8
图层1
 62
     0
370
    -2
100
AcDbLine
 10
2455.478923381728
 20
-351.4666287912302
 30
0.0
 11
2455.478923381728
 21
-421.8973842215042
 31
0.0
  0
LINE
  5
1DAA
330
224
100
AcDbEntity
  8
图层1
 62
     0
370
    -2
100
AcDbLine
 10
2437.728923381728
 20
-420.6473842215043
 30
0.0
 11
2447.478923381729
 21
-420.6473842215043
 31
0.0
  0
LINE
  5
1DAB
330
224
100
AcDbEntity
  8
图层1
 62
     0
370
    -2
100
AcDbLine
 10
2455.478923381728
 20
-420.6473842215043
 30
0.0
 11
2546.728923381728
 21
-420.6473842215043
 31
0.0
  0
SOLID
  5
1DAC
330
224
100
AcDbEntity
  8
图层1
 62
     0
370
    25
100
AcDbTrace
 10
2437.728923381728
 20
-419.3140508881709
 30
0.0
 11
2437.728923381728
 21
-421.9807175548376
 31
0.0
 12
2429.728923381728
 22
-420.6473842215043
 32
0.0
 13
2429.728923381728
 23
-420.6473842215043
 33
0.0
  0
SOLID
  5
1DAD
330
224
100
AcDbEntity
  8
图层1
 62
     0
370
    25
100
AcDbTrace
 10
2447.478923381729
 20
-419.3140508881709
 30
0.0
 11
2447.478923381729
 21
-421.9807175548376
 31
0.0
 12
2455.478923381728
 22
-420.6473842215043
 32
0.0
 13
2455.478923381728
 23
-420.6473842215043
 33
0.0
  0
MTEXT
  5
1DAE
330
224
100
AcDbEntity
  8
图层1
 62
     0
370
     9
100
AcDbMText
 10
2505.103923381728
 20
-413.0223842215043
 30
0.0
 40
12.0
 41
0.0
 46
0.0
 71
     5
 72
     1
  1
25,75(1")
 73
     1
 44
1.0
  0
POINT
  5
1DAF
330
224
100
AcDbEntity
  8
Defpoints
 62
     0
370
    25
100
AcDbPoint
 10
2429.728923381728
 20
-350.4666287912303
 30
0.0
  0
POINT
  5
1DB0
330
224
100
AcDbEntity
  8
Defpoints
 62
     0
370
    25
100
AcDbPoint
 10
2455.478923381728
 20
-350.4666287912302
 30
0.0
  0
POINT
  5
1DB1
330
224
100
AcDbEntity
  8
Defpoints
 62
     0
370
    25
100
AcDbPoint
 10
2455.478923381728
 20
-420.6473842215043
 30
0.0
  0
ENDBLK
  5
22F
330
224
100
AcDbEntity
  8
0
370
     9
100
AcDbBlockEnd
  0
BLOCK
  5
2D4
330
2D1
100
AcDbEntity
  8
0
370
    25
100
AcDbBlockBegin
  2
A$C44B06F47
 70
     0
 10
0.0
 20
0.0
 30
0.0
  3
A$C44B06F47
  1

  0
LINE
  5
2D2
330
2D1
100
AcDbEntity
  8
0
  6
ACAD_ISO04W100
370
    25
100
AcDbLine
 10
32.0
 20
-37.94433962734093
 30
0.0
 11
32.0
 21
37.94433962734093
 31
0.0
  0
LINE
  5
2D3
330
2D1
100
AcDbEntity
  8
0
  6
ACAD_ISO04W100
370
    25
100
AcDbLine
 10
69.24316869480754
 20
0.0
 30
0.0
 11
-4.914369972429994
 21
0.0
 31
0.0
  0
ENDBLK
  5
2D5
330
2D1
100
AcDbEntity
  8
0
370
    25
100
AcDbBlockEnd
  0
BLOCK
  5
6A7
330
6A6
100
AcDbEntity
  8
0
370
     9
100
AcDbBlockBegin
  2
*D9
 70
     1
 10
0.0
 20
0.0
 30
0.0
  3
*D9
  1

  0
LINE
  5
6A8
330
6A6
100
AcDbEntity
  8
0
 62
     0
370
    -2
100
AcDbLine
 10
858.5283412001121
 20
950.2179938399894
 30
0.0
 11
812.0620102458975
 21
937.602885574592
 31
0.0
  0
LINE
  5
6A9
330
6A6
100
AcDbEntity
  8
0
 62
     0
370
    -2
100
AcDbLine
 10
709.7649639164799
 20
909.8303395573998
 30
0.0
 11
702.0444321180333
 21
907.734298348555
 31
0.0
  0
MTEXT
  5
6AA
330
6A6
100
AcDbEntity
  8
0
 62
     0
370
     9
100
AcDbMText
 10
841.7133934051964
 20
952.5177287495532
 30
0.0
 40
12.0
 41
0.0
 46
0.0
 71
     5
 72
     1
  1
∅90
 11
0.9650664748058236
 21
0.2620051511055852
 31
0.0
 73
     1
 44
1.0
  0
LINE
  5
6AB
330
6A6
100
AcDbEntity
  8
0
 62
     0
370
    -2
100
AcDbLine
 10
717.4854957149265
 20
911.9263807662443
 30
0.0
 11
804.341478447451
 21
935.506844365747
 31
0.0
  0
SOLID
  5
6AC
330
6A6
100
AcDbEntity
  8
0
 62
     0
370
     9
100
AcDbTrace
 10
709.4156237150057
 20
911.1170948571409
 30
0.0
 11
710.114304117954
 21
908.5435842576586
 31
0.0
 12
717.4854957149265
 22
911.9263807662443
 32
0.0
 13
717.4854957149265
 23
911.9263807662443
 33
0.0
  0
SOLID
  5
6AD
330
6A6
100
AcDbEntity
  8
0
 62
     0
370
     9
100
AcDbTrace
 10
811.7126700444234
 20
938.8896408743331
 30
0.0
 11
812.4113504473717
 21
936.3161302748508
 31
0.0
 12
804.341478447451
 22
935.506844365747
 32
0.0
 13
804.341478447451
 23
935.506844365747
 33
0.0
  0
POINT
  5
6AE
330
6A6
100
AcDbEntity
  8
Defpoints
 62
     0
370
     9
100
AcDbPoint
 10
804.341478447451
 20
935.506844365747
 30
0.0
  0
POINT
  5
6AF
330
6A6
100
AcDbEntity
  8
Defpoints
 62
     0
370
     9
100
AcDbPoint
 10
717.4854957149265
 20
911.9263807662443
 30
0.0
  0
ENDBLK
  5
6B0
330
6A6
100
AcDbEntity
  8
0
370
     9
100
AcDbBlockEnd
  0
BLOCK
  5
6B2
330
6B1
100
AcDbEntity
  8
0
370
     9
100
AcDbBlockBegin
  2
*D10
 70
     1
 10
0.0
 20
0.0
 30
0.0
  3
*D10
  1

  0
LINE
  5
6B3
330
6B1
100
AcDbEntity
  8
0
 62
     0
370
    -2
100
AcDbLine
 10
887.7722221728344
 20
896.8542274470184
 30
0.0
 11
827.3267056623753
 21
910.1461899813806
 31
0.0
  0
LINE
  5
6B4
330
6B1
100
AcDbEntity
  8
0
 62
     0
370
    -2
100
AcDbLine
 10
694.500268500002
 20
939.3547091281989
 30
0.0
 11
686.6869486669213
 21
941.0728573133059
 31
0.0
  0
MTEXT
  5
6B5
330
6B1
100
AcDbEntity
  8
0
 62
     0
370
     9
100
AcDbMText
 10
870.0280134230997
 20
907.539465200379
 30
0.0
 40
12.0
 41
0.0
 46
0.0
 71
     5
 72
     1
  1
∅120
 11
0.9766649791350991
 21
-0.2147685231383698
 31
0.0
 73
     1
 44
1.0
  0
LINE
  5
6B6
330
6B1
100
AcDbEntity
  8
0
 62
     0
370
    -2
100
AcDbLine
 10
702.3135883330828
 20
937.6365609430921
 30
0.0
 11
819.5133858292944
 21
911.8643381664876
 31
0.0
  0
SOLID
  5
6B7
330
6B1
100
AcDbEntity
  8
0
 62
     0
370
     9
100
AcDbTrace
 10
694.7866265308532
 20
940.6569291003792
 30
0.0
 11
694.2139104691509
 21
938.052489156019
 31
0.0
 12
702.3135883330828
 22
937.6365609430921
 32
0.0
 13
702.3135883330828
 23
937.6365609430921
 33
0.0
  0
SOLID
  5
6B8
330
6B1
100
AcDbEntity
  8
0
 62
     0
370
     9
100
AcDbTrace
 10
827.6130636932263
 20
911.4484099535609
 30
0.0
 11
827.0403476315241
 21
908.8439700092006
 31
0.0
 12
819.5133858292944
 22
911.8643381664876
 32
0.0
 13
819.5133858292944
 23
911.8643381664876
 33
0.0
  0
POINT
  5
6B9
330
6B1
100
AcDbEntity
  8
Defpoints
 62
     0
370
     9
100
AcDbPoint
 10
819.5133858292944
 20
911.8643381664876
 30
0.0
  0
POINT
  5
6BA
330
6B1
100
AcDbEntity
  8
Defpoints
 62
     0
370
     9
100
AcDbPoint
 10
702.3135883330828
 20
937.6365609430921
 30
0.0
  0
ENDBLK
  5
6BB
330
6B1
100
AcDbEntity
  8
0
370
     9
100
AcDbBlockEnd
  0
BLOCK
  5
6C6
330
6BC
100
AcDbEntity
  8
0
370
     9
100
AcDbBlockBegin
  2
A$C4CAF202F
 70
     0
 10
0.0
 20
0.0
 30
0.0
  3
A$C4CAF202F
  1

  0
CIRCLE
  5
6BD
102
{ACAD_REACTORS
330
6C2
102
}
330
6BC
100
AcDbEntity
  8
0
370
    25
100
AcDbCircle
 10
0.0
 20
0.0
 30
0.0
 40
60.0
  0
CIRCLE
  5
6BE
330
6BC
100
AcDbEntity
  8
0
370
    25
100
AcDbCircle
 10
0.0
 20
0.0
 30
0.0
 40
58.0
  0
CIRCLE
  5
6BF
102
{ACAD_REACTORS
330
6C5
102
}
330
6BC
100
AcDbEntity
  8
0
370
    25
100
AcDbCircle
 10
0.0
 20
-1.033836988794064
 30
0.0
 40
45.0
  0
DIMENSION
  5
6C0
102
{ACAD_XDICTIONARY
360
6C1
102
}
102
{ACAD_REACTORS
330
6C2
102
}
330
6BC
100
AcDbEntity
  8
0
370
     9
100
AcDbDimension
  2
*D10
 10
-58.59989874810572
 20
12.88611138830231
 30
0.0
 11
107.6916848761195
 21
-23.68138984118082
 31
0.0
 12
-760.9134870811885
 22
-924.7504495547898
 32
0.0
 70
   131
 71
     5
 42
119.9999999999997
 73
     0
 74
     0
 75
     0
  3
ISO-25
100
AcDbDiametricDimension
 15
58.59989874810594
 25
-12.88611138830231
 35
0.0
 40
0.0
1001
ACAD
1000
DSTYLE
1002
{
1070
   288
1070
     1
1002
}
  0
DIMENSION
  5
6C3
102
{ACAD_XDICTIONARY
360
6C4
102
}
102
{ACAD_REACTORS
330
6C5
102
}
330
6BC
100
AcDbEntity
  8
0
370
     9
100
AcDbDimension
  2
*D9
 10
-43.42799136626206
 20
-12.82406878854544
 30
0.0
 11
82.53569045008237
 21
21.37371379917488
 31
0.0
 12
-760.9134870811885
 22
-924.7504495547898
 32
0.0
 70
   131
 71
     5
 42
90.00000000000033
 73
     0
 74
     0
 75
     0
  3
ISO-25
100
AcDbDiametricDimension
 15
43.4279913662624
 25
10.75639481095731
 35
0.0
 40
0.0
1001
ACAD
1000
DSTYLE
1002
{
1070
   288
1070
     1
1002
}
  0
ENDBLK
  5
6C7
330
6BC
100
AcDbEntity
  8
0
370
     9
100
AcDbBlockEnd
  0
BLOCK
  5
83F
330
835
100
AcDbEntity
  8
0
370
     9
100
AcDbBlockBegin
  2
*D14
 70
     1
 10
0.0
 20
0.0
 30
0.0
  3
*D14
  1

  0
LINE
  5
1D9F
330
835
100
AcDbEntity
  8
图层1
 62
     0
370
    -2
100
AcDbLine
 10
2000.990866257284
 20
-58.46662879123023
 30
0.0
 11
2096.836365717244
 21
-58.46662879123026
 31
0.0
  0
LINE
  5
1DA0
330
835
100
AcDbEntity
  8
图层1
 62
     0
370
    -2
100
AcDbLine
 10
2116.128923381728
 20
56.53337120876978
 30
0.0
 11
2094.336365717244
 21
56.53337120876979
 31
0.0
  0
LINE
  5
1DA1
330
835
100
AcDbEntity
  8
图层1
 62
     0
370
    -2
100
AcDbLine
 10
2095.586365717243
 20
-50.46662879123025
 30
0.0
 11
2095.586365717243
 21
48.53337120876979
 31
0.0
  0
SOLID
  5
1DA2
330
835
100
AcDbEntity
  8
图层1
 62
     0
370
    25
100
AcDbTrace
 10
2094.25303238391
 20
-50.46662879123025
 30
0.0
 11
2096.919699050577
 21
-50.46662879123026
 31
0.0
 12
2095.586365717243
 22
-58.46662879123025
 32
0.0
 13
2095.586365717243
 23
-58.46662879123025
 33
0.0
  0
SOLID
  5
1DA3
330
835
100
AcDbEntity
  8
图层1
 62
     0
370
    25
100
AcDbTrace
 10
2094.25303238391
 20
48.53337120876979
 30
0.0
 11
2096.919699050577
 21
48.53337120876978
 31
0.0
 12
2095.586365717243
 22
56.53337120876979
 32
0.0
 13
2095.586365717243
 23
56.53337120876979
 33
0.0
  0
MTEXT
  5
1DA4
330
835
100
AcDbEntity
  8
图层1
 62
     0
370
     9
100
AcDbMText
 10
2088.961365717244
 20
-0.9666287912298972
 30
0.0
 40
12.0
 41
0.0
 46
0.0
 71
     5
 72
     1
  1
115(4.5")
 11
0.0000000000000001
 21
1.0
 31
0.0
 73
     1
 44
1.0
  0
POINT
  5
1DA5
330
835
100
AcDbEntity
  8
Defpoints
 62
     0
370
    25
100
AcDbPoint
 10
1999.990866257284
 20
-58.46662879123022
 30
0.0
  0
POINT
  5
1DA6
330
835
100
AcDbEntity
  8
Defpoints
 62
     0
370
    25
100
AcDbPoint
 10
2117.128923381728
 20
56.53337120876978
 30
0.0
  0
POINT
  5
1DA7
330
835
100
AcDbEntity
  8
Defpoints
 62
     0
370
    25
100
AcDbPoint
 10
2095.586365717243
 20
56.53337120876979
 30
0.0
  0
ENDBLK
  5
840
330
835
100
AcDbEntity
  8
0
370
     9
100
AcDbBlockEnd
  0
BLOCK
  5
160A
330
1600
100
AcDbEntity
  8
0
370
    25
100
AcDbBlockBegin
  2
*D16
 70
     1
 10
0.0
 20
0.0
 30
0.0
  3
*D16
  1

  0
LINE
  5
1DE1
330
1600
100
AcDbEntity
  8
图层1
 62
     0
370
    -2
100
AcDbLine
 10
2454.728923381728
 20
-616.6776633134436
 30
0.0
 11
2489.106413293217
 21
-616.6776633134436
 31
0.0
  0
LINE
  5
1DE2
330
1600
100
AcDbEntity
  8
图层1
 62
     0
370
    -2
100
AcDbLine
 10
2429.728923381728
 20
-870.6776633134435
 30
0.0
 11
2489.106413293217
 21
-870.6776633134435
 31
0.0
  0
LINE
  5
1DE3
330
1600
100
AcDbEntity
  8
图层1
 62
     0
370
    -2
100
AcDbLine
 10
2487.856413293217
 20
-624.6776633134436
 30
0.0
 11
2487.856413293217
 21
-862.6776633134435
 31
0.0
  0
SOLID
  5
1DE4
330
1600
100
AcDbEntity
  8
图层1
 62
     0
370
    25
100
AcDbTrace
 10
2486.523079959884
 20
-624.6776633134436
 30
0.0
 11
2489.18974662655
 21
-624.6776633134436
 31
0.0
 12
2487.856413293217
 22
-616.6776633134436
 32
0.0
 13
2487.856413293217
 23
-616.6776633134436
 33
0.0
  0
SOLID
  5
1DE5
330
1600
100
AcDbEntity
  8
图层1
 62
     0
370
    25
100
AcDbTrace
 10
2486.523079959884
 20
-862.6776633134435
 30
0.0
 11
2489.18974662655
 21
-862.6776633134435
 31
0.0
 12
2487.856413293217
 22
-870.6776633134435
 32
0.0
 13
2487.856413293217
 23
-870.6776633134435
 33
0.0
  0
MTEXT
  5
1DE6
330
1600
100
AcDbEntity
  8
图层1
 62
     0
370
     9
100
AcDbMText
 10
2481.231413293217
 20
-743.6776633134431
 30
0.0
 40
12.0
 41
0.0
 46
0.0
 71
     5
 72
     1
  1
254(10")
 11
0.0000000000000001
 21
1.0
 31
0.0
 73
     1
 44
1.0
  0
POINT
  5
1DE7
330
1600
100
AcDbEntity
  8
Defpoints
 62
     0
370
    25
100
AcDbPoint
 10
2453.728923381728
 20
-616.6776633134436
 30
0.0
  0
POINT
  5
1DE8
330
1600
100
AcDbEntity
  8
Defpoints
 62
     0
370
    25
100
AcDbPoint
 10
2428.728923381728
 20
-870.6776633134435
 30
0.0
  0
POINT
  5
1DE9
330
1600
100
AcDbEntity
  8
Defpoints
 62
     0
370
    25
100
AcDbPoint
 10
2487.856413293217
 20
-870.6776633134435
 30
0.0
  0
ENDBLK
  5
160B
330
1600
100
AcDbEntity
  8
0
370
    25
100
AcDbBlockEnd
  0
BLOCK
  5
1616
330
160C
100
AcDbEntity
  8
0
370
    25
100
AcDbBlockBegin
  2
*D17
 70
     1
 10
0.0
 20
0.0
 30
0.0
  3
*D17
  1

  0
LINE
  5
1DF3
330
160C
100
AcDbEntity
  8
图层1
 62
     0
370
    -2
100
AcDbLine
 10
2244.978923381728
 20
-877.6776633134433
 30
0.0
 11
2244.978923381728
 21
-903.8883399739315
 31
0.0
  0
LINE
  5
1DF4
330
160C
100
AcDbEntity
  8
图层1
 62
     0
370
    -2
100
AcDbLine
 10
2334.978923381728
 20
-877.6776633134431
 30
0.0
 11
2334.978923381728
 21
-903.8883399739315
 31
0.0
  0
LINE
  5
1DF5
330
160C
100
AcDbEntity
  8
图层1
 62
     0
370
    -2
100
AcDbLine
 10
2252.978923381729
 20
-902.6383399739316
 30
0.0
 11
2326.978923381728
 21
-902.6383399739316
 31
0.0
  0
SOLID
  5
1DF6
330
160C
100
AcDbEntity
  8
图层1
 62
     0
370
    25
100
AcDbTrace
 10
2252.978923381729
 20
-901.3050066405982
 30
0.0
 11
2252.978923381729
 21
-903.971673307265
 31
0.0
 12
2244.978923381728
 22
-902.6383399739316
 32
0.0
 13
2244.978923381728
 23
-902.6383399739316
 33
0.0
  0
SOLID
  5
1DF7
330
160C
100
AcDbEntity
  8
图层1
 62
     0
370
    25
100
AcDbTrace
 10
2326.978923381728
 20
-901.3050066405982
 30
0.0
 11
2326.978923381728
 21
-903.971673307265
 31
0.0
 12
2334.978923381728
 22
-902.6383399739316
 32
0.0
 13
2334.978923381728
 23
-902.6383399739316
 33
0.0
  0
MTEXT
  5
1DF8
330
160C
100
AcDbEntity
  8
图层1
 62
     0
370
     9
100
AcDbMText
 10
2289.978923381728
 20
-896.0133399739316
 30
0.0
 40
12.0
 41
0.0
 46
0.0
 71
     5
 72
     1
  1
%%c90(3.5")
 73
     1
 44
1.0
  0
POINT
  5
1DF9
330
160C
100
AcDbEntity
  8
Defpoints
 62
     0
370
    25
100
AcDbPoint
 10
2244.978923381728
 20
-876.6776633134433
 30
0.0
  0
POINT
  5
1DFA
330
160C
100
AcDbEntity
  8
Defpoints
 62
     0
370
    25
100
AcDbPoint
 10
2334.978923381728
 20
-876.6776633134432
 30
0.0
  0
POINT
  5
1DFB
330
160C
100
AcDbEntity
  8
Defpoints
 62
     0
370
    25
100
AcDbPoint
 10
2334.978923381728
 20
-902.6383399739316
 30
0.0
  0
ENDBLK
  5
1617
330
160C
100
AcDbEntity
  8
0
370
    25
100
AcDbBlockEnd
  0
BLOCK
  5
1622
330
1618
100
AcDbEntity
  8
0
370
    25
100
AcDbBlockBegin
  2
*D18
 70
     1
 10
0.0
 20
0.0
 30
0.0
  3
*D18
  1

  0
LINE
  5
1DFC
330
1618
100
AcDbEntity
  8
图层1
 62
     0
370
    -2
100
AcDbLine
 10
2232.978923381728
 20
-874.6776633134436
 30
0.0
 11
2232.978923381728
 21
-922.4946188245539
 31
0.0
  0
LINE
  5
1DFD
330
1618
100
AcDbEntity
  8
图层1
 62
     0
370
    -2
100
AcDbLine
 10
2346.978923381728
 20
-874.6776633134425
 30
0.0
 11
2346.978923381728
 21
-922.4946188245539
 31
0.0
  0
LINE
  5
1DFE
330
1618
100
AcDbEntity
  8
图层1
 62
     0
370
    -2
100
AcDbLine
 10
2240.978923381728
 20
-921.2446188245539
 30
0.0
 11
2338.978923381728
 21
-921.2446188245539
 31
0.0
  0
SOLID
  5
1DFF
330
1618
100
AcDbEntity
  8
图层1
 62
     0
370
    25
100
AcDbTrace
 10
2240.978923381728
 20
-919.9112854912206
 30
0.0
 11
2240.978923381728
 21
-922.5779521578873
 31
0.0
 12
2232.978923381728
 22
-921.2446188245539
 32
0.0
 13
2232.978923381728
 23
-921.2446188245539
 33
0.0
  0
SOLID
  5
1E00
330
1618
100
AcDbEntity
  8
图层1
 62
     0
370
    25
100
AcDbTrace
 10
2338.978923381728
 20
-919.9112854912206
 30
0.0
 11
2338.978923381728
 21
-922.5779521578873
 31
0.0
 12
2346.978923381728
 22
-921.2446188245539
 32
0.0
 13
2346.978923381728
 23
-921.2446188245539
 33
0.0
  0
MTEXT
  5
1E01
330
1618
100
AcDbEntity
  8
图层1
 62
     0
370
     9
100
AcDbMText
 10
2289.978923381728
 20
-914.6196188245539
 30
0.0
 40
12.0
 41
0.0
 46
0.0
 71
     5
 72
     1
  1
%%c114(4.5")
 73
     1
 44
1.0
  0
POINT
  5
1E02
330
1618
100
AcDbEntity
  8
Defpoints
 62
     0
370
    25
100
AcDbPoint
 10
2232.978923381728
 20
-873.6776633134436
 30
0.0
  0
POINT
  5
1E03
330
1618
100
AcDbEntity
  8
Defpoints
 62
     0
370
    25
100
AcDbPoint
 10
2346.978923381728
 20
-873.6776633134425
 30
0.0
  0
POINT
  5
1E04
330
1618
100
AcDbEntity
  8
Defpoints
 62
     0
370
    25
100
AcDbPoint
 10
2346.978923381728
 20
-921.2446188245539
 30
0.0
  0
ENDBLK
  5
1623
330
1618
100
AcDbEntity
  8
0
370
    25
100
AcDbBlockEnd
  0
BLOCK
  5
162E
330
1624
100
AcDbEntity
  8
0
370
    25
100
AcDbBlockBegin
  2
*D19
 70
     1
 10
0.0
 20
0.0
 30
0.0
  3
*D19
  1

  0
LINE
  5
1E05
330
1624
100
AcDbEntity
  8
图层1
 62
     0
370
    -2
100
AcDbLine
 10
2229.978923381728
 20
-871.6776633134434
 30
0.0
 11
2229.978923381728
 21
-942.3973750956902
 31
0.0
  0
LINE
  5
1E06
330
1624
100
AcDbEntity
  8
图层1
 62
     0
370
    -2
100
AcDbLine
 10
2349.978923381728
 20
-871.6776633134434
 30
0.0
 11
2349.978923381728
 21
-942.3973750956902
 31
0.0
  0
LINE
  5
1E07
330
1624
100
AcDbEntity
  8
图层1
 62
     0
370
    -2
100
AcDbLine
 10
2237.978923381728
 20
-941.1473750956902
 30
0.0
 11
2341.978923381728
 21
-941.1473750956902
 31
0.0
  0
SOLID
  5
1E08
330
1624
100
AcDbEntity
  8
图层1
 62
     0
370
    25
100
AcDbTrace
 10
2237.978923381728
 20
-939.8140417623569
 30
0.0
 11
2237.978923381728
 21
-942.4807084290236
 31
0.0
 12
2229.978923381728
 22
-941.1473750956902
 32
0.0
 13
2229.978923381728
 23
-941.1473750956902
 33
0.0
  0
SOLID
  5
1E09
330
1624
100
AcDbEntity
  8
图层1
 62
     0
370
    25
100
AcDbTrace
 10
2341.978923381728
 20
-939.8140417623569
 30
0.0
 11
2341.978923381728
 21
-942.4807084290236
 31
0.0
 12
2349.978923381728
 22
-941.1473750956902
 32
0.0
 13
2349.978923381728
 23
-941.1473750956902
 33
0.0
  0
MTEXT
  5
1E0A
330
1624
100
AcDbEntity
  8
图层1
 62
     0
370
     9
100
AcDbMText
 10
2289.978923381728
 20
-934.5223750956902
 30
0.0
 40
12.0
 41
0.0
 46
0.0
 71
     5
 72
     1
  1
%%c120(4.7")
 73
     1
 44
1.0
  0
POINT
  5
1E0B
330
1624
100
AcDbEntity
  8
Defpoints
 62
     0
370
    25
100
AcDbPoint
 10
2229.978923381728
 20
-870.6776633134435
 30
0.0
  0
POINT
  5
1E0C
330
1624
100
AcDbEntity
  8
Defpoints
 62
     0
370
    25
100
AcDbPoint
 10
2349.978923381728
 20
-870.6776633134435
 30
0.0
  0
POINT
  5
1E0D
330
1624
100
AcDbEntity
  8
Defpoints
 62
     0
370
    25
100
AcDbPoint
 10
2349.978923381728
 20
-941.1473750956902
 30
0.0
  0
ENDBLK
  5
162F
330
1624
100
AcDbEntity
  8
0
370
    25
100
AcDbBlockEnd
  0
ENDSEC
  0
SECTION
  2
ENTITIES
  0
LINE
  5
163
102
{ACAD_REACTORS
330
1DA
102
}
330
1F
100
AcDbEntity
  8
0
370
    25
100
AcDbLine
 10
1718.478923381728
 20
81.53337120876972
 30
0.0
 11
2455.478923381728
 21
81.53337120876972
 31
0.0
  0
LINE
  5
164
102
{ACAD_REACTORS
330
23A
102
}
330
1F
100
AcDbEntity
  8
0
370
    25
100
AcDbLine
 10
2455.478923381728
 20
81.53337120876972
 30
0.0
 11
2455.478923381728
 21
-375.4666287912303
 31
0.0
  0
LINE
  5
165
102
{ACAD_REACTORS
330
222
102
}
330
1F
100
AcDbEntity
  8
0
370
    25
100
AcDbLine
 10
2455.478923381728
 20
-375.4666287912303
 30
0.0
 11
1718.478923381728
 21
-375.4666287912303
 31
0.0
  0
LINE
  5
166
102
{ACAD_REACTORS
330
1DA
102
}
330
1F
100
AcDbEntity
  8
0
370
    25
100
AcDbLine
 10
1718.478923381728
 20
-375.4666287912303
 30
0.0
 11
1718.478923381728
 21
81.53337120876972
 31
0.0
  0
LINE
  5
16B
330
1F
100
AcDbEntity
  8
0
370
    25
100
AcDbLine
 10
1744.228923381728
 20
56.53337120876972
 30
0.0
 11
2125.228923381728
 21
56.53337120876972
 31
0.0
  0
LINE
  5
16C
102
{ACAD_REACTORS
330
1C2
102
}
330
1F
100
AcDbEntity
  8
0
370
    25
100
AcDbLine
 10
1744.228923381728
 20
-350.4666287912303
 30
0.0
 11
2125.228923381728
 21
-350.4666287912303
 31
0.0
  0
LINE
  5
171
330
1F
100
AcDbEntity
  8
0
370
    25
100
AcDbLine
 10
2150.228923381728
 20
56.53337120876972
 30
0.0
 11
2429.728923381728
 21
56.53337120876972
 31
0.0
  0
LINE
  5
172
330
1F
100
AcDbEntity
  8
0
370
    25
100
AcDbLine
 10
2150.228923381728
 20
-350.4666287912303
 30
0.0
 11
2429.728923381728
 21
-350.4666287912303
 31
0.0
  0
LINE
  5
173
102
{ACAD_REACTORS
330
192
102
}
330
1F
100
AcDbEntity
  8
0
370
    25
100
AcDbLine
 10
2150.228923381728
 20
-350.4666287912303
 30
0.0
 11
2150.228923381728
 21
56.53337120876972
 31
0.0
  0
LINE
  5
174
102
{ACAD_REACTORS
330
192
330
1C2
102
}
330
1F
100
AcDbEntity
  8
0
370
    25
100
AcDbLine
 10
2125.228923381728
 20
56.53337120876972
 30
0.0
 11
2125.228923381728
 21
-350.4666287912303
 31
0.0
  0
LINE
  5
176
102
{ACAD_REACTORS
330
1AA
330
23A
102
}
330
1F
100
AcDbEntity
  8
0
370
    25
100
AcDbLine
 10
2429.728923381728
 20
-350.4666287912303
 30
0.0
 11
2429.728923381728
 21
56.53337120876972
 31
0.0
  0
LINE
  5
177
330
1F
100
AcDbEntity
  8
0
370
    25
100
AcDbLine
 10
1744.228923381728
 20
56.53337120876972
 30
0.0
 11
1744.228923381728
 21
-350.4666287912303
 31
0.0
  0
DIMENSION
  5
17B
102
{ACAD_XDICTIONARY
360
188
102
}
102
{ACAD_REACTORS
330
192
102
}
330
1F
100
AcDbEntity
  8
图层1
370
     9
100
AcDbDimension
  2
*D1
 10
2150.228923381728
 20
-403.5625709424866
 30
0.0
 11
2184.853923381728
 21
-403.5625709424866
 31
0.0
 70
   160
  1
<>(1")
 71
     5
 42
25.0
 73
     0
 74
     0
 75
     0
  3
ISO-25
100
AcDbAlignedDimension
 13
2125.228923381728
 23
-350.4666287912303
 33
0.0
 14
2150.228923381728
 24
-350.4666287912303
 34
0.0
100
AcDbRotatedDimension
  0
DIMENSION
  5
193
102
{ACAD_XDICTIONARY
360
1A0
102
}
102
{ACAD_REACTORS
330
1AA
102
}
330
1F
100
AcDbEntity
  8
图层1
370
     9
100
AcDbDimension
  2
*D2
 10
2150.228923381728
 20
-420.6473842215044
 30
0.0
 11
2289.978923381728
 21
-413.0223842215044
 31
0.0
 70
    32
  1
<>(11")
 71
     5
 42
279.5
 73
     0
 74
     0
 75
     0
  3
ISO-25
100
AcDbAlignedDimension
 13
2429.728923381728
 23
-350.4666287912302
 33
0.0
 14
2150.228923381728
 24
-350.4666287912303
 34
0.0
100
AcDbRotatedDimension
  0
DIMENSION
  5
1AB
102
{ACAD_XDICTIONARY
360
1B8
102
}
102
{ACAD_REACTORS
330
1C2
102
}
330
1F
100
AcDbEntity
  8
图层1
370
     9
100
AcDbDimension
  2
*D3
 10
2125.228923381728
 20
-420.6473842215044
 30
0.0
 11
1934.728923381728
 21
-414.0223842215044
 31
0.0
 70
    32
  1
<>(15")
 71
     5
 42
381.0
 73
     0
 74
     0
 75
     0
  3
ISO-25
100
AcDbAlignedDimension
 13
1744.228923381728
 23
-350.4666287912303
 33
0.0
 14
2125.228923381728
 24
-350.4666287912303
 34
0.0
100
AcDbRotatedDimension
  0
DIMENSION
  5
1C3
102
{ACAD_XDICTIONARY
360
1D0
102
}
102
{ACAD_REACTORS
330
1DA
102
}
330
1F
100
AcDbEntity
  8
图层1
370
     9
100
AcDbDimension
  2
*D4
 10
1632.909660903652
 20
81.53337120876967
 30
0.0
 11
1626.284660903652
 21
-146.96662879123
 31
0.0
 70
    32
  1
<>(18")
 71
     5
 42
456.9999999999999
 73
     0
 74
     0
 75
     0
  3
ISO-25
100
AcDbAlignedDimension
 13
1718.478923381728
 23
-375.4666287912303
 33
0.0
 14
1718.478923381728
 24
81.53337120876967
 34
0.0
 50
90.0
100
AcDbRotatedDimension
  0
DIMENSION
  5
1DB
330
1F
100
AcDbEntity
  8
图层1
370
     9
100
AcDbDimension
  2
*D5
 10
1670.383076011044
 20
-350.4666287912302
 30
0.0
 11
1663.758076011044
 21
-146.9666287912299
 31
0.0
 70
    32
  1
<>(16")
 71
     5
 42
407.0
 73
     0
 74
     0
 75
     0
  3
ISO-25
100
AcDbAlignedDimension
 13
1759.678923381728
 23
56.53337120876978
 33
0.0
 14
1759.678923381728
 24
-350.4666287912302
 34
0.0
 50
90.0
100
AcDbRotatedDimension
  0
DIMENSION
  5
20B
102
{ACAD_XDICTIONARY
360
218
102
}
102
{ACAD_REACTORS
330
222
102
}
330
1F
100
AcDbEntity
  8
图层1
370
     9
100
AcDbDimension
  2
*D6
 10
1718.478923381728
 20
-463.4581308992399
 30
0.0
 11
2086.978923381728
 21
-456.8331308992399
 31
0.0
 70
    32
  1
<>(29")
 71
     5
 42
737.0
 73
     0
 74
     0
 75
     0
  3
ISO-25
100
AcDbAlignedDimension
 13
2455.478923381728
 23
-375.4666287912303
 33
0.0
 14
1718.478923381728
 24
-375.4666287912303
 34
0.0
100
AcDbRotatedDimension
  0
DIMENSION
  5
223
102
{ACAD_XDICTIONARY
360
230
102
}
102
{ACAD_REACTORS
330
23A
102
}
330
1F
100
AcDbEntity
  8
图层1
370
     9
100
AcDbDimension
  2
*D7
 10
2455.478923381728
 20
-420.6473842215043
 30
0.0
 11
2505.103923381728
 21
-413.0223842215043
 31
0.0
 70
    32
  1
<>(1")
 71
     5
 42
25.75
 73
     0
 74
     0
 75
     0
  3
ISO-25
100
AcDbAlignedDimension
 13
2429.728923381728
 23
-350.4666287912303
 33
0.0
 14
2455.478923381728
 24
-350.4666287912302
 34
0.0
100
AcDbRotatedDimension
  0
LINE
  5
2DD
102
{ACAD_REACTORS
330
84B
102
}
330
1F
100
AcDbEntity
  8
0
  6
ACAD_ISO04W100
 62
     1
370
     9
100
AcDbLine
 10
1999.990866257284
 20
-58.46662879123027
 30
0.0
 11
1869.477492625747
 21
-58.46662879123027
 31
0.0
  0
LINE
  5
2DE
330
1F
100
AcDbEntity
  8
0
  6
ACAD_ISO04W100
 62
     1
370
     9
100
AcDbLine
 10
1934.728923381728
 20
-122.6565299040776
 30
0.0
 11
1934.728923381728
 21
6.910922481409215
 31
0.0
  0
CIRCLE
  5
6FA
330
1F
100
AcDbEntity
  8
0
370
    25
100
AcDbCircle
 10
1934.728923381728
 20
-58.46662879123027
 30
0.0
 40
60.0
  0
CIRCLE
  5
6FB
330
1F
100
AcDbEntity
  8
0
370
    25
100
AcDbCircle
 10
1934.728923381728
 20
-58.46662879123016
 30
0.0
 40
45.0
  0
CIRCLE
  5
74E
330
1F
100
AcDbEntity
  8
0
370
    25
100
AcDbCircle
 10
2289.988923381728
 20
-58.46662879123027
 30
0.0
 40
60.0
  0
CIRCLE
  5
7BE
330
1F
100
AcDbEntity
  8
0
370
    25
100
AcDbCircle
 10
2289.983667321941
 20
-58.46662879123027
 30
0.0
 40
45.0
  0
CIRCLE
  5
80E
330
1F
100
AcDbEntity
  8
0
370
    25
100
AcDbCircle
 10
1934.728923381728
 20
-58.46662879123016
 30
0.0
 40
57.0
  0
CIRCLE
  5
81B
330
1F
100
AcDbEntity
  8
0
370
    25
100
AcDbCircle
 10
2289.988923381728
 20
-58.46662879123027
 30
0.0
 40
57.0
  0
LINE
  5
82D
330
1F
100
AcDbEntity
  8
0
370
     9
100
AcDbLine
 10
1934.734179441516
 20
-58.46662879123027
 30
0.0
 11
1934.733947166256
 21
-58.46770902308264
 31
0.0
  0
DIMENSION
  5
834
102
{ACAD_XDICTIONARY
360
841
102
}
102
{ACAD_REACTORS
330
84B
102
}
330
1F
100
AcDbEntity
  8
图层1
370
     9
100
AcDbDimension
  2
*D14
 10
2095.586365717243
 20
56.53337120876979
 30
0.0
 11
2088.961365717244
 21
-0.9666287912298972
 31
0.0
 70
    32
  1
<>(4.5")
 71
     5
 42
115.0
 73
     0
 74
     0
 75
     0
  3
ISO-25
100
AcDbAlignedDimension
 13
1999.990866257284
 23
-58.46662879123022
 33
0.0
 14
2117.128923381728
 24
56.53337120876978
 34
0.0
 50
90.0
100
AcDbRotatedDimension
  0
LINE
  5
A6D
330
1F
100
AcDbEntity
  8
0
  6
ACAD_ISO04W100
 62
     1
370
     9
100
AcDbLine
 10
2289.978411262154
 20
-122.6565299040776
 30
0.0
 11
2289.978411262154
 21
6.910922481409215
 31
0.0
  0
LINE
  5
A6E
330
1F
100
AcDbEntity
  8
0
  6
ACAD_ISO04W100
 62
     1
370
     9
100
AcDbLine
 10
2355.240354137709
 20
-58.46662879123027
 30
0.0
 11
2224.726980506173
 21
-58.46662879123027
 31
0.0
  0
LINE
  5
C6D
330
1F
100
AcDbEntity
  8
0
  6
ACAD_ISO04W100
 62
     1
370
     9
100
AcDbLine
 10
1706.760817398255
 20
-146.9666287912303
 30
0.0
 11
2462.176237861962
 21
-146.9666287912303
 31
0.0
  0
LINE
  5
C6E
330
1F
100
AcDbEntity
  8
0
  6
ACAD_ISO04W100
 62
     1
370
     9
100
AcDbLine
 10
2071.528923381729
 20
103.8780418483911
 30
0.0
 11
2071.528923381729
 21
-393.7953692725932
 31
0.0
  0
LINE
  5
1051
330
1F
100
AcDbEntity
  8
0
370
    25
100
AcDbLine
 10
1883.363436639116
 20
-27.45716617585185
 30
0.0
 11
1744.228923381728
 21
56.53337120876972
 31
0.0
  0
LINE
  5
1052
330
1F
100
AcDbEntity
  8
0
370
    25
100
AcDbLine
 10
2125.228923381728
 20
56.53337120876972
 30
0.0
 11
1986.09441012434
 21
-27.45716617585185
 31
0.0
  0
LINE
  5
1053
330
1F
100
AcDbEntity
  8
0
370
    25
100
AcDbLine
 10
1901.9442429015
 20
-108.7176459531679
 30
0.0
 11
1744.228923381728
 21
-350.4666287912303
 31
0.0
  0
LINE
  5
1054
330
1F
100
AcDbEntity
  8
0
370
    25
100
AcDbLine
 10
2125.228923381728
 20
-350.4666287912303
 30
0.0
 11
1967.515372344776
 21
-108.716492118343
 31
0.0
  0
LINE
  5
1055
330
1F
100
AcDbEntity
  8
0
370
    25
100
AcDbLine
 10
2150.228923381728
 20
56.53337120876972
 30
0.0
 11
2243.654582477716
 21
-20.34670154850255
 31
0.0
  0
LINE
  5
1056
330
1F
100
AcDbEntity
  8
0
370
    25
100
AcDbLine
 10
2336.31491275492
 20
-20.33655262300261
 30
0.0
 11
2429.728923381728
 21
56.53337120876972
 31
0.0
  0
LINE
  5
1057
330
1F
100
AcDbEntity
  8
0
370
    25
100
AcDbLine
 10
2429.728923381728
 20
-350.4666287912303
 30
0.0
 11
2315.882532541657
 21
-112.5916784879546
 31
0.0
  0
LINE
  5
1058
330
1F
100
AcDbEntity
  8
0
370
    25
100
AcDbLine
 10
2264.078853078501
 20
-112.5838003440918
 30
0.0
 11
2150.228923381728
 21
-350.4666287912303
 31
0.0
  0
LINE
  5
124B
102
{ACAD_REACTORS
330
1AA
330
23A
102
}
330
1F
100
AcDbEntity
  8
0
370
    25
100
AcDbLine
 10
2430.928923381728
 20
-351.6666287912301
 30
0.0
 11
2430.928923381727
 21
57.73337120876977
 31
0.0
  0
LINE
  5
124C
330
1F
100
AcDbEntity
  8
0
370
    25
100
AcDbLine
 10
2149.028923381728
 20
-351.6666287912301
 30
0.0
 11
2430.928923381728
 21
-351.6666287912301
 31
0.0
  0
LINE
  5
124D
102
{ACAD_REACTORS
330
192
102
}
330
1F
100
AcDbEntity
  8
0
370
    25
100
AcDbLine
 10
2149.028923381728
 20
-351.6666287912301
 30
0.0
 11
2149.028923381729
 21
57.73337120876977
 31
0.0
  0
LINE
  5
124E
330
1F
100
AcDbEntity
  8
0
370
    25
100
AcDbLine
 10
2149.028923381729
 20
57.73337120876977
 30
0.0
 11
2430.928923381727
 21
57.73337120876977
 31
0.0
  0
LINE
  5
124F
330
1F
100
AcDbEntity
  8
0
370
    25
100
AcDbLine
 10
1743.028923381728
 20
57.73337120876977
 30
0.0
 11
2126.428923381729
 21
57.73337120876977
 31
0.0
  0
LINE
  5
1250
102
{ACAD_REACTORS
330
192
330
1C2
102
}
330
1F
100
AcDbEntity
  8
0
370
    25
100
AcDbLine
 10
2126.428923381729
 20
57.73337120876977
 30
0.0
 11
2126.428923381728
 21
-351.6666287912302
 31
0.0
  0
LINE
  5
1251
330
1F
100
AcDbEntity
  8
0
370
    25
100
AcDbLine
 10
1743.028923381728
 20
57.73337120876977
 30
0.0
 11
1743.028923381728
 21
-351.6666287912301
 31
0.0
  0
LINE
  5
1252
102
{ACAD_REACTORS
330
1C2
102
}
330
1F
100
AcDbEntity
  8
0
370
    25
100
AcDbLine
 10
1743.028923381728
 20
-351.6666287912301
 30
0.0
 11
2126.428923381728
 21
-351.6666287912302
 31
0.0
  0
LINE
  5
1324
330
1F
100
AcDbEntity
  8
0
370
    25
100
AcDbLine
 10
1718.478923381728
 20
-616.6776633134434
 30
0.0
 11
2455.478923381728
 21
-616.6776633134434
 31
0.0
  0
LINE
  5
15A5
330
1F
100
AcDbEntity
  8
0
370
    25
100
AcDbLine
 10
1718.478923381728
 20
-617.8776633134434
 30
0.0
 11
2455.478923381728
 21
-617.8776633134434
 31
0.0
  0
LINE
  5
15A6
330
1F
100
AcDbEntity
  8
0
370
    25
100
AcDbLine
 10
1718.478923381728
 20
-617.8776633134434
 30
0.0
 11
1718.478923381728
 21
-616.6776633134434
 31
0.0
  0
LINE
  5
15A7
330
1F
100
AcDbEntity
  8
0
370
    25
100
AcDbLine
 10
2455.478923381728
 20
-617.8776633134434
 30
0.0
 11
2455.478923381728
 21
-616.6776633134434
 31
0.0
  0
LINE
  5
15AE
330
1F
100
AcDbEntity
  8
0
370
    25
100
AcDbLine
 10
1744.228923381728
 20
-617.8776633134434
 30
0.0
 11
1744.228923381728
 21
-870.6776633134435
 31
0.0
  0
LINE
  5
15AF
330
1F
100
AcDbEntity
  8
0
370
    25
100
AcDbLine
 10
2125.228923381728
 20
-617.8776633134434
 30
0.0
 11
2125.228923381728
 21
-870.6776633134435
 31
0.0
  0
LINE
  5
15B0
330
1F
100
AcDbEntity
  8
0
370
    25
100
AcDbLine
 10
1743.028923381728
 20
-617.8776633134434
 30
0.0
 11
1743.028923381728
 21
-871.8776633134435
 31
0.0
  0
LINE
  5
15B1
330
1F
100
AcDbEntity
  8
0
370
    25
100
AcDbLine
 10
2126.428923381728
 20
-617.8776633134434
 30
0.0
 11
2126.428923381728
 21
-871.8776633134435
 31
0.0
  0
LINE
  5
15B2
330
1F
100
AcDbEntity
  8
0
370
    25
100
AcDbLine
 10
1743.028923381728
 20
-871.8776633134435
 30
0.0
 11
1874.231867106881
 21
-871.8776633134435
 31
0.0
  0
LINE
  5
15B3
330
1F
100
AcDbEntity
  8
0
370
    25
100
AcDbLine
 10
1744.228923381728
 20
-870.6776633134435
 30
0.0
 11
2125.228923381728
 21
-870.6776633134435
 31
0.0
  0
LINE
  5
15B6
330
1F
100
AcDbEntity
  8
0
370
    25
100
AcDbLine
 10
2150.228923381728
 20
-617.8776633134434
 30
0.0
 11
2150.228923381728
 21
-870.6776633134435
 31
0.0
  0
LINE
  5
15B8
330
1F
100
AcDbEntity
  8
0
370
    25
100
AcDbLine
 10
2149.028923381729
 20
-617.8776633134434
 30
0.0
 11
2149.028923381729
 21
-871.8776633134435
 31
0.0
  0
LINE
  5
15B9
330
1F
100
AcDbEntity
  8
0
370
    25
100
AcDbLine
 10
2150.228923381728
 20
-870.6776633134435
 30
0.0
 11
2429.728923381728
 21
-870.6776633134435
 31
0.0
  0
LINE
  5
15BA
330
1F
100
AcDbEntity
  8
0
370
    25
100
AcDbLine
 10
2429.728923381728
 20
-870.6776633134435
 30
0.0
 11
2429.728923381728
 21
-617.8776633134434
 31
0.0
  0
LINE
  5
15BB
330
1F
100
AcDbEntity
  8
0
370
    25
100
AcDbLine
 10
2149.028923381729
 20
-871.8776633134435
 30
0.0
 11
2229.481867106881
 21
-871.8776633134435
 31
0.0
  0
LINE
  5
15BC
330
1F
100
AcDbEntity
  8
0
370
    25
100
AcDbLine
 10
2429.728923381728
 20
-871.8776633134435
 30
0.0
 11
2430.928923381728
 21
-871.8776633134435
 31
0.0
  0
LINE
  5
15BD
330
1F
100
AcDbEntity
  8
0
370
    25
100
AcDbLine
 10
2430.928923381728
 20
-871.8776633134435
 30
0.0
 11
2430.928923381728
 21
-617.8776633134434
 31
0.0
  0
LINE
  5
15FB
330
1F
100
AcDbEntity
  8
0
  6
ACAD_ISO04W100
 62
     1
 48
0.3
370
     9
100
AcDbLine
 10
2289.978923381728
 20
-885.4586925380463
 30
0.0
 11
2289.978923381728
 21
-607.223281042962
 31
0.0
  0
DIMENSION
  5
15FC
330
1F
100
AcDbEntity
  8
图层1
370
     9
100
AcDbDimension
  2
*D16
 10
2487.856413293217
 20
-870.6776633134435
 30
0.0
 11
2481.231413293217
 21
-743.6776633134431
 31
0.0
 70
    32
  1
<>(10")
 71
     5
 42
253.9999999999998
 73
     0
 74
     0
 75
     0
  3
ISO-25
100
AcDbAlignedDimension
 13
2453.728923381728
 23
-616.6776633134436
 33
0.0
 14
2428.728923381728
 24
-870.6776633134435
 34
0.0
 50
90.0
100
AcDbRotatedDimension
1001
ACAD
1000
DSTYLE
1002
{
1070
   288
1070
     1
1002
}
  0
DIMENSION
  5
15FD
330
1F
100
AcDbEntity
  8
图层1
370
     9
100
AcDbDimension
  2
*D17
 10
2334.978923381728
 20
-902.6383399739316
 30
0.0
 11
2289.978923381728
 21
-902.6383399739316
 31
0.0
 70
   160
  1
%%c<>(3.5")
 71
     5
 42
90.0
 73
     0
 74
     0
 75
     0
  3
ISO-25
100
AcDbAlignedDimension
 13
2244.978923381728
 23
-876.6776633134433
 33
0.0
 14
2334.978923381728
 24
-876.6776633134432
 34
0.0
100
AcDbRotatedDimension
1001
ACAD
1000
DSTYLE
1002
{
1070
   288
1070
     1
1002
}
  0
DIMENSION
  5
15FE
330
1F
100
AcDbEntity
  8
图层1
370
     9
100
AcDbDimension
  2
*D18
 10
2346.978923381728
 20
-921.2446188245539
 30
0.0
 11
2289.978923381728
 21
-914.6196188245539
 31
0.0
 70
    32
  1
%%c<>(4.5")
 71
     5
 42
114.0
 73
     0
 74
     0
 75
     0
  3
ISO-25
100
AcDbAlignedDimension
 13
2232.978923381728
 23
-873.6776633134436
 33
0.0
 14
2346.978923381728
 24
-873.6776633134425
 34
0.0
100
AcDbRotatedDimension
1001
ACAD
1000
DSTYLE
1002
{
1070
   288
1070
     1
1002
}
  0
DIMENSION
  5
15FF
330
1F
100
AcDbEntity
  8
图层1
370
     9
100
AcDbDimension
  2
*D19
 10
2349.978923381728
 20
-941.1473750956902
 30
0.0
 11
2289.978923381728
 21
-941.1473750956902
 31
0.0
 70
   160
  1
%%c<>(4.7")
 71
     5
 42
120.0
 73
     0
 74
     0
 75
     0
  3
ISO-25
100
AcDbAlignedDimension
 13
2229.978923381728
 23
-870.6776633134435
 33
0.0
 14
2349.978923381728
 24
-870.6776633134435
 34
0.0
100
AcDbRotatedDimension
1001
ACAD
1000
DSTYLE
1002
{
1070
   288
1070
     1
1002
}
  0
LINE
  5
166D
330
1F
100
AcDbEntity
  8
0
370
    25
100
AcDbLine
 10
2334.978923381728
 20
-876.6776633134432
 30
0.0
 11
2244.978923381728
 21
-876.6776633134433
 31
0.0
  0
LINE
  5
166E
330
1F
100
AcDbEntity
  8
0
370
    25
100
AcDbLine
 10
2229.978923381728
 20
-870.6776633134435
 30
0.0
 11
2232.978923381728
 21
-873.6776633134436
 31
0.0
  0
LINE
  5
166F
330
1F
100
AcDbEntity
  8
0
370
    25
100
AcDbLine
 10
2232.978923381728
 20
-873.6776633134436
 30
0.0
 11
2244.978923381728
 21
-876.6776633134433
 31
0.0
  0
LINE
  5
1670
330
1F
100
AcDbEntity
  8
0
370
    25
100
AcDbLine
 10
2334.978923381728
 20
-876.6776633134432
 30
0.0
 11
2346.978923381728
 21
-873.6776633134425
 31
0.0
  0
LINE
  5
1671
330
1F
100
AcDbEntity
  8
0
370
    25
100
AcDbLine
 10
2229.481867106881
 20
-871.8776633134435
 30
0.0
 11
2232.365423932178
 21
-874.7612201387415
 31
0.0
  0
LINE
  5
1672
330
1F
100
AcDbEntity
  8
0
370
    25
100
AcDbLine
 10
2232.365423932178
 20
-874.7612201387411
 30
0.0
 11
2244.831196630987
 21
-877.8776633134434
 31
0.0
  0
LINE
  5
1673
330
1F
100
AcDbEntity
  8
0
370
    25
100
AcDbLine
 10
2335.126650132469
 20
-877.8776633134434
 30
0.0
 11
2244.831196630987
 21
-877.8776633134432
 31
0.0
  0
LINE
  5
1674
330
1F
100
AcDbEntity
  8
0
370
    25
100
AcDbLine
 10
2335.126650132469
 20
-877.8776633134434
 30
0.0
 11
2347.592422831277
 21
-874.7612201387406
 31
0.0
  0
LINE
  5
1675
330
1F
100
AcDbEntity
  8
0
370
    25
100
AcDbLine
 10
2350.475979656575
 20
-871.8776633134435
 30
0.0
 11
2347.592422831278
 21
-874.7612201387402
 31
0.0
  0
LINE
  5
167E
330
1F
100
AcDbEntity
  8
0
370
    25
100
AcDbLine
 10
2349.978923381728
 20
-870.6776633134435
 30
0.0
 11
2346.978923381728
 21
-873.6776633134425
 31
0.0
  0
LINE
  5
167F
330
1F
100
AcDbEntity
  8
0
370
    25
100
AcDbLine
 10
2350.475979656576
 20
-871.8776633134435
 30
0.0
 11
2429.728923381728
 21
-871.8776633134435
 31
0.0
  0
LINE
  5
1692
330
1F
100
AcDbEntity
  8
0
370
    25
100
AcDbLine
 10
1979.728923381728
 20
-876.6776633134432
 30
0.0
 11
1889.728923381728
 21
-876.6776633134433
 31
0.0
  0
LINE
  5
1693
330
1F
100
AcDbEntity
  8
0
370
    25
100
AcDbLine
 10
1874.728923381728
 20
-870.6776633134435
 30
0.0
 11
1877.728923381728
 21
-873.6776633134436
 31
0.0
  0
LINE
  5
1694
330
1F
100
AcDbEntity
  8
0
370
    25
100
AcDbLine
 10
1877.728923381728
 20
-873.6776633134436
 30
0.0
 11
1889.728923381728
 21
-876.6776633134433
 31
0.0
  0
LINE
  5
1695
330
1F
100
AcDbEntity
  8
0
370
    25
100
AcDbLine
 10
1979.728923381728
 20
-876.6776633134432
 30
0.0
 11
1991.728923381728
 21
-873.6776633134425
 31
0.0
  0
LINE
  5
1696
330
1F
100
AcDbEntity
  8
0
370
    25
100
AcDbLine
 10
1874.231867106881
 20
-871.8776633134435
 30
0.0
 11
1877.115423932178
 21
-874.7612201387415
 31
0.0
  0
LINE
  5
1697
330
1F
100
AcDbEntity
  8
0
370
    25
100
AcDbLine
 10
1877.115423932178
 20
-874.7612201387411
 30
0.0
 11
1889.581196630987
 21
-877.8776633134434
 31
0.0
  0
LINE
  5
1698
330
1F
100
AcDbEntity
  8
0
370
    25
100
AcDbLine
 10
1979.876650132469
 20
-877.8776633134434
 30
0.0
 11
1889.581196630987
 21
-877.8776633134432
 31
0.0
  0
LINE
  5
1699
330
1F
100
AcDbEntity
  8
0
370
    25
100
AcDbLine
 10
1979.876650132469
 20
-877.8776633134434
 30
0.0
 11
1992.342422831277
 21
-874.7612201387406
 31
0.0
  0
LINE
  5
169A
330
1F
100
AcDbEntity
  8
0
370
    25
100
AcDbLine
 10
1995.225979656575
 20
-871.8776633134435
 30
0.0
 11
1992.342422831277
 21
-874.7612201387402
 31
0.0
  0
LINE
  5
169B
330
1F
100
AcDbEntity
  8
0
370
    25
100
AcDbLine
 10
1994.728923381728
 20
-870.6776633134435
 30
0.0
 11
1991.728923381728
 21
-873.6776633134425
 31
0.0
  0
LINE
  5
16A4
330
1F
100
AcDbEntity
  8
0
  6
ACAD_ISO04W100
 62
     1
 48
0.3
370
     9
100
AcDbLine
 10
1934.728923381728
 20
-885.4586925380463
 30
0.0
 11
1934.728923381728
 21
-602.9983067617811
 31
0.0
  0
LINE
  5
16A5
330
1F
100
AcDbEntity
  8
0
370
    25
100
AcDbLine
 10
1995.225979656575
 20
-871.8776633134435
 30
0.0
 11
2126.428923381728
 21
-871.8776633134435
 31
0.0
  0
LINE
  5
1858
330
1F
100
AcDbEntity
  8
0
 62
     0
370
    -3
100
AcDbLine
 10
2584.955541153855
 20
-1380.615873311183
 30
0.0
 11
1550.312085153851
 21
-1380.615873311183
 31
0.0
  0
LINE
  5
1859
330
1F
100
AcDbEntity
  8
0
 62
     0
370
    -3
100
AcDbLine
 10
2584.955541153855
 20
-1109.637825311184
 30
0.0
 11
1550.312085153851
 21
-1109.637825311184
 31
0.0
  0
LINE
  5
185A
330
1F
100
AcDbEntity
  8
0
 62
     0
370
    -3
100
AcDbLine
 10
1550.312085153851
 20
-1199.963841311187
 30
0.0
 11
2584.955541153855
 21
-1199.963841311187
 31
0.0
  0
LINE
  5
185B
330
1F
100
AcDbEntity
  8
0
 62
     0
370
    -3
100
AcDbLine
 10
1875.485742753859
 20
-1230.072513311184
 30
0.0
 11
1550.312085153851
 21
-1230.072513311184
 31
0.0
  0
LINE
  5
185C
330
1F
100
AcDbEntity
  8
0
 62
     0
370
    -3
100
AcDbLine
 10
1550.312085153851
 20
-1260.181185311183
 30
0.0
 11
1875.485742753859
 21
-1260.181185311183
 31
0.0
  0
LINE
  5
185D
330
1F
100
AcDbEntity
  8
0
 62
     0
370
    -3
100
AcDbLine
 10
2584.955541153855
 20
-1290.289857311183
 30
0.0
 11
1550.312085153851
 21
-1290.289857311183
 31
0.0
  0
LINE
  5
185E
330
1F
100
AcDbEntity
  8
0
 62
     0
370
    -3
100
AcDbLine
 10
1550.312085153851
 20
-1320.398529311183
 30
0.0
 11
1875.485742753859
 21
-1320.398529311183
 31
0.0
  0
LINE
  5
185F
330
1F
100
AcDbEntity
  8
0
 62
     0
370
    -3
100
AcDbLine
 10
1875.485742753859
 20
-1350.507201311183
 30
0.0
 11
1550.312085153851
 21
-1350.507201311183
 31
0.0
  0
LINE
  5
1860
330
1F
100
AcDbEntity
  8
0
 62
     0
370
    -3
100
AcDbLine
 10
1550.312085153851
 20
-1380.615873311183
 30
0.0
 11
1590.958792353857
 21
-1380.615873311183
 31
0.0
  0
LINE
  5
1861
330
1F
100
AcDbEntity
  8
0
 62
     0
370
    -3
100
AcDbLine
 10
1604.507694753857
 20
-1380.615873311183
 30
0.0
 11
1604.507694753857
 21
-1109.637825311184
 31
0.0
  0
LINE
  5
1862
330
1F
100
AcDbEntity
  8
0
 62
     0
370
    -3
100
AcDbLine
 10
1590.958792353857
 20
-1109.637825311184
 30
0.0
 11
1631.605499553861
 21
-1109.637825311184
 31
0.0
  0
LINE
  5
1863
330
1F
100
AcDbEntity
  8
0
 62
     0
370
    -3
100
AcDbLine
 10
1631.605499553861
 20
-1260.181185311183
 30
0.0
 11
1753.545621153855
 21
-1260.181185311183
 31
0.0
  0
LINE
  5
1864
330
1F
100
AcDbEntity
  8
0
 62
     0
370
    -3
100
AcDbLine
 10
1753.545621153855
 20
-1109.637825311184
 30
0.0
 11
1834.839035553863
 21
-1109.637825311184
 31
0.0
  0
LINE
  5
1865
330
1F
100
AcDbEntity
  8
0
 62
     0
370
    -3
100
AcDbLine
 10
1834.839035553863
 20
-1260.181185311183
 30
0.0
 11
1875.485742753859
 21
-1260.181185311183
 31
0.0
  0
LINE
  5
1866
330
1F
100
AcDbEntity
  8
0
 62
     0
370
    -3
100
AcDbLine
 10
1658.703304353852
 20
-1260.181185311183
 30
0.0
 11
1658.703304353852
 21
-1109.637825311184
 31
0.0
  0
LINE
  5
1867
330
1F
100
AcDbEntity
  8
0
 62
     0
370
    -3
100
AcDbLine
 10
1712.898913953852
 20
-1109.637825311184
 30
0.0
 11
1997.425864353843
 21
-1109.637825311184
 31
0.0
  0
LINE
  5
1868
330
1F
100
AcDbEntity
  8
0
 62
     0
370
    -3
100
AcDbLine
 10
1997.425864353843
 20
-1380.615873311183
 30
0.0
 11
2078.719278753851
 21
-1380.615873311183
 31
0.0
  0
LINE
  5
1869
330
1F
100
AcDbEntity
  8
0
 62
     0
370
    -3
100
AcDbLine
 10
2078.719278753851
 20
-1109.637825311184
 30
0.0
 11
2160.012693153853
 21
-1109.637825311184
 31
0.0
  0
LINE
  5
186A
330
1F
100
AcDbEntity
  8
0
 62
     0
370
    -3
100
AcDbLine
 10
2160.012693153853
 20
-1109.637825311184
 30
0.0
 11
2397.118485153855
 21
-1109.637825311184
 31
0.0
  0
LINE
  5
186B
330
1F
100
AcDbEntity
  8
0
 62
     0
370
    -3
100
AcDbLine
 10
1658.703304353852
 20
-1109.637825311184
 30
0.0
 11
1767.09452355386
 21
-1109.637825311184
 31
0.0
  0
LINE
  5
186C
330
1F
100
AcDbEntity
  8
0
 62
     0
370
    -3
100
AcDbLine
 10
1767.09452355386
 20
-1109.637825311184
 30
0.0
 11
1767.09452355386
 21
-1260.181185311183
 31
0.0
  0
LINE
  5
186D
330
1F
100
AcDbEntity
  8
0
 62
     0
370
    -3
100
AcDbLine
 10
1767.09452355386
 20
-1260.181185311183
 30
0.0
 11
1821.290133153855
 21
-1260.181185311183
 31
0.0
  0
LINE
  5
186E
330
1F
100
AcDbEntity
  8
0
 62
     0
370
    -3
100
AcDbLine
 10
1821.290133153855
 20
-1260.181185311183
 30
0.0
 11
1821.290133153855
 21
-1109.637825311184
 31
0.0
  0
LINE
  5
186F
330
1F
100
AcDbEntity
  8
0
 62
     0
370
    -3
100
AcDbLine
 10
1821.290133153855
 20
-1109.637825311184
 30
0.0
 11
1875.485742753859
 21
-1109.637825311184
 31
0.0
  0
LINE
  5
1870
330
1F
100
AcDbEntity
  8
0
 62
     0
370
    -3
100
AcDbLine
 10
1875.485742753859
 20
-1109.637825311184
 30
0.0
 11
1875.485742753859
 21
-1380.615873311183
 31
0.0
  0
LINE
  5
1871
330
1F
100
AcDbEntity
  8
0
 62
     0
370
    -3
100
AcDbLine
 10
2584.955541153855
 20
-1109.637825311184
 30
0.0
 11
2254.855009953855
 21
-1109.637825311184
 31
0.0
  0
LINE
  5
1872
330
1F
100
AcDbEntity
  8
0
 62
     0
370
    -3
100
AcDbLine
 10
2241.960457953859
 20
-1109.637825311184
 30
0.0
 11
2241.960457953859
 21
-1380.615873311183
 31
0.0
  0
LINE
  5
1873
330
1F
100
AcDbEntity
  8
0
 62
     0
370
    -3
100
AcDbLine
 10
2584.955541153855
 20
-1245.126849311186
 30
0.0
 11
2241.960457953859
 21
-1245.126849311186
 31
0.0
  0
LINE
  5
1874
330
1F
100
AcDbEntity
  8
0
 62
     0
370
    -3
100
AcDbLine
 10
2523.908497953854
 20
-1199.963841311184
 30
0.0
 11
2523.908497953854
 21
-1290.289857311183
 31
0.0
  0
LINE
  5
1875
330
1F
100
AcDbEntity
  8
0
 62
     0
370
    -3
100
AcDbLine
 10
2580.028667553852
 20
-1290.289857311183
 30
0.0
 11
2525.833057953859
 21
-1290.289857311183
 31
0.0
  0
LINE
  5
1876
330
1F
100
AcDbEntity
  8
0
 62
     0
370
    -3
100
AcDbLine
 10
2459.114977953849
 20
-1290.289857311183
 30
0.0
 11
2459.114977953849
 21
-1199.963841311184
 31
0.0
  0
LINE
  5
1877
330
1F
100
AcDbEntity
  8
0
 62
     0
370
    -3
100
AcDbLine
 10
2254.855009953855
 20
-1199.963841311187
 30
0.0
 11
2363.246229153849
 21
-1199.963841311187
 31
0.0
  0
LINE
  5
1878
330
1F
100
AcDbEntity
  8
0
 62
     0
370
    -3
100
AcDbLine
 10
2363.246229153849
 20
-1199.963841311187
 30
0.0
 11
2363.246229153849
 21
-1290.289857311183
 31
0.0
  0
LINE
  5
1879
330
1F
100
AcDbEntity
  8
0
 62
     0
370
    -3
100
AcDbLine
 10
1875.485742753859
 20
-1380.615873311183
 30
0.0
 11
1929.681352353854
 21
-1380.615873311183
 31
0.0
  0
LINE
  5
187A
330
1F
100
AcDbEntity
  8
0
 62
     0
370
    -3
100
AcDbLine
 10
1929.681352353854
 20
-1380.615873311183
 30
0.0
 11
1929.681352353854
 21
-1290.289857311183
 31
0.0
  0
LINE
  5
187B
330
1F
100
AcDbEntity
  8
0
 62
     0
370
    -3
100
AcDbLine
 10
1550.312085153851
 20
-1139.746196224462
 30
0.0
 11
1875.485742753859
 21
-1139.746196224462
 31
0.0
  0
LINE
  5
187C
330
1F
100
AcDbEntity
  8
0
 62
     0
370
    -3
100
AcDbLine
 10
1875.485742753859
 20
-1139.746196224462
 30
0.0
 11
1875.485742753859
 21
-1169.851857357266
 31
0.0
  0
LINE
  5
187D
330
1F
100
AcDbEntity
  8
0
 62
     0
370
    -3
100
AcDbLine
 10
1875.485742753859
 20
-1169.851857357266
 30
0.0
 11
1550.312085153851
 21
-1169.851857357266
 31
0.0
  0
LINE
  5
187E
330
1F
100
AcDbEntity
  8
0
 62
     0
370
    -3
100
AcDbLine
 10
1604.507694753857
 20
-1260.181185311183
 30
0.0
 11
1712.898913953852
 21
-1260.181185311183
 31
0.0
  0
LINE
  5
187F
330
1F
100
AcDbEntity
  8
0
 62
     0
370
    -3
100
AcDbLine
 10
1712.898913953852
 20
-1260.181185311183
 30
0.0
 11
1712.898913953852
 21
-1380.615873311183
 31
0.0
  0
LINE
  5
1880
330
1F
100
AcDbEntity
  8
0
 62
     0
370
    -3
100
AcDbLine
 10
1875.485742753859
 20
-1260.181185311183
 30
0.0
 11
1645.154401953851
 21
-1260.181185311183
 31
0.0
  0
LINE
  5
1881
330
1F
100
AcDbEntity
  8
0
 62
     0
370
    -3
100
AcDbLine
 10
1875.485742753859
 20
-1380.615873311183
 30
0.0
 11
1767.09452355386
 21
-1380.615873311183
 31
0.0
  0
LINE
  5
1882
330
1F
100
AcDbEntity
  8
0
 62
     0
370
    -3
100
AcDbLine
 10
1780.64342595385
 20
-1380.615873311183
 30
0.0
 11
1780.64342595385
 21
-1260.181185311183
 31
0.0
  0
MTEXT
  5
1883
330
1F
100
AcDbEntity
  8
0
 62
     0
370
    -3
100
AcDbMText
 10
1577.409889953849
 20
-1245.126849311185
 30
0.0
 40
13.5489024
 41
54.19560960000001
 46
0.0
 71
     5
 72
     5
  1
{\fSimSun|b0|i0|c134|p54;标记}
 73
     1
 44
1.0
  0
MTEXT
  5
1884
330
1F
100
AcDbEntity
  8
0
 62
     0
370
    -3
100
AcDbMText
 10
1631.60549955386
 20
-1245.126849311185
 30
0.0
 40
13.5489024
 41
54.19560960000001
 46
0.0
 71
     5
 72
     5
  1
{\fSimSun|b0|i0|c134|p54;处数}
 73
     1
 44
1.0
  0
MTEXT
  5
1885
330
1F
100
AcDbEntity
  8
0
 62
     0
370
    -3
100
AcDbMText
 10
1712.89891395385
 20
-1245.126849311185
 30
0.0
 40
13.5489024
 41
108.3912192
 46
0.0
 71
     5
 72
     5
  1
{\fSimSun|b0|i0|c134|p54;更改文件号}
 73
     1
 44
1.0
  0
MTEXT
  5
1886
330
1F
100
AcDbEntity
  8
0
 62
     0
370
    -3
100
AcDbMText
 10
1794.192328353851
 20
-1245.126849311185
 30
0.0
 40
13.5489024
 41
54.19560960000001
 46
0.0
 71
     5
 72
     5
  1
{\fSimSun|b0|i0|c134|p54;签 名}
 73
     1
 44
1.0
  0
MTEXT
  5
1887
330
1F
100
AcDbEntity
  8
0
 62
     0
370
    -3
100
AcDbMText
 10
1848.38793795385
 20
-1245.126849311185
 30
0.0
 40
13.5489024
 41
54.19560960000001
 46
0.0
 71
     5
 72
     5
  1
{\fSimSun|b0|i0|c134|p54;日期}
 73
     1
 44
1.0
  0
MTEXT
  5
1888
330
1F
100
AcDbEntity
  8
0
 62
     0
370
    -3
100
AcDbMText
 10
1577.409889953849
 20
-1275.235521311181
 30
0.0
 40
13.5489024
 41
54.19560960000001
 46
0.0
 71
     5
 72
     5
  1
{\fSimSun|b0|i0|c134|p54;绘图}
 73
     1
 44
1.0
  0
MTEXT
  5
1889
330
1F
100
AcDbEntity
  8
0
 62
     0
370
    -3
100
AcDbMText
 10
1746.771169953848
 20
-1275.235521311181
 30
0.0
 40
13.5489024
 41
67.744512
 46
0.0
 71
     5
 72
     5
  1
{\fSimSun|b0|i0|c134|p54;标准化}
 73
     1
 44
1.0
  0
MTEXT
  5
188A
330
1F
100
AcDbEntity
  8
0
 62
     0
370
    -3
100
AcDbMText
 10
1577.409889953849
 20
-1305.344193311182
 30
0.0
 40
13.5489024
 41
54.19560960000001
 46
0.0
 71
     5
 72
     5
  1
{\fSimSun|b0|i0|c134|p54;设计}
 73
     1
 44
1.0
  0
MTEXT
  5
188B
330
1F
100
AcDbEntity
  8
0
 62
     0
370
    -3
100
AcDbMText
 10
1577.409889953849
 20
-1335.452865311186
 30
0.0
 40
13.5489024
 41
54.19560960000001
 46
0.0
 71
     5
 72
     5
  1
{\fSimSun|b0|i0|c134|p54;审核}
 73
     1
 44
1.0
  0
MTEXT
  5
188C
330
1F
100
AcDbEntity
  8
0
 62
     0
370
    -3
100
AcDbMText
 10
1577.409889953849
 20
-1365.561537311185
 30
0.0
 40
13.5489024
 41
54.19560960000001
 46
0.0
 71
     5
 72
     5
  1
{\fSimSun|b0|i0|c134|p54;工艺}
 73
     1
 44
1.0
  0
MTEXT
  5
188D
330
1F
100
AcDbEntity
  8
0
 62
     0
370
    -3
100
AcDbMText
 10
1746.771169953848
 20
-1305.344193311182
 30
0.0
 40
13.5489024
 41
67.744512
 46
0.0
 71
     5
 72
     5
  1
{\fSimSun|b0|i0|c134|p54;校 对}
 73
     1
 44
1.0
  0
MTEXT
  5
188E
330
1F
100
AcDbEntity
  8
0
 62
     0
370
    -3
100
AcDbMText
 10
1746.771169953848
 20
-1335.452865311186
 30
0.0
 40
13.5489024
 41
67.744512
 46
0.0
 71
     5
 72
     5
  1
{\fSimSun|b0|i0|c134|p54;批 准}
 73
     1
 44
1.0
  0
MTEXT
  5
188F
330
1F
100
AcDbEntity
  8
0
 62
     0
370
    -3
100
AcDbMText
 10
1902.583547553854
 20
-1335.452865311186
 30
0.0
 40
13.5489024
 41
54.19560960000001
 46
0.0
 71
     5
 72
     5
  1
{\fSimSun|b0|i0|c134|p54;材\P料}
 73
     1
 44
1.0
  0
MTEXT
  5
1890
330
1F
100
AcDbEntity
  8
0
 62
     0
370
    -3
100
AcDbMText
 10
2309.050619553853
 20
-1222.545345311182
 30
0.0
 40
13.5489024
 41
108.3912192
 46
0.0
 71
     5
 72
     5
  1
{\fSimSun|b0|i0|c134|p54;共    张}
 73
     1
 44
1.0
  0
MTEXT
  5
1891
330
1F
100
AcDbEntity
  8
0
 62
     0
370
    -3
100
AcDbMText
 10
2309.050619553853
 20
-1267.708353311185
 30
0.0
 40
13.5489024
 41
108.3912192
 46
0.0
 71
     5
 72
     5
  1
{\fSimSun|b0|i0|c134|p54;第    张}
 73
     1
 44
1.0
  0
MTEXT
  5
1892
330
1F
100
AcDbEntity
  8
0
 62
     0
370
    -3
100
AcDbMText
 10
2408.755657953854
 20
-1222.545345311182
 30
0.0
 40
13.5489024
 41
162.5868288
 46
0.0
 71
     5
 72
     5
  1
{\fSimSun|b0|i0|c134|p54;重量}Kg
 73
     1
 44
1.0
  0
MTEXT
  5
1893
330
1F
100
AcDbEntity
  8
0
 62
     0
370
    -3
100
AcDbMText
 10
2487.021097953859
 20
-1222.545345311182
 30
0.0
 40
13.5489024
 41
54.19560960000001
 46
0.0
 71
     5
 72
     5
  1
{\fSimSun|b0|i0|c134|p54;数量}
 73
     1
 44
1.0
  0
MTEXT
  5
1894
330
1F
100
AcDbEntity
  8
0
 62
     0
370
    -3
100
AcDbMText
 10
2552.776897953854
 20
-1222.545345311182
 30
0.0
 40
13.5489024
 41
54.19560960000001
 46
0.0
 71
     5
 72
     5
  1
{\fSimSun|b0|i0|c134|p54;比例}
 73
     1
 44
1.0
  0
MTEXT
  5
1895
330
1F
100
AcDbEntity
  8
0
 62
     0
370
    -3
100
AcDbMText
 10
2411.642497953858
 20
-1335.452865311186
 30
0.0
 40
20.3233536
 41
379.3692672
 46
0.0
 71
     5
 72
     5
  1
{\fFangSong_GB2312|b0|i0|c134|p49;江门市蓬江区\P新荷不锈钢制品有限公司}
 73
     1
 44
1.0
  0
LINE
  5
1896
330
1F
100
AcDbEntity
  8
0
 62
     0
370
    -3
100
AcDbLine
 10
2584.955541153855
 20
232.1654066888177
 30
0.0
 11
2584.955541153855
 21
-1380.615873311183
 31
0.0
  0
LINE
  5
1897
330
1F
100
AcDbEntity
  8
0
 62
     0
370
    -3
100
AcDbLine
 10
2584.955541153855
 20
-1380.615873311183
 30
0.0
 11
1550.312085153851
 21
-1380.615873311183
 31
0.0
  0
LINE
  5
1898
330
1F
100
AcDbEntity
  8
0
 62
     0
370
    -3
100
AcDbLine
 10
1550.312085153851
 20
-1341.200884511185
 30
0.0
 11
1550.312085153851
 21
232.1654066888177
 31
0.0
  0
LINE
  5
1899
330
1F
100
AcDbEntity
  8
图层2
 62
     0
370
    -3
100
AcDbLine
 10
1550.312085153851
 20
-1380.615873311183
 30
0.0
 11
2584.955541153855
 21
-1380.615873311183
 31
0.0
  0
LINE
  5
189A
330
1F
100
AcDbEntity
  8
图层2
 62
     0
370
    -3
100
AcDbLine
 10
1550.312085153851
 20
-1341.200884511185
 30
0.0
 11
1550.312085153851
 21
-1380.615873311183
 31
0.0
  0
LINE
  5
189B
330
1F
100
AcDbEntity
  8
0
 62
     0
370
    -3
100
AcDbLine
 10
1550.312085153851
 20
-1341.200884511185
 30
0.0
 11
1550.312085153851
 21
-1380.615873311183
 31
0.0
  0
MTEXT
  5
189C
330
1F
100
AcDbEntity
  8
0
 62
     0
370
    18
100
AcDbMText
 10
2058.723100353859
 20
-1245.126849311185
 30
0.0
 40
21.384
 41
366.4747151999975
 46
0.0
 71
     5
 72
     5
  1
29X18X10{\fFangSong_GB2312|b0|i0|c134|p49;子母双盆}
 73
     1
 44
1.0
  0
MTEXT
  5
189D
330
1F
100
AcDbEntity
  8
0
 62
     0
370
    18
100
AcDbMText
 10
2085.820905153847
 20
-1335.452865311181
 30
0.0
 40
21.384
 41
312.2791056000032
 46
0.0
 71
     5
 72
     5
  1
SUS304
 73
     1
 44
1.0
  0
MTEXT
  5
189E
330
1F
100
AcDbEntity
  8
0
 62
     0
370
    18
100
AcDbMText
 10
2492.474017953853
 20
-1267.708353311185
 30
0.0
 40
21.384
 41
66.71808000000156
 46
0.0
 71
     5
 72
     5
  1
1
 73
     1
 44
1.0
  0
LINE
  5
189F
330
1F
100
AcDbEntity
  8
图层2
 62
     0
370
    -3
100
AcDbLine
 10
1550.312085153851
 20
232.1654066888177
 30
0.0
 11
2584.955541153855
 21
232.1654066888177
 31
0.0
  0
LINE
  5
18A0
330
1F
100
AcDbEntity
  8
0
 62
     0
370
    -3
100
AcDbLine
 10
2584.955541153855
 20
232.1654066888177
 30
0.0
 11
1550.312085153851
 21
232.1654066888177
 31
0.0
  0
ENDSEC
  0
SECTION
  2
OBJECTS
  0
DICTIONARY
  5
C
330
0
100
AcDbDictionary
281
     1
  3
ACAD_COLOR
350
6B
  3
ACAD_GROUP
350
D
  3
ACAD_LAYOUT
350
1A
  3
ACAD_MATERIAL
350
6A
  3
ACAD_MLINESTYLE
350
17
  3
ACAD_PLOTSETTINGS
350
19
  3
ACAD_PLOTSTYLENAME
350
E
  3
ACAD_TABLESTYLE
350
1E24
  3
ACAD_VISUALSTYLE
350
1E13
  3
AcDbVariableDictionary
350
5E
  0
DICTIONARY
  5
1259
330
2
100
AcDbDictionary
280
     1
281
     1
  3
ACAD_LAYERSTATES
360
125A
  0
DICTIONARY
  5
C75
330
1F
100
AcDbDictionary
280
     1
281
     1
  3
ACAD_SORTENTS
360
C76
  0
DICTIONARY
  5
6C1
330
6C0
100
AcDbDictionary
280
     1
281
     1
  3
ACAD_DIMASSOC
360
6C2
  0
DICTIONARY
  5
6C4
330
6C3
100
AcDbDictionary
280
     1
281
     1
  3
ACAD_DIMASSOC
360
6C5
  0
DICTIONARY
  5
188
330
17B
100
AcDbDictionary
280
     1
281
     1
  3
ACAD_DIMASSOC
360
192
  0
DICTIONARY
  5
1A0
330
193
100
AcDbDictionary
280
     1
281
     1
  3
ACAD_DIMASSOC
360
1AA
  0
DICTIONARY
  5
1B8
330
1AB
100
AcDbDictionary
280
     1
281
     1
  3
ACAD_DIMASSOC
360
1C2
  0
DICTIONARY
  5
1D0
330
1C3
100
AcDbDictionary
280
     1
281
     1
  3
ACAD_DIMASSOC
360
1DA
  0
DICTIONARY
  5
218
330
20B
100
AcDbDictionary
280
     1
281
     1
  3
ACAD_DIMASSOC
360
222
  0
DICTIONARY
  5
230
330
223
100
AcDbDictionary
280
     1
281
     1
  3
ACAD_DIMASSOC
360
23A
  0
DICTIONARY
  5
841
330
834
100
AcDbDictionary
280
     1
281
     1
  3
ACAD_DIMASSOC
360
84B
  0
DICTIONARY
  5
6B
102
{ACAD_REACTORS
330
C
102
}
330
C
100
AcDbDictionary
281
     1
  0
DICTIONARY
  5
D
102
{ACAD_REACTORS
330
C
102
}
330
C
100
AcDbDictionary
281
     1
  0
DICTIONARY
  5
1A
102
{ACAD_REACTORS
330
C
102
}
330
C
100
AcDbDictionary
281
     1
  3
Model
350
22
  3
布局1
350
51
  3
布局2
350
56
  0
DICTIONARY
  5
6A
102
{ACAD_REACTORS
330
C
102
}
330
C
100
AcDbDictionary
281
     1
  3
ByBlock
350
1E12
  3
ByLayer
350
1E11
  3
Global
350
1256
  0
DICTIONARY
  5
17
102
{ACAD_REACTORS
330
C
102
}
330
C
100
AcDbDictionary
281
     1
  3
Standard
350
18
  0
DICTIONARY
  5
19
102
{ACAD_REACTORS
330
C
102
}
330
C
100
AcDbDictionary
281
     1
  0
ACDBDICTIONARYWDFLT
  5
E
102
{ACAD_REACTORS
330
C
102
}
330
C
100
AcDbDictionary
281
     1
  3
Normal
350
F
100
AcDbDictionaryWithDefault
340
F
  0
DICTIONARY
  5
1E24
102
{ACAD_REACTORS
330
C
102
}
330
C
100
AcDbDictionary
281
     1
  3
Standard
350
1E25
  0
DICTIONARY
  5
1E13
102
{ACAD_REACTORS
330
C
102
}
330
C
100
AcDbDictionary
281
     1
  3
2dWireframe
350
1E19
  3
3D Hidden
350
1E1B
  3
3dWireframe
350
1E1A
  3
Basic
350
1E18
  3
Brighten
350
1E1F
  3
ColorChange
350
1E23
  3
Conceptual
350
1E1C
  3
Dim
350
1E1E
  3
Facepattern
350
1E22
  3
Flat
350
1E14
  3
FlatWithEdges
350
1E15
  3
Gouraud
350
1E16
  3
GouraudWithEdges
350
1E17
  3
Linepattern
350
1E21
  3
Realistic
350
1E1D
  3
Thicken
350
1E20
  0
DICTIONARY
  5
5E
102
{ACAD_REACTORS
330
C
102
}
330
C
100
AcDbDictionary
281
     1
  3
CTABLESTYLE
350
1E2C
  3
DIMASSOC
350
5F
  3
HIDETEXT
350
63
  0
DICTIONARY
  5
125A
102
{ACAD_REACTORS
330
1259
102
}
330
1259
100
AcDbDictionary
281
     1
  0
SORTENTSTABLE
  5
C76
102
{ACAD_REACTORS
330
C75
102
}
330
C75
100
AcDbSortentsTable
330
1F
331
C6D
  5
C6C
331
74E
  5
80E
331
2DD
  5
36B
331
1DB
  5
2A7
331
16C
  5
176
331
164
  5
171
331
A6D
  5
A6E
331
C6E
  5
C6D
331
171
  5
177
331
2DE
  5
36C
331
223
  5
2AA
331
193
  5
20B
331
165
  5
172
331
176
  5
1C3
331
A6E
  5
A74
331
80E
  5
82E
331
834
  5
853
331
172
  5
17B
331
17B
  5
1F3
331
1C3
  5
252
331
166
  5
173
331
81B
  5
831
331
177
  5
1DB
331
6FA
  5
7E0
331
173
  5
193
331
7BE
  5
81B
331
6FB
  5
7F6
331
20B
  5
2A9
331
16B
  5
174
331
82D
  5
84C
331
163
  5
16C
331
1AB
  5
223
331
174
  5
1AB
  0
DIMASSOC
  5
6C2
102
{ACAD_REACTORS
330
6C1
102
}
330
6C1
100
AcDbDimAssoc
330
6C0
 90
        2
 70
     0
 71
     0
  1
AcDbOsnapPointRef
 72
     3
331
6BD
 73
     2
 91
        0
 40
0.0
 10
0.0
 20
0.0
 30
0.0
 75
     0
  0
DIMASSOC
  5
6C5
102
{ACAD_REACTORS
330
6C4
102
}
330
6C4
100
AcDbDimAssoc
330
6C3
 90
        2
 70
     0
 71
     0
  1
AcDbOsnapPointRef
 72
     3
331
6BF
 73
     2
 91
        0
 40
0.0
 10
0.0
 20
0.0
 30
0.0
 75
     0
  0
DIMASSOC
  5
192
102
{ACAD_REACTORS
330
188
102
}
330
188
100
AcDbDimAssoc
330
17B
 90
        3
 70
     0
 71
     0
  1
AcDbOsnapPointRef
 72
     1
331
174
 73
     2
 91
        0
 40
1.0
 10
0.0
 20
0.0
 30
2.000000000000000E+50
 75
     0
  1
AcDbOsnapPointRef
 72
     8
331
173
 73
     2
 91
        0
 40
0.0
 10
0.0
 20
0.0
 30
0.0
 75
     1
  1
AcDbOsnapPointRef
 72
     1
331
174
 73
     2
 91
        0
 40
1.0
 10
0.0
 20
0.0
 30
2.000000000000000E+50
 75
     0
  0
DIMASSOC
  5
1AA
102
{ACAD_REACTORS
330
1A0
102
}
330
1A0
100
AcDbDimAssoc
330
193
 90
        1
 70
     0
 71
     0
  1
AcDbOsnapPointRef
 72
    13
331
176
 73
     2
 91
        0
 40
0.0
 10
0.0
 20
0.0
 30
2.000000000000000E+50
 75
     0
  0
DIMASSOC
  5
1C2
102
{ACAD_REACTORS
330
1B8
102
}
330
1B8
100
AcDbDimAssoc
330
1AB
 90
        3
 70
     0
 71
     0
  1
AcDbOsnapPointRef
 72
    13
331
16C
 73
     2
 91
        0
 40
0.0
 10
0.0
 20
0.0
 30
2.000000000000000E+50
 75
     0
  1
AcDbOsnapPointRef
 72
     8
331
174
 73
     2
 91
        0
 40
1.0
 10
0.0
 20
0.0
 30
0.0
 75
     1
  1
AcDbOsnapPointRef
 72
    13
331
16C
 73
     2
 91
        0
 40
0.0
 10
0.0
 20
0.0
 30
2.000000000000000E+50
 75
     0
  0
DIMASSOC
  5
1DA
102
{ACAD_REACTORS
330
1D0
102
}
330
1D0
100
AcDbDimAssoc
330
1C3
 90
        3
 70
     0
 71
     0
  1
AcDbOsnapPointRef
 72
    13
331
166
 73
     2
 91
        0
 40
0.0
 10
0.0
 20
0.0
 30
2.000000000000000E+50
 75
     0
  1
AcDbOsnapPointRef
 72
    13
331
163
 73
     2
 91
        0
 40
0.0
 10
0.0
 20
0.0
 30
2.000000000000000E+50
 75
     0
  0
DIMASSOC
  5
222
102
{ACAD_REACTORS
330
218
102
}
330
218
100
AcDbDimAssoc
330
20B
 90
        3
 70
     0
 71
     0
  1
AcDbOsnapPointRef
 72
    13
331
165
 73
     2
 91
        0
 40
0.0
 10
0.0
 20
0.0
 30
2.000000000000000E+50
 75
     0
  1
AcDbOsnapPointRef
 72
     1
331
165
 73
     2
 91
        0
 40
0.9999999999999998
 10
0.0
 20
0.0
 30
2.000000000000000E+50
 75
     0
  0
DIMASSOC
  5
23A
102
{ACAD_REACTORS
330
230
102
}
330
230
100
AcDbDimAssoc
330
223
 90
        3
 70
     0
 71
     0
  1
AcDbOsnapPointRef
 72
    13
331
176
 73
     2
 91
        0
 40
0.0
 10
0.0
 20
0.0
 30
2.000000000000000E+50
 75
     0
  1
AcDbOsnapPointRef
 72
     8
331
164
 73
     2
 91
        0
 40
0.9452954048140041
 10
0.0
 20
0.0
 30
0.0
 75
     1
  1
AcDbOsnapPointRef
 72
    13
331
176
 73
     2
 91
        0
 40
0.0
 10
0.0
 20
0.0
 30
2.000000000000000E+50
 75
     0
  0
DIMASSOC
  5
84B
102
{ACAD_REACTORS
330
841
102
}
330
841
100
AcDbDimAssoc
330
834
 90
        1
 70
     0
 71
     0
  1
AcDbOsnapPointRef
 72
    13
331
2DD
 73
     2
 91
        0
 40
0.0
 10
0.0
 20
0.0
 30
2.000000000000000E+50
 75
     0
  0
LAYOUT
  5
22
102
{ACAD_REACTORS
330
1A
102
}
330
1A
100
AcDbPlotSettings
  1

  2
none_device
  4
ANSI_A_(8.50_x_11.00_Inches)
  6

 40
6.349999904632568
 41
19.04999923706055
 42
6.350006103515625
 43
19.04998779296875
 44
215.8999938964844
 45
279.3999938964844
 46
0.0
 47
0.0
 48
0.0
 49
0.0
140
0.0
141
0.0
142
1.0
143
78.436453180766
 70
 11952
 72
     0
 73
     1
 74
     0
  7

 75
     0
147
0.0127491741332998
 76
     0
 77
     2
 78
   300
148
0.0
149
0.0
100
AcDbLayout
  1
Model
 70
     1
 71
     0
 10
0.0
 20
0.0
 11
12.0
 21
9.0
 12
0.0
 22
0.0
 32
0.0
 14
0.0
 24
0.0
 34
0.0
 15
0.0
 25
0.0
 35
0.0
146
0.0
 13
0.0
 23
0.0
 33
0.0
 16
1.0
 26
0.0
 36
0.0
 17
0.0
 27
1.0
 37
0.0
 76
     0
330
1F
331
1E0F
  0
LAYOUT
  5
51
102
{ACAD_REACTORS
330
1A
102
}
330
1A
100
AcDbPlotSettings
  1

  2
None
  4

  6

 40
0.0
 41
0.0
 42
0.0
 43
0.0
 44
0.0
 45
0.0
 46
0.0
 47
0.0
 48
0.0
 49
0.0
140
0.0
141
0.0
142
1.0
143
1.0
 70
   688
 72
     0
 73
     0
 74
     5
  7

 75
    16
147
1.0
 76
     0
 77
     2
 78
   300
148
0.0
149
0.0
100
AcDbLayout
  1
布局1
 70
     1
 71
     1
 10
0.0
 20
0.0
 11
12.0
 21
9.0
 12
0.0
 22
0.0
 32
0.0
 14
0.0
 24
0.0
 34
0.0
 15
0.0
 25
0.0
 35
0.0
146
0.0
 13
0.0
 23
0.0
 33
0.0
 16
1.0
 26
0.0
 36
0.0
 17
0.0
 27
1.0
 37
0.0
 76
     0
330
50
  0
LAYOUT
  5
56
102
{ACAD_REACTORS
330
1A
102
}
330
1A
100
AcDbPlotSettings
  1

  2
None
  4

  6

 40
0.0
 41
0.0
 42
0.0
 43
0.0
 44
0.0
 45
0.0
 46
0.0
 47
0.0
 48
0.0
 49
0.0
140
0.0
141
0.0
142
1.0
143
1.0
 70
   688
 72
     0
 73
     0
 74
     5
  7

 75
    16
147
1.0
 76
     0
 77
     2
 78
   300
148
0.0
149
0.0
100
AcDbLayout
  1
布局2
 70
     1
 71
     2
 10
0.0
 20
0.0
 11
12.0
 21
9.0
 12
0.0
 22
0.0
 32
0.0
 14
0.0
 24
0.0
 34
0.0
 15
0.0
 25
0.0
 35
0.0
146
0.0
 13
0.0
 23
0.0
 33
0.0
 16
1.0
 26
0.0
 36
0.0
 17
0.0
 27
1.0
 37
0.0
 76
     0
330
55
  0
MATERIAL
  5
1E12
102
{ACAD_REACTORS
330
6A
102
}
330
6A
100
AcDbMaterial
  1
ByBlock
  0
MATERIAL
  5
1E11
102
{ACAD_REACTORS
330
6A
102
}
330
6A
100
AcDbMaterial
  1
ByLayer
  0
MATERIAL
  5
1256
102
{ACAD_REACTORS
330
6A
102
}
330
6A
100
AcDbMaterial
  1
Global
  0
MLINESTYLE
  5
18
102
{ACAD_REACTORS
330
17
102
}
330
17
100
AcDbMlineStyle
  2
STANDARD
 70
     0
  3

 62
   256
 51
90.0
 52
90.0
 71
     2
 49
0.5
 62
   256
  6
BYLAYER
 49
-0.5
 62
   256
  6
BYLAYER
  0
ACDBPLACEHOLDER
  5
F
102
{ACAD_REACTORS
330
E
102
}
330
E
  0
TABLESTYLE
  5
1E25
102
{ACAD_REACTORS
330
1E24
102
}
330
1E24
100
AcDbTableStyle
  3
Standard
 70
     0
 71
     8
 40
1.5
 41
1.5
280
     0
281
     0
  7
Standard
140
4.5
170
     2
 62
     0
 63
     7
283
     0
 90
      512
 91
        0
  1

274
    -2
284
     1
 64
     0
275
    -2
285
     1
 65
     0
276
    -2
286
     1
 66
     0
277
    -2
287
     1
 67
     0
278
    -2
288
     1
 68
     0
279
    -2
289
     1
 69
     0
  7
Standard
140
6.0
170
     5
 62
     0
 63
     7
283
     0
 90
      512
 91
        0
  1

274
    -2
284
     1
 64
     0
275
    -2
285
     1
 65
     0
276
    -2
286
     1
 66
     0
277
    -2
287
     1
 67
     0
278
    -2
288
     1
 68
     0
279
    -2
289
     1
 69
     0
  7
Standard
140
4.5
170
     5
 62
     0
 63
     7
283
     0
 90
      512
 91
        0
  1

274
    -2
284
     1
 64
     0
275
    -2
285
     1
 65
     0
276
    -2
286
     1
 66
     0
277
    -2
287
     1
 67
     0
278
    -2
288
     1
 68
     0
279
    -2
289
     1
 69
     0
  0
VISUALSTYLE
  5
1E19
102
{ACAD_REACTORS
330
1E13
102
}
330
1E13
100
AcDbVisualStyle
  2
2dWireframe
 70
     4
 71
     0
 72
     2
 73
     0
 90
        0
 40
-0.6
 41
-30.0
 62
     5
 63
     7
421
 16777215
 74
     1
 91
        4
 64
     7
 65
   257
 75
     1
175
     1
 42
1.0
 92
        0
 66
   257
 43
1.0
 76
     1
 77
     6
 78
     2
 67
     7
 79
     5
170
     0
171
     0
290
     0
174
     0
 93
        1
 44
0.0
173
     0
291
     0
 45
0.0
  0
VISUALSTYLE
  5
1E1B
102
{ACAD_REACTORS
330
1E13
102
}
330
1E13
100
AcDbVisualStyle
  2
3D Hidden
 70
     6
 71
     1
 72
     2
 73
     2
 90
        0
 40
-0.6
 41
-30.0
 62
     5
 63
     7
421
 16777215
 74
     2
 91
        2
 64
     7
 65
   257
 75
     2
175
     1
 42
40.0
 92
        0
 66
   257
 43
1.0
 76
     1
 77
     6
 78
     2
 67
     7
 79
     3
170
     0
171
     0
290
     0
174
     0
 93
        1
 44
0.0
173
     0
291
     0
 45
0.0
  0
VISUALSTYLE
  5
1E1A
102
{ACAD_REACTORS
330
1E13
102
}
330
1E13
100
AcDbVisualStyle
  2
3dWireframe
 70
     5
 71
     0
 72
     2
 73
     0
 90
        0
 40
-0.6
 41
-30.0
 62
     5
 63
     7
421
 16777215
 74
     1
 91
        4
 64
     7
 65
   257
 75
     1
175
     1
 42
1.0
 92
        0
 66
   257
 43
1.0
 76
     1
 77
     6
 78
     2
 67
     7
 79
     5
170
     0
171
     0
290
     0
174
     0
 93
        1
 44
0.0
173
     0
291
     0
 45
0.0
  0
VISUALSTYLE
  5
1E18
102
{ACAD_REACTORS
330
1E13
102
}
330
1E13
100
AcDbVisualStyle
  2
Basic
 70
     7
 71
     1
 72
     0
 73
     1
 90
        0
 40
-0.6
 41
-30.0
 62
     5
 63
     7
421
 16777215
 74
     0
 91
        4
 64
     7
 65
   257
 75
     1
175
     1
 42
1.0
 92
        8
 66
     7
 43
1.0
 76
     1
 77
     6
 78
     2
 67
     7
 79
     5
170
     0
171
     0
290
     0
174
     0
 93
        1
 44
0.0
173
     0
291
     1
 45
0.0
  0
VISUALSTYLE
  5
1E1F
102
{ACAD_REACTORS
330
1E13
102
}
330
1E13
100
AcDbVisualStyle
  2
Brighten
 70
    12
 71
     2
 72
     2
 73
     0
 90
        0
 40
-0.6
 41
-30.0
 62
     5
 63
     7
421
 16777215
 74
     1
 91
        4
 64
     7
 65
   257
 75
     1
175
     1
 42
1.0
 92
        8
 66
     7
 43
1.0
 76
     1
 77
     6
 78
     2
 67
     7
 79
     5
170
     0
171
     0
290
     0
174
     0
 93
        1
 44
50.0
173
     0
291
     1
 45
0.0
  0
VISUALSTYLE
  5
1E23
102
{ACAD_REACTORS
330
1E13
102
}
330
1E13
100
AcDbVisualStyle
  2
ColorChange
 70
    16
 71
     2
 72
     2
 73
     3
 90
        0
 40
-0.6
 41
-30.0
 62
     5
 63
     8
421
  8421504
 74
     1
 91
        4
 64
     7
 65
   257
 75
     1
175
     1
 42
1.0
 92
        8
 66
     8
424
  8421504
 43
1.0
 76
     1
 77
     6
 78
     2
 67
     7
 79
     5
170
     0
171
     0
290
     0
174
     0
 93
        1
 44
0.0
173
     0
291
     1
 45
0.0
  0
VISUALSTYLE
  5
1E1C
102
{ACAD_REACTORS
330
1E13
102
}
330
1E13
100
AcDbVisualStyle
  2
Conceptual
 70
     9
 71
     3
 72
     2
 73
     0
 90
        0
 40
-0.6
 41
-30.0
 62
     5
 63
     7
421
 16777215
 74
     2
 91
        2
 64
     7
 65
   257
 75
     1
175
     1
 42
40.0
 92
        8
 66
     7
 43
1.0
 76
     1
 77
     6
 78
     2
 67
     7
 79
     3
170
     0
171
     0
290
     0
174
     0
 93
        1
 44
0.0
173
     0
291
     0
 45
0.0
  0
VISUALSTYLE
  5
1E1E
102
{ACAD_REACTORS
330
1E13
102
}
330
1E13
100
AcDbVisualStyle
  2
Dim
 70
    11
 71
     2
 72
     2
 73
     0
 90
        0
 40
-0.6
 41
-30.0
 62
     5
 63
     7
421
 16777215
 74
     1
 91
        4
 64
     7
 65
   257
 75
     1
175
     1
 42
1.0
 92
        8
 66
     7
 43
1.0
 76
     1
 77
     6
 78
     2
 67
     7
 79
     5
170
     0
171
     0
290
     0
174
     0
 93
        1
 44
-50.0
173
     0
291
     1
 45
0.0
  0
VISUALSTYLE
  5
1E22
102
{ACAD_REACTORS
330
1E13
102
}
330
1E13
100
AcDbVisualStyle
  2
Facepattern
 70
    15
 71
     2
 72
     2
 73
     0
 90
        0
 40
-0.6
 41
-30.0
 62
     5
 63
     7
421
 16777215
 74
     1
 91
        4
 64
     7
 65
   257
 75
     1
175
     1
 42
1.0
 92
        8
 66
     7
 43
1.0
 76
     1
 77
     6
 78
     2
 67
     7
 79
     5
170
     0
171
     0
290
     0
174
     0
 93
        1
 44
0.0
173
     0
291
     1
 45
0.0
  0
VISUALSTYLE
  5
1E14
102
{ACAD_REACTORS
330
1E13
102
}
330
1E13
100
AcDbVisualStyle
  2
Flat
 70
     0
 71
     2
 72
     1
 73
     1
 90
        2
 40
-0.6
 41
30.0
 62
     5
 63
     7
421
 16777215
 74
     0
 91
        4
 64
     7
 65
   257
 75
     1
175
     1
 42
1.0
 92
        8
 66
     7
 43
1.0
 76
     1
 77
     6
 78
     2
 67
     7
 79
     5
170
     0
171
     0
290
     0
174
     0
 93
       13
 44
0.0
173
     0
291
     1
 45
0.0
  0
VISUALSTYLE
  5
1E15
102
{ACAD_REACTORS
330
1E13
102
}
330
1E13
100
AcDbVisualStyle
  2
FlatWithEdges
 70
     1
 71
     2
 72
     1
 73
     1
 90
        2
 40
-0.6
 41
30.0
 62
     5
 63
     7
421
 16777215
 74
     1
 91
        4
 64
     7
 65
   257
 75
     1
175
     1
 42
1.0
 92
        0
 66
   257
 43
1.0
 76
     1
 77
     6
 78
     2
 67
     7
 79
     5
170
     0
171
     0
290
     0
174
     0
 93
       13
 44
0.0
173
     0
291
     1
 45
0.0
  0
VISUALSTYLE
  5
1E16
102
{ACAD_REACTORS
330
1E13
102
}
330
1E13
100
AcDbVisualStyle
  2
Gouraud
 70
     2
 71
     2
 72
     2
 73
     1
 90
        2
 40
-0.6
 41
30.0
 62
     5
 63
     7
421
 16777215
 74
     0
 91
        4
 64
     7
 65
   257
 75
     1
175
     1
 42
1.0
 92
        0
 66
     7
 43
1.0
 76
     1
 77
     6
 78
     2
 67
     7
 79
     5
170
     0
171
     0
290
     0
174
     0
 93
       13
 44
0.0
173
     0
291
     1
 45
0.0
  0
VISUALSTYLE
  5
1E17
102
{ACAD_REACTORS
330
1E13
102
}
330
1E13
100
AcDbVisualStyle
  2
GouraudWithEdges
 70
     3
 71
     2
 72
     2
 73
     1
 90
        2
 40
-0.6
 41
30.0
 62
     5
 63
     7
421
 16777215
 74
     1
 91
        4
 64
     7
 65
   257
 75
     1
175
     1
 42
1.0
 92
        0
 66
   257
 43
1.0
 76
     1
 77
     6
 78
     2
 67
     7
 79
     5
170
     0
171
     0
290
     0
174
     0
 93
       13
 44
0.0
173
     0
291
     1
 45
0.0
  0
VISUALSTYLE
  5
1E21
102
{ACAD_REACTORS
330
1E13
102
}
330
1E13
100
AcDbVisualStyle
  2
Linepattern
 70
    14
 71
     2
 72
     2
 73
     0
 90
        0
 40
-0.6
 41
-30.0
 62
     5
 63
     7
421
 16777215
 74
     1
 91
        4
 64
     7
 65
   257
 75
     7
175
     7
 42
1.0
 92
        8
 66
     7
 43
1.0
 76
     1
 77
     6
 78
     2
 67
     7
 79
     5
170
     0
171
     0
290
     0
174
     0
 93
        1
 44
0.0
173
     0
291
     1
 45
0.0
  0
VISUALSTYLE
  5
1E1D
102
{ACAD_REACTORS
330
1E13
102
}
330
1E13
100
AcDbVisualStyle
  2
Realistic
 70
     8
 71
     2
 72
     2
 73
     0
 90
        0
 40
-0.6
 41
-30.0
 62
     5
 63
     7
421
 16777215
 74
     1
 91
        0
 64
     7
 65
   257
 75
     1
175
     1
 42
1.0
 92
        8
 66
     8
424
  7895160
 43
1.0
 76
     1
 77
     6
 78
     2
 67
     7
 79
     5
170
     0
171
     0
290
     0
174
     0
 93
       13
 44
0.0
173
     0
291
     0
 45
0.0
  0
VISUALSTYLE
  5
1E20
102
{ACAD_REACTORS
330
1E13
102
}
330
1E13
100
AcDbVisualStyle
  2
Thicken
 70
    13
 71
     2
 72
     2
 73
     0
 90
        0
 40
-0.6
 41
-30.0
 62
     5
 63
     7
421
 16777215
 74
     1
 91
        4
 64
     7
 65
   257
 75
     1
175
     1
 42
1.0
 92
       12
 66
     7
 43
1.0
 76
     1
 77
     6
 78
     2
 67
     7
 79
     5
170
     0
171
     0
290
     0
174
     0
 93
        1
 44
0.0
173
     0
291
     1
 45
0.0
  0
DICTIONARYVAR
  5
1E2C
102
{ACAD_REACTORS
330
5E
102
}
330
5E
100
DictionaryVariables
280
     0
  1
STANDARD
  0
DICTIONARYVAR
  5
5F
102
{ACAD_REACTORS
330
5E
102
}
330
5E
100
DictionaryVariables
280
     0
  1
2
  0
DICTIONARYVAR
  5
63
102
{ACAD_REACTORS
330
5E
102
}
330
5E
100
DictionaryVariables
280
     0
  1
1
  0
ENDSEC
  0
EOF
