  0
SECTION
  2
HEADER
  9
$ACADVER
  1
AC1021
  9
$ACADMAINTVER
 70
     1
  9
$DWGCODEPAGE
  3
ANSI_936
  9
$LASTSAVEDBY
  1
Administrator
  9
$INSBASE
 10
0.0
 20
0.0
 30
0.0
  9
$EXTMIN
 10
10039.34840000356
 20
920.8933646227199
 30
0.0
  9
$EXTMAX
 10
11853.13152857072
 20
1548.187170909745
 30
0.0
  9
$LIMMIN
 10
0.0
 20
0.0
  9
$LIMMAX
 10
420.0
 20
297.0
  9
$ORTHOMODE
 70
     0
  9
$REGENMODE
 70
     1
  9
$FILLMODE
 70
     1
  9
$QTEXTMODE
 70
     0
  9
$MIRRTEXT
 70
     0
  9
$LTSCALE
 40
1.0
  9
$ATTMODE
 70
     1
  9
$TEXTSIZE
 40
2.5
  9
$TRACEWID
 40
1.0
  9
$TEXTSTYLE
  7
Standard
  9
$CLAYER
  8
0
  9
$CELTYPE
  6
ByLayer
  9
$CECOLOR
 62
   256
  9
$CELTSCALE
 40
1.0
  9
$DISPSILH
 70
     0
  9
$DIMSCALE
 40
1.0
  9
$DIMASZ
 40
2.5
  9
$DIMEXO
 40
0.625
  9
$DIMDLI
 40
3.75
  9
$DIMRND
 40
0.0
  9
$DIMDLE
 40
0.0
  9
$DIMEXE
 40
1.25
  9
$DIMTP
 40
0.0
  9
$DIMTM
 40
0.0
  9
$DIMTXT
 40
2.5
  9
$DIMCEN
 40
2.5
  9
$DIMTSZ
 40
0.0
  9
$DIMTOL
 70
     0
  9
$DIMLIM
 70
     0
  9
$DIMTIH
 70
     0
  9
$DIMTOH
 70
     0
  9
$DIMSE1
 70
     0
  9
$DIMSE2
 70
     0
  9
$DIMTAD
 70
     1
  9
$DIMZIN
 70
     8
  9
$DIMBLK
  1

  9
$DIMASO
 70
     1
  9
$DIMSHO
 70
     1
  9
$DIMPOST
  1

  9
$DIMAPOST
  1

  9
$DIMALT
 70
     0
  9
$DIMALTD
 70
     3
  9
$DIMALTF
 40
0.03937007874016
  9
$DIMLFAC
 40
1.0
  9
$DIMTOFL
 70
     1
  9
$DIMTVP
 40
0.0
  9
$DIMTIX
 70
     0
  9
$DIMSOXD
 70
     0
  9
$DIMSAH
 70
     0
  9
$DIMBLK1
  1

  9
$DIMBLK2
  1

  9
$DIMSTYLE
  2
ISO-25
  9
$DIMCLRD
 70
     0
  9
$DIMCLRE
 70
     0
  9
$DIMCLRT
 70
     0
  9
$DIMTFAC
 40
1.0
  9
$DIMGAP
 40
0.625
  9
$DIMJUST
 70
     0
  9
$DIMSD1
 70
     0
  9
$DIMSD2
 70
     0
  9
$DIMTOLJ
 70
     0
  9
$DIMTZIN
 70
     8
  9
$DIMALTZ
 70
     0
  9
$DIMALTTZ
 70
     0
  9
$DIMUPT
 70
     0
  9
$DIMDEC
 70
     2
  9
$DIMTDEC
 70
     2
  9
$DIMALTU
 70
     2
  9
$DIMALTTD
 70
     3
  9
$DIMTXSTY
  7
Standard
  9
$DIMAUNIT
 70
     0
  9
$DIMADEC
 70
     0
  9
$DIMALTRND
 40
0.0
  9
$DIMAZIN
 70
     0
  9
$DIMDSEP
 70
    44
  9
$DIMATFIT
 70
     3
  9
$DIMFRAC
 70
     0
  9
$DIMLDRBLK
  1

  9
$DIMLUNIT
 70
     2
  9
$DIMLWD
 70
    -2
  9
$DIMLWE
 70
    -2
  9
$DIMTMOVE
 70
     0
  9
$DIMFXL
 40
1.0
  9
$DIMFXLON
 70
     0
  9
$DIMJOGANG
 40
0.7853981633974483
  9
$DIMTFILL
 70
     0
  9
$DIMTFILLCLR
 70
     0
  9
$DIMARCSYM
 70
     0
  9
$DIMLTYPE
  6

  9
$DIMLTEX1
  6

  9
$DIMLTEX2
  6

  9
$LUNITS
 70
     2
  9
$LUPREC
 70
     4
  9
$SKETCHINC
 40
1.0
  9
$FILLETRAD
 40
0.0
  9
$AUNITS
 70
     0
  9
$AUPREC
 70
     0
  9
$MENU
  1
.
  9
$ELEVATION
 40
0.0
  9
$PELEVATION
 40
0.0
  9
$THICKNESS
 40
0.0
  9
$LIMCHECK
 70
     0
  9
$CHAMFERA
 40
0.0
  9
$CHAMFERB
 40
0.0
  9
$CHAMFERC
 40
0.0
  9
$CHAMFERD
 40
0.0
  9
$SKPOLY
 70
     0
  9
$TDCREATE
 40
2458664.574196528
  9
$TDUCREATE
 40
2458664.240863194
  9
$TDUPDATE
 40
2458664.595560440
  9
$TDUUPDATE
 40
2458664.262227106
  9
$TDINDWG
 40
0.0211660069
  9
$TDUSRTIMER
 40
0.0211658449
  9
$USRTIMER
 70
     1
  9
$ANGBASE
 50
0.0
  9
$ANGDIR
 70
     0
  9
$PDMODE
 70
     0
  9
$PDSIZE
 40
0.0
  9
$PLINEWID
 40
0.0
  9
$SPLFRAME
 70
     0
  9
$SPLINETYPE
 70
     6
  9
$SPLINESEGS
 70
     8
  9
$HANDSEED
  5
877
  9
$SURFTAB1
 70
     6
  9
$SURFTAB2
 70
     6
  9
$SURFTYPE
 70
     6
  9
$SURFU
 70
     6
  9
$SURFV
 70
     6
  9
$UCSBASE
  2

  9
$UCSNAME
  2

  9
$UCSORG
 10
0.0
 20
0.0
 30
0.0
  9
$UCSXDIR
 10
1.0
 20
0.0
 30
0.0
  9
$UCSYDIR
 10
0.0
 20
1.0
 30
0.0
  9
$UCSORTHOREF
  2

  9
$UCSORTHOVIEW
 70
     0
  9
$UCSORGTOP
 10
0.0
 20
0.0
 30
0.0
  9
$UCSORGBOTTOM
 10
0.0
 20
0.0
 30
0.0
  9
$UCSORGLEFT
 10
0.0
 20
0.0
 30
0.0
  9
$UCSORGRIGHT
 10
0.0
 20
0.0
 30
0.0
  9
$UCSORGFRONT
 10
0.0
 20
0.0
 30
0.0
  9
$UCSORGBACK
 10
0.0
 20
0.0
 30
0.0
  9
$PUCSBASE
  2

  9
$PUCSNAME
  2

  9
$PUCSORG
 10
0.0
 20
0.0
 30
0.0
  9
$PUCSXDIR
 10
1.0
 20
0.0
 30
0.0
  9
$PUCSYDIR
 10
0.0
 20
1.0
 30
0.0
  9
$PUCSORTHOREF
  2

  9
$PUCSORTHOVIEW
 70
     0
  9
$PUCSORGTOP
 10
0.0
 20
0.0
 30
0.0
  9
$PUCSORGBOTTOM
 10
0.0
 20
0.0
 30
0.0
  9
$PUCSORGLEFT
 10
0.0
 20
0.0
 30
0.0
  9
$PUCSORGRIGHT
 10
0.0
 20
0.0
 30
0.0
  9
$PUCSORGFRONT
 10
0.0
 20
0.0
 30
0.0
  9
$PUCSORGBACK
 10
0.0
 20
0.0
 30
0.0
  9
$USERI1
 70
     0
  9
$USERI2
 70
     0
  9
$USERI3
 70
     0
  9
$USERI4
 70
     0
  9
$USERI5
 70
     0
  9
$USERR1
 40
0.0
  9
$USERR2
 40
0.0
  9
$USERR3
 40
0.0
  9
$USERR4
 40
0.0
  9
$USERR5
 40
0.0
  9
$WORLDVIEW
 70
     1
  9
$SHADEDGE
 70
     3
  9
$SHADEDIF
 70
    70
  9
$TILEMODE
 70
     1
  9
$MAXACTVP
 70
    64
  9
$PINSBASE
 10
0.0
 20
0.0
 30
0.0
  9
$PLIMCHECK
 70
     0
  9
$PEXTMIN
 10
0.0
 20
0.0
 30
0.0
  9
$PEXTMAX
 10
0.0
 20
0.0
 30
0.0
  9
$PLIMMIN
 10
0.0
 20
0.0
  9
$PLIMMAX
 10
12.0
 20
9.0
  9
$UNITMODE
 70
     0
  9
$VISRETAIN
 70
     1
  9
$PLINEGEN
 70
     0
  9
$PSLTSCALE
 70
     1
  9
$TREEDEPTH
 70
  3020
  9
$CMLSTYLE
  2
Standard
  9
$CMLJUST
 70
     0
  9
$CMLSCALE
 40
20.0
  9
$PROXYGRAPHICS
 70
     1
  9
$MEASUREMENT
 70
     1
  9
$CELWEIGHT
370
    -1
  9
$ENDCAPS
280
     0
  9
$JOINSTYLE
280
     0
  9
$LWDISPLAY
290
     0
  9
$INSUNITS
 70
     4
  9
$HYPERLINKBASE
  1

  9
$STYLESHEET
  1

  9
$XEDIT
290
     1
  9
$CEPSNTYPE
380
     0
  9
$PSTYLEMODE
290
     1
  9
$FINGERPRINTGUID
  2
{3280A54A-0D4D-4235-9E87-8FDE41611644}
  9
$VERSIONGUID
  2
{8B6D8EDD-4F2D-4017-9E61-30C1A0688799}
  9
$EXTNAMES
290
     1
  9
$PSVPSCALE
 40
0.0
  9
$OLESTARTUP
290
     0
  9
$SORTENTS
280
   127
  9
$INDEXCTL
280
     0
  9
$HIDETEXT
280
     1
  9
$XCLIPFRAME
290
     0
  9
$HALOGAP
280
     0
  9
$OBSCOLOR
 70
   257
  9
$OBSLTYPE
280
     0
  9
$INTERSECTIONDISPLAY
280
     0
  9
$INTERSECTIONCOLOR
 70
   257
  9
$DIMASSOC
280
     2
  9
$PROJECTNAME
  1

  9
$CAMERADISPLAY
290
     0
  9
$LENSLENGTH
 40
50.0
  9
$CAMERAHEIGHT
 40
0.0
  9
$STEPSPERSEC
 40
2.0
  9
$STEPSIZE
 40
6.0
  9
$3DDWFPREC
 40
2.0
  9
$PSOLWIDTH
 40
5.0
  9
$PSOLHEIGHT
 40
80.0
  9
$LOFTANG1
 40
1.570796326794896
  9
$LOFTANG2
 40
1.570796326794896
  9
$LOFTMAG1
 40
0.0
  9
$LOFTMAG2
 40
0.0
  9
$LOFTPARAM
 70
     7
  9
$LOFTNORMALS
280
     1
  9
$LATITUDE
 40
37.795
  9
$LONGITUDE
 40
-122.394
  9
$NORTHDIRECTION
 40
0.0
  9
$TIMEZONE
 70
 -8000
  9
$LIGHTGLYPHDISPLAY
280
     1
  9
$TILEMODELIGHTSYNCH
280
     1
  9
$CMATERIAL
347
ED
  9
$SOLIDHIST
280
     1
  9
$SHOWHIST
280
     1
  9
$DWFFRAME
280
     2
  9
$DGNFRAME
280
     0
  9
$REALWORLDSCALE
290
     1
  9
$INTERFERECOLOR
 62
     1
  9
$INTERFEREOBJVS
345
FA
  9
$INTERFEREVPVS
346
F7
  9
$CSHADOW
280
     0
  9
$SHADOWPLANELOCATION
 40
0.0
  0
ENDSEC
  0
SECTION
  2
CLASSES
  0
CLASS
  1
ACDBDICTIONARYWDFLT
  2
AcDbDictionaryWithDefault
  3
ObjectDBX Classes
 90
        0
 91
        1
280
     0
281
     0
  0
CLASS
  1
DICTIONARYVAR
  2
AcDbDictionaryVar
  3
ObjectDBX Classes
 90
        0
 91
        3
280
     0
281
     0
  0
CLASS
  1
TABLESTYLE
  2
AcDbTableStyle
  3
ObjectDBX Classes
 90
     4095
 91
        1
280
     0
281
     0
  0
CLASS
  1
MATERIAL
  2
AcDbMaterial
  3
ObjectDBX Classes
 90
     1024
 91
        3
280
     0
281
     0
  0
CLASS
  1
VISUALSTYLE
  2
AcDbVisualStyle
  3
ObjectDBX Classes
 90
     4095
 91
       16
280
     0
281
     0
  0
CLASS
  1
DIMASSOC
  2
AcDbDimAssoc
  3
"AcDbDimAssoc|Product Desc:     AcDim ARX App For Dimension|Company:          Autodesk, Inc.|WEB Address:      www.autodesk.com"
 90
        0
 91
       61
280
     0
281
     0
  0
ENDSEC
  0
SECTION
  2
TABLES
  0
TABLE
  2
VPORT
  5
8
330
0
100
AcDbSymbolTable
 70
     1
  0
VPORT
  5
EB
330
8
100
AcDbSymbolTableRecord
100
AcDbViewportTableRecord
  2
*Active
 70
     0
 10
0.0
 20
0.0
 11
1.0
 21
1.0
 12
11097.34787851498
 22
1072.4228134862
 13
0.0
 23
0.0
 14
10.0
 24
10.0
 15
10.0
 25
10.0
 16
0.0
 26
0.0
 36
1.0
 17
0.0
 27
0.0
 37
0.0
 40
1051.639243058698
 41
2.153968253968253
 42
50.0
 43
0.0
 44
0.0
 50
0.0
 51
0.0
 71
     0
 72
  1000
 73
     1
 74
     3
 75
     0
 76
     0
 77
     0
 78
     0
281
     0
 65
     1
110
0.0
120
0.0
130
0.0
111
1.0
121
0.0
131
0.0
112
0.0
122
1.0
132
0.0
 79
     0
146
0.0
348
F6
 60
     2
 61
     5
292
     1
282
     1
141
0.0
142
0.0
 63
   250
421
  3355443
  0
ENDTAB
  0
TABLE
  2
LTYPE
  5
5
330
0
100
AcDbSymbolTable
 70
     1
  0
LTYPE
  5
14
330
5
100
AcDbSymbolTableRecord
100
AcDbLinetypeTableRecord
  2
ByBlock
 70
     0
  3

 72
    65
 73
     0
 40
0.0
  0
LTYPE
  5
15
330
5
100
AcDbSymbolTableRecord
100
AcDbLinetypeTableRecord
  2
ByLayer
 70
     0
  3

 72
    65
 73
     0
 40
0.0
  0
LTYPE
  5
16
330
5
100
AcDbSymbolTableRecord
100
AcDbLinetypeTableRecord
  2
Continuous
 70
     0
  3
Solid line
 72
    65
 73
     0
 40
0.0
  0
ENDTAB
  0
TABLE
  2
LAYER
  5
2
102
{ACAD_XDICTIONARY
360
14E
102
}
330
0
100
AcDbSymbolTable
 70
    11
  0
LAYER
  5
10
330
2
100
AcDbSymbolTableRecord
100
AcDbLayerTableRecord
  2
0
 70
     0
 62
     7
  6
Continuous
370
    -3
390
F
347
EF
  0
LAYER
  5
123
330
2
100
AcDbSymbolTableRecord
100
AcDbLayerTableRecord
  2
layer2
 70
     0
 62
     1
  6
Continuous
370
    -3
390
F
347
EF
  0
LAYER
  5
124
330
2
100
AcDbSymbolTableRecord
100
AcDbLayerTableRecord
  2
layer3
 70
     0
 62
     2
  6
Continuous
370
    -3
390
F
347
EF
  0
LAYER
  5
125
330
2
100
AcDbSymbolTableRecord
100
AcDbLayerTableRecord
  2
layer4
 70
     0
 62
     3
  6
Continuous
370
    -3
390
F
347
EF
  0
LAYER
  5
126
330
2
100
AcDbSymbolTableRecord
100
AcDbLayerTableRecord
  2
layer5
 70
     0
 62
     5
  6
Continuous
370
    -3
390
F
347
EF
  0
LAYER
  5
127
330
2
100
AcDbSymbolTableRecord
100
AcDbLayerTableRecord
  2
layer6
 70
     0
 62
   140
  6
Continuous
370
    -3
390
F
347
EF
  0
LAYER
  5
128
330
2
100
AcDbSymbolTableRecord
100
AcDbLayerTableRecord
  2
layer7
 70
     0
 62
    30
  6
Continuous
370
    -3
390
F
347
EF
  0
LAYER
  5
129
330
2
100
AcDbSymbolTableRecord
100
AcDbLayerTableRecord
  2
layer8
 70
     0
 62
    60
  6
Continuous
370
    -3
390
F
347
EF
  0
LAYER
  5
12A
330
2
100
AcDbSymbolTableRecord
100
AcDbLayerTableRecord
  2
layer9
 70
     0
 62
   210
  6
Continuous
370
    -3
390
F
347
EF
  0
LAYER
  5
14B
330
2
100
AcDbSymbolTableRecord
100
AcDbLayerTableRecord
  2
Defpoints
 70
     0
 62
    24
  6
Continuous
290
     0
370
    -3
390
F
347
EF
  0
LAYER
  5
14C
330
2
100
AcDbSymbolTableRecord
100
AcDbLayerTableRecord
  2
2上模
 70
     0
 62
     1
  6
Continuous
370
    40
390
F
347
EF
  0
ENDTAB
  0
TABLE
  2
STYLE
  5
3
330
0
100
AcDbSymbolTable
 70
     1
  0
STYLE
  5
11
330
3
100
AcDbSymbolTableRecord
100
AcDbTextStyleTableRecord
  2
Standard
 70
     0
 40
0.0
 41
1.0
 50
0.0
 71
     0
 42
2.5
  3
simfang.ttf
  4

1001
ACAD
1000
FangSong
1071
    34353
  0
ENDTAB
  0
TABLE
  2
VIEW
  5
6
330
0
100
AcDbSymbolTable
 70
     0
  0
ENDTAB
  0
TABLE
  2
UCS
  5
7
330
0
100
AcDbSymbolTable
 70
     0
  0
ENDTAB
  0
TABLE
  2
APPID
  5
9
330
0
100
AcDbSymbolTable
 70
     2
  0
APPID
  5
12
330
9
100
AcDbSymbolTableRecord
100
AcDbRegAppTableRecord
  2
ACAD
 70
     0
  0
APPID
  5
9E
330
9
100
AcDbSymbolTableRecord
100
AcDbRegAppTableRecord
  2
ACAD_PSEXT
 70
     0
  0
ENDTAB
  0
TABLE
  2
DIMSTYLE
  5
A
330
0
100
AcDbSymbolTable
 70
     2
100
AcDbDimStyleTable
 71
     1
340
27
  0
DIMSTYLE
105
27
330
A
100
AcDbSymbolTableRecord
100
AcDbDimStyleTableRecord
  2
ISO-25
 70
     0
 41
2.5
 42
0.625
 43
3.75
 44
1.25
 73
     0
 74
     0
 77
     1
 78
     8
140
2.5
141
2.5
143
0.03937007874016
147
0.625
171
     3
172
     1
271
     2
272
     2
274
     3
278
    44
283
     0
284
     8
340
11
  0
DIMSTYLE
105
14D
102
{ACAD_REACTORS
330
848
330
84B
330
84E
102
}
330
A
100
AcDbSymbolTableRecord
100
AcDbDimStyleTableRecord
  2
usally
 70
     0
 41
22.0
 42
2.0
 43
5.0
 44
1.25
 73
     0
 74
     0
 77
     1
 78
     9
 79
     2
140
25.4
141
0.0
147
0.5
172
     1
176
   104
177
   104
178
   200
179
     2
271
     2
272
     2
340
11
371
     9
372
     9
  0
ENDTAB
  0
TABLE
  2
BLOCK_RECORD
  5
1
330
0
100
AcDbSymbolTable
 70
   116
  0
BLOCK_RECORD
  5
1F
330
1
100
AcDbSymbolTableRecord
100
AcDbBlockTableRecord
  2
*Model_Space
340
22
 70
     0
280
     1
281
     0
  0
BLOCK_RECORD
  5
D2
330
1
100
AcDbSymbolTableRecord
100
AcDbBlockTableRecord
  2
*Paper_Space
340
D3
 70
     0
280
     1
281
     0
  0
BLOCK_RECORD
  5
D6
330
1
100
AcDbSymbolTableRecord
100
AcDbBlockTableRecord
  2
*Paper_Space0
340
D7
 70
     0
280
     1
281
     0
  0
BLOCK_RECORD
  5
1D8
330
1
100
AcDbSymbolTableRecord
100
AcDbBlockTableRecord
  2
*D1
340
0
 70
     0
280
     1
281
     0
  0
BLOCK_RECORD
  5
1E4
330
1
100
AcDbSymbolTableRecord
100
AcDbBlockTableRecord
  2
*D2
340
0
 70
     0
280
     1
281
     0
  0
BLOCK_RECORD
  5
1F0
330
1
100
AcDbSymbolTableRecord
100
AcDbBlockTableRecord
  2
*D3
340
0
 70
     0
280
     1
281
     0
  0
BLOCK_RECORD
  5
20B
330
1
100
AcDbSymbolTableRecord
100
AcDbBlockTableRecord
  2
*D4
340
0
 70
     0
280
     1
281
     0
  0
BLOCK_RECORD
  5
217
330
1
100
AcDbSymbolTableRecord
100
AcDbBlockTableRecord
  2
*D5
340
0
 70
     0
280
     1
281
     0
  0
BLOCK_RECORD
  5
223
330
1
100
AcDbSymbolTableRecord
100
AcDbBlockTableRecord
  2
*D6
340
0
 70
     0
280
     1
281
     0
  0
BLOCK_RECORD
  5
245
330
1
100
AcDbSymbolTableRecord
100
AcDbBlockTableRecord
  2
*D7
340
0
 70
     0
280
     1
281
     0
  0
BLOCK_RECORD
  5
251
330
1
100
AcDbSymbolTableRecord
100
AcDbBlockTableRecord
  2
*D8
340
0
 70
     0
280
     1
281
     0
  0
BLOCK_RECORD
  5
25D
330
1
100
AcDbSymbolTableRecord
100
AcDbBlockTableRecord
  2
*D9
340
0
 70
     0
280
     1
281
     0
  0
BLOCK_RECORD
  5
27C
330
1
100
AcDbSymbolTableRecord
100
AcDbBlockTableRecord
  2
*D10
340
0
 70
     0
280
     1
281
     0
  0
BLOCK_RECORD
  5
284
330
1
100
AcDbSymbolTableRecord
100
AcDbBlockTableRecord
  2
*D11
340
0
 70
     0
280
     1
281
     0
  0
BLOCK_RECORD
  5
290
330
1
100
AcDbSymbolTableRecord
100
AcDbBlockTableRecord
  2
*D12
340
0
 70
     0
280
     1
281
     0
  0
BLOCK_RECORD
  5
2B6
330
1
100
AcDbSymbolTableRecord
100
AcDbBlockTableRecord
  2
*D13
340
0
 70
     0
280
     1
281
     0
  0
BLOCK_RECORD
  5
2BE
330
1
100
AcDbSymbolTableRecord
100
AcDbBlockTableRecord
  2
*D14
340
0
 70
     0
280
     1
281
     0
  0
BLOCK_RECORD
  5
2CA
330
1
100
AcDbSymbolTableRecord
100
AcDbBlockTableRecord
  2
*D15
340
0
 70
     0
280
     1
281
     0
  0
BLOCK_RECORD
  5
2DB
330
1
100
AcDbSymbolTableRecord
100
AcDbBlockTableRecord
  2
*D16
340
0
 70
     0
280
     1
281
     0
  0
BLOCK_RECORD
  5
2E3
330
1
100
AcDbSymbolTableRecord
100
AcDbBlockTableRecord
  2
*D17
340
0
 70
     0
280
     1
281
     0
  0
BLOCK_RECORD
  5
2EF
330
1
100
AcDbSymbolTableRecord
100
AcDbBlockTableRecord
  2
*D18
340
0
 70
     0
280
     1
281
     0
  0
BLOCK_RECORD
  5
315
330
1
100
AcDbSymbolTableRecord
100
AcDbBlockTableRecord
  2
*D19
340
0
 70
     0
280
     1
281
     0
  0
BLOCK_RECORD
  5
31D
330
1
100
AcDbSymbolTableRecord
100
AcDbBlockTableRecord
  2
*D20
340
0
 70
     0
280
     1
281
     0
  0
BLOCK_RECORD
  5
329
330
1
100
AcDbSymbolTableRecord
100
AcDbBlockTableRecord
  2
*D21
340
0
 70
     0
280
     1
281
     0
  0
BLOCK_RECORD
  5
33A
330
1
100
AcDbSymbolTableRecord
100
AcDbBlockTableRecord
  2
*D22
340
0
 70
     0
280
     1
281
     0
  0
BLOCK_RECORD
  5
342
330
1
100
AcDbSymbolTableRecord
100
AcDbBlockTableRecord
  2
*D23
340
0
 70
     0
280
     1
281
     0
  0
BLOCK_RECORD
  5
34E
330
1
100
AcDbSymbolTableRecord
100
AcDbBlockTableRecord
  2
*D24
340
0
 70
     0
280
     1
281
     0
  0
BLOCK_RECORD
  5
374
330
1
100
AcDbSymbolTableRecord
100
AcDbBlockTableRecord
  2
*D25
340
0
 70
     0
280
     1
281
     0
  0
BLOCK_RECORD
  5
37C
330
1
100
AcDbSymbolTableRecord
100
AcDbBlockTableRecord
  2
*D26
340
0
 70
     0
280
     1
281
     0
  0
BLOCK_RECORD
  5
388
330
1
100
AcDbSymbolTableRecord
100
AcDbBlockTableRecord
  2
*D27
340
0
 70
     0
280
     1
281
     0
  0
BLOCK_RECORD
  5
399
330
1
100
AcDbSymbolTableRecord
100
AcDbBlockTableRecord
  2
*D28
340
0
 70
     0
280
     1
281
     0
  0
BLOCK_RECORD
  5
3A1
330
1
100
AcDbSymbolTableRecord
100
AcDbBlockTableRecord
  2
*D29
340
0
 70
     0
280
     1
281
     0
  0
BLOCK_RECORD
  5
3AD
330
1
100
AcDbSymbolTableRecord
100
AcDbBlockTableRecord
  2
*D30
340
0
 70
     0
280
     1
281
     0
  0
BLOCK_RECORD
  5
3D3
330
1
100
AcDbSymbolTableRecord
100
AcDbBlockTableRecord
  2
*D31
340
0
 70
     0
280
     1
281
     0
  0
BLOCK_RECORD
  5
3DB
330
1
100
AcDbSymbolTableRecord
100
AcDbBlockTableRecord
  2
*D32
340
0
 70
     0
280
     1
281
     0
  0
BLOCK_RECORD
  5
3E7
330
1
100
AcDbSymbolTableRecord
100
AcDbBlockTableRecord
  2
*D33
340
0
 70
     0
280
     1
281
     0
  0
BLOCK_RECORD
  5
3F8
330
1
100
AcDbSymbolTableRecord
100
AcDbBlockTableRecord
  2
*D34
340
0
 70
     0
280
     1
281
     0
  0
BLOCK_RECORD
  5
400
330
1
100
AcDbSymbolTableRecord
100
AcDbBlockTableRecord
  2
*D35
340
0
 70
     0
280
     1
281
     0
  0
BLOCK_RECORD
  5
40C
330
1
100
AcDbSymbolTableRecord
100
AcDbBlockTableRecord
  2
*D36
340
0
 70
     0
280
     1
281
     0
  0
BLOCK_RECORD
  5
432
330
1
100
AcDbSymbolTableRecord
100
AcDbBlockTableRecord
  2
*D37
340
0
 70
     0
280
     1
281
     0
  0
BLOCK_RECORD
  5
43A
330
1
100
AcDbSymbolTableRecord
100
AcDbBlockTableRecord
  2
*D38
340
0
 70
     0
280
     1
281
     0
  0
BLOCK_RECORD
  5
446
330
1
100
AcDbSymbolTableRecord
100
AcDbBlockTableRecord
  2
*D39
340
0
 70
     0
280
     1
281
     0
  0
BLOCK_RECORD
  5
457
330
1
100
AcDbSymbolTableRecord
100
AcDbBlockTableRecord
  2
*D40
340
0
 70
     0
280
     1
281
     0
  0
BLOCK_RECORD
  5
45F
330
1
100
AcDbSymbolTableRecord
100
AcDbBlockTableRecord
  2
*D41
340
0
 70
     0
280
     1
281
     0
  0
BLOCK_RECORD
  5
46B
330
1
100
AcDbSymbolTableRecord
100
AcDbBlockTableRecord
  2
*D42
340
0
 70
     0
280
     1
281
     0
  0
BLOCK_RECORD
  5
491
330
1
100
AcDbSymbolTableRecord
100
AcDbBlockTableRecord
  2
*D43
340
0
 70
     0
280
     1
281
     0
  0
BLOCK_RECORD
  5
499
330
1
100
AcDbSymbolTableRecord
100
AcDbBlockTableRecord
  2
*D44
340
0
 70
     0
280
     1
281
     0
  0
BLOCK_RECORD
  5
4A5
330
1
100
AcDbSymbolTableRecord
100
AcDbBlockTableRecord
  2
*D45
340
0
 70
     0
280
     1
281
     0
  0
BLOCK_RECORD
  5
4BB
330
1
100
AcDbSymbolTableRecord
100
AcDbBlockTableRecord
  2
*D46
340
0
 70
     0
280
     1
281
     0
  0
BLOCK_RECORD
  5
4C3
330
1
100
AcDbSymbolTableRecord
100
AcDbBlockTableRecord
  2
*D47
340
0
 70
     0
280
     1
281
     0
  0
BLOCK_RECORD
  5
4CF
330
1
100
AcDbSymbolTableRecord
100
AcDbBlockTableRecord
  2
*D48
340
0
 70
     0
280
     1
281
     0
  0
BLOCK_RECORD
  5
4F5
330
1
100
AcDbSymbolTableRecord
100
AcDbBlockTableRecord
  2
*D50
340
0
 70
     0
280
     1
281
     0
  0
BLOCK_RECORD
  5
4FD
330
1
100
AcDbSymbolTableRecord
100
AcDbBlockTableRecord
  2
*D51
340
0
 70
     0
280
     1
281
     0
  0
BLOCK_RECORD
  5
509
330
1
100
AcDbSymbolTableRecord
100
AcDbBlockTableRecord
  2
*D52
340
0
 70
     0
280
     1
281
     0
  0
BLOCK_RECORD
  5
51A
330
1
100
AcDbSymbolTableRecord
100
AcDbBlockTableRecord
  2
*D53
340
0
 70
     0
280
     1
281
     0
  0
BLOCK_RECORD
  5
522
330
1
100
AcDbSymbolTableRecord
100
AcDbBlockTableRecord
  2
*D54
340
0
 70
     0
280
     1
281
     0
  0
BLOCK_RECORD
  5
52E
330
1
100
AcDbSymbolTableRecord
100
AcDbBlockTableRecord
  2
*D55
340
0
 70
     0
280
     1
281
     0
  0
BLOCK_RECORD
  5
554
330
1
100
AcDbSymbolTableRecord
100
AcDbBlockTableRecord
  2
*D57
340
0
 70
     0
280
     1
281
     0
  0
BLOCK_RECORD
  5
55C
330
1
100
AcDbSymbolTableRecord
100
AcDbBlockTableRecord
  2
*D58
340
0
 70
     0
280
     1
281
     0
  0
BLOCK_RECORD
  5
568
330
1
100
AcDbSymbolTableRecord
100
AcDbBlockTableRecord
  2
*D59
340
0
 70
     0
280
     1
281
     0
  0
BLOCK_RECORD
  5
57A
330
1
100
AcDbSymbolTableRecord
100
AcDbBlockTableRecord
  2
*D60
340
0
 70
     0
280
     1
281
     0
  0
BLOCK_RECORD
  5
586
330
1
100
AcDbSymbolTableRecord
100
AcDbBlockTableRecord
  2
*D61
340
0
 70
     0
280
     1
281
     0
  0
BLOCK_RECORD
  5
592
330
1
100
AcDbSymbolTableRecord
100
AcDbBlockTableRecord
  2
*D62
340
0
 70
     0
280
     1
281
     0
  0
BLOCK_RECORD
  5
5B4
330
1
100
AcDbSymbolTableRecord
100
AcDbBlockTableRecord
  2
*D64
340
0
 70
     0
280
     1
281
     0
  0
BLOCK_RECORD
  5
5C0
330
1
100
AcDbSymbolTableRecord
100
AcDbBlockTableRecord
  2
*D65
340
0
 70
     0
280
     1
281
     0
  0
BLOCK_RECORD
  5
5CC
330
1
100
AcDbSymbolTableRecord
100
AcDbBlockTableRecord
  2
*D66
340
0
 70
     0
280
     1
281
     0
  0
BLOCK_RECORD
  5
5D9
330
1
100
AcDbSymbolTableRecord
100
AcDbBlockTableRecord
  2
*D67
340
0
 70
     0
280
     1
281
     0
  0
BLOCK_RECORD
  5
5E5
330
1
100
AcDbSymbolTableRecord
100
AcDbBlockTableRecord
  2
*D68
340
0
 70
     0
280
     1
281
     0
  0
BLOCK_RECORD
  5
5F1
330
1
100
AcDbSymbolTableRecord
100
AcDbBlockTableRecord
  2
*D69
340
0
 70
     0
280
     1
281
     0
  0
BLOCK_RECORD
  5
60F
330
1
100
AcDbSymbolTableRecord
100
AcDbBlockTableRecord
  2
*D71
340
0
 70
     0
280
     1
281
     0
  0
BLOCK_RECORD
  5
617
330
1
100
AcDbSymbolTableRecord
100
AcDbBlockTableRecord
  2
*D72
340
0
 70
     0
280
     1
281
     0
  0
BLOCK_RECORD
  5
623
330
1
100
AcDbSymbolTableRecord
100
AcDbBlockTableRecord
  2
*D73
340
0
 70
     0
280
     1
281
     0
  0
BLOCK_RECORD
  5
63D
330
1
100
AcDbSymbolTableRecord
100
AcDbBlockTableRecord
  2
*D74
340
0
 70
     0
280
     1
281
     0
  0
BLOCK_RECORD
  5
649
330
1
100
AcDbSymbolTableRecord
100
AcDbBlockTableRecord
  2
*D75
340
0
 70
     0
280
     1
281
     0
  0
BLOCK_RECORD
  5
655
330
1
100
AcDbSymbolTableRecord
100
AcDbBlockTableRecord
  2
*D76
340
0
 70
     0
280
     1
281
     0
  0
BLOCK_RECORD
  5
677
330
1
100
AcDbSymbolTableRecord
100
AcDbBlockTableRecord
  2
*D78
340
0
 70
     0
280
     1
281
     0
  0
BLOCK_RECORD
  5
683
330
1
100
AcDbSymbolTableRecord
100
AcDbBlockTableRecord
  2
*D79
340
0
 70
     0
280
     1
281
     0
  0
BLOCK_RECORD
  5
68F
330
1
100
AcDbSymbolTableRecord
100
AcDbBlockTableRecord
  2
*D80
340
0
 70
     0
280
     1
281
     0
  0
BLOCK_RECORD
  5
69C
330
1
100
AcDbSymbolTableRecord
100
AcDbBlockTableRecord
  2
*D81
340
0
 70
     0
280
     1
281
     0
  0
BLOCK_RECORD
  5
6A8
330
1
100
AcDbSymbolTableRecord
100
AcDbBlockTableRecord
  2
*D82
340
0
 70
     0
280
     1
281
     0
  0
BLOCK_RECORD
  5
6B4
330
1
100
AcDbSymbolTableRecord
100
AcDbBlockTableRecord
  2
*D83
340
0
 70
     0
280
     1
281
     0
  0
BLOCK_RECORD
  5
6D6
330
1
100
AcDbSymbolTableRecord
100
AcDbBlockTableRecord
  2
*D85
340
0
 70
     0
280
     1
281
     0
  0
BLOCK_RECORD
  5
6E2
330
1
100
AcDbSymbolTableRecord
100
AcDbBlockTableRecord
  2
*D86
340
0
 70
     0
280
     1
281
     0
  0
BLOCK_RECORD
  5
6EE
330
1
100
AcDbSymbolTableRecord
100
AcDbBlockTableRecord
  2
*D87
340
0
 70
     0
280
     1
281
     0
  0
BLOCK_RECORD
  5
6FB
330
1
100
AcDbSymbolTableRecord
100
AcDbBlockTableRecord
  2
*D88
340
0
 70
     0
280
     1
281
     0
  0
BLOCK_RECORD
  5
707
330
1
100
AcDbSymbolTableRecord
100
AcDbBlockTableRecord
  2
*D89
340
0
 70
     0
280
     1
281
     0
  0
BLOCK_RECORD
  5
713
330
1
100
AcDbSymbolTableRecord
100
AcDbBlockTableRecord
  2
*D90
340
0
 70
     0
280
     1
281
     0
  0
BLOCK_RECORD
  5
735
330
1
100
AcDbSymbolTableRecord
100
AcDbBlockTableRecord
  2
*D92
340
0
 70
     0
280
     1
281
     0
  0
BLOCK_RECORD
  5
741
330
1
100
AcDbSymbolTableRecord
100
AcDbBlockTableRecord
  2
*D93
340
0
 70
     0
280
     1
281
     0
  0
BLOCK_RECORD
  5
74D
330
1
100
AcDbSymbolTableRecord
100
AcDbBlockTableRecord
  2
*D94
340
0
 70
     0
280
     1
281
     0
  0
BLOCK_RECORD
  5
75A
330
1
100
AcDbSymbolTableRecord
100
AcDbBlockTableRecord
  2
*D95
340
0
 70
     0
280
     1
281
     0
  0
BLOCK_RECORD
  5
766
330
1
100
AcDbSymbolTableRecord
100
AcDbBlockTableRecord
  2
*D96
340
0
 70
     0
280
     1
281
     0
  0
BLOCK_RECORD
  5
772
330
1
100
AcDbSymbolTableRecord
100
AcDbBlockTableRecord
  2
*D97
340
0
 70
     0
280
     1
281
     0
  0
BLOCK_RECORD
  5
794
330
1
100
AcDbSymbolTableRecord
100
AcDbBlockTableRecord
  2
*D99
340
0
 70
     0
280
     1
281
     0
  0
BLOCK_RECORD
  5
7A0
330
1
100
AcDbSymbolTableRecord
100
AcDbBlockTableRecord
  2
*D100
340
0
 70
     0
280
     1
281
     0
  0
BLOCK_RECORD
  5
7AC
330
1
100
AcDbSymbolTableRecord
100
AcDbBlockTableRecord
  2
*D101
340
0
 70
     0
280
     1
281
     0
  0
BLOCK_RECORD
  5
7B9
330
1
100
AcDbSymbolTableRecord
100
AcDbBlockTableRecord
  2
*D102
340
0
 70
     0
280
     1
281
     0
  0
BLOCK_RECORD
  5
7C5
330
1
100
AcDbSymbolTableRecord
100
AcDbBlockTableRecord
  2
*D103
340
0
 70
     0
280
     1
281
     0
  0
BLOCK_RECORD
  5
7D1
330
1
100
AcDbSymbolTableRecord
100
AcDbBlockTableRecord
  2
*D104
340
0
 70
     0
280
     1
281
     0
  0
BLOCK_RECORD
  5
7F3
330
1
100
AcDbSymbolTableRecord
100
AcDbBlockTableRecord
  2
*D106
340
0
 70
     0
280
     1
281
     0
  0
BLOCK_RECORD
  5
7FF
330
1
100
AcDbSymbolTableRecord
100
AcDbBlockTableRecord
  2
*D107
340
0
 70
     0
280
     1
281
     0
  0
BLOCK_RECORD
  5
80B
330
1
100
AcDbSymbolTableRecord
100
AcDbBlockTableRecord
  2
*D108
340
0
 70
     0
280
     1
281
     0
  0
BLOCK_RECORD
  5
818
330
1
100
AcDbSymbolTableRecord
100
AcDbBlockTableRecord
  2
*D109
340
0
 70
     0
280
     1
281
     0
  0
BLOCK_RECORD
  5
824
330
1
100
AcDbSymbolTableRecord
100
AcDbBlockTableRecord
  2
*D110
340
0
 70
     0
280
     1
281
     0
  0
BLOCK_RECORD
  5
830
330
1
100
AcDbSymbolTableRecord
100
AcDbBlockTableRecord
  2
*D111
340
0
 70
     0
280
     1
281
     0
  0
BLOCK_RECORD
  5
852
330
1
100
AcDbSymbolTableRecord
100
AcDbBlockTableRecord
  2
*D113
340
0
 70
     0
280
     1
281
     0
  0
BLOCK_RECORD
  5
85E
330
1
100
AcDbSymbolTableRecord
100
AcDbBlockTableRecord
  2
*D114
340
0
 70
     0
280
     1
281
     0
  0
BLOCK_RECORD
  5
86A
330
1
100
AcDbSymbolTableRecord
100
AcDbBlockTableRecord
  2
*D115
340
0
 70
     0
280
     1
281
     0
  0
ENDTAB
  0
ENDSEC
  0
SECTION
  2
BLOCKS
  0
BLOCK
  5
20
330
1F
100
AcDbEntity
  8
0
100
AcDbBlockBegin
  2
*Model_Space
 70
     0
 10
0.0
 20
0.0
 30
0.0
  3
*Model_Space
  1

  0
ENDBLK
  5
21
330
1F
100
AcDbEntity
  8
0
100
AcDbBlockEnd
  0
BLOCK
  5
D4
330
D2
100
AcDbEntity
 67
     1
  8
0
100
AcDbBlockBegin
  2
*Paper_Space
 70
     0
 10
0.0
 20
0.0
 30
0.0
  3
*Paper_Space
  1

  0
ENDBLK
  5
D5
330
D2
100
AcDbEntity
 67
     1
  8
0
100
AcDbBlockEnd
  0
BLOCK
  5
D8
330
D6
100
AcDbEntity
 67
     1
  8
0
100
AcDbBlockBegin
  2
*Paper_Space0
 70
     0
 10
0.0
 20
0.0
 30
0.0
  3
*Paper_Space0
  1

  0
ENDBLK
  5
D9
330
D6
100
AcDbEntity
 67
     1
  8
0
100
AcDbBlockEnd
  0
BLOCK
  5
1E2
330
1D8
100
AcDbEntity
  8
0
100
AcDbBlockBegin
  2
*D1
 70
     1
 10
0.0
 20
0.0
 30
0.0
  3
*D1
  1

  0
LINE
  5
1F8
330
1D8
100
AcDbEntity
  8
2上模
 62
   104
 48
0.6
370
     9
100
AcDbLine
 10
888.2640862738069
 20
906.6877521627512
 30
0.0
 11
888.2640862738069
 21
1005.38395801542
 31
0.0
  0
LINE
  5
1F9
330
1D8
100
AcDbEntity
  8
2上模
 62
   104
 48
0.6
370
     9
100
AcDbLine
 10
1214.264086273691
 20
906.6877521627793
 30
0.0
 11
1214.264086273691
 21
1005.38395801542
 31
0.0
  0
LINE
  5
1FA
330
1D8
100
AcDbEntity
  8
2上模
 62
   104
 48
0.6
370
     9
100
AcDbLine
 10
898.2640862738069
 20
1004.13395801542
 30
0.0
 11
1204.264086273691
 21
1004.13395801542
 31
0.0
  0
SOLID
  5
1FB
330
1D8
100
AcDbEntity
  8
2上模
 62
   104
 48
0.6
100
AcDbTrace
 10
898.2640862738069
 20
1005.800624682086
 30
0.0
 11
898.2640862738069
 21
1002.467291348753
 31
0.0
 12
888.2640862738069
 22
1004.13395801542
 32
0.0
 13
888.2640862738069
 23
1004.13395801542
 33
0.0
  0
SOLID
  5
1FC
330
1D8
100
AcDbEntity
  8
2上模
 62
   104
 48
0.6
100
AcDbTrace
 10
1204.264086273691
 20
1005.800624682086
 30
0.0
 11
1204.264086273691
 21
1002.467291348753
 31
0.0
 12
1214.264086273691
 22
1004.13395801542
 32
0.0
 13
1214.264086273691
 23
1004.13395801542
 33
0.0
  0
MTEXT
  5
1FD
330
1D8
100
AcDbEntity
  8
2上模
 62
   200
 48
0.6
370
    25
100
AcDbMText
 10
1051.264086273749
 20
1014.148243729706
 30
0.0
 40
15.0
 41
0.0
 46
0.0
 71
     5
 72
     1
  1
\A1;326 [12.83”]
 73
     1
 44
1.0
  0
POINT
  5
1FE
330
1D8
100
AcDbEntity
  8
Defpoints
 62
     0
 48
0.6
100
AcDbPoint
 10
888.2640862738069
 20
904.6877521627513
 30
0.0
  0
POINT
  5
1FF
330
1D8
100
AcDbEntity
  8
Defpoints
 62
     0
 48
0.6
100
AcDbPoint
 10
1214.264086273691
 20
904.6877521627791
 30
0.0
  0
POINT
  5
200
330
1D8
100
AcDbEntity
  8
Defpoints
 62
     0
 48
0.6
100
AcDbPoint
 10
1214.264086273691
 20
1004.13395801542
 30
0.0
  0
ENDBLK
  5
1E3
330
1D8
100
AcDbEntity
  8
0
100
AcDbBlockEnd
  0
BLOCK
  5
1EE
330
1E4
100
AcDbEntity
  8
0
100
AcDbBlockBegin
  2
*D2
 70
     1
 10
0.0
 20
0.0
 30
0.0
  3
*D2
  1

  0
LINE
  5
1E5
330
1E4
100
AcDbEntity
  8
2上模
 62
   104
 48
0.6
370
     9
100
AcDbLine
 10
1167.125891999675
 20
948.490322358155
 30
0.0
 11
1306.782590593312
 21
948.4903223581548
 31
0.0
  0
LINE
  5
1E6
330
1E4
100
AcDbEntity
  8
2上模
 62
   104
 48
0.6
370
     9
100
AcDbLine
 10
1167.125891999675
 20
546.4903223581541
 30
0.0
 11
1306.782590593312
 21
546.490322358154
 31
0.0
  0
LINE
  5
1E7
330
1E4
100
AcDbEntity
  8
2上模
 62
   104
 48
0.6
370
     9
100
AcDbLine
 10
1305.532590593312
 20
938.4903223581547
 30
0.0
 11
1305.532590593312
 21
556.490322358154
 31
0.0
  0
SOLID
  5
1E8
330
1E4
100
AcDbEntity
  8
2上模
 62
   104
 48
0.6
100
AcDbTrace
 10
1303.865923926645
 20
938.4903223581547
 30
0.0
 11
1307.199257259978
 21
938.4903223581547
 31
0.0
 12
1305.532590593312
 22
948.4903223581548
 32
0.0
 13
1305.532590593312
 23
948.4903223581548
 33
0.0
  0
SOLID
  5
1E9
330
1E4
100
AcDbEntity
  8
2上模
 62
   104
 48
0.6
100
AcDbTrace
 10
1303.865923926645
 20
556.490322358154
 30
0.0
 11
1307.199257259978
 21
556.490322358154
 31
0.0
 12
1305.532590593312
 22
546.490322358154
 32
0.0
 13
1305.532590593312
 23
546.490322358154
 33
0.0
  0
MTEXT
  5
1EA
330
1E4
100
AcDbEntity
  8
2上模
 62
   200
 48
0.6
370
    25
100
AcDbMText
 10
1295.518304879026
 20
747.4903223581548
 30
0.0
 40
15.0
 41
0.0
 46
0.0
 71
     5
 72
     1
  1
\A1;402 [15.83”]
 11
0.0000000000000001
 21
1.0
 31
0.0
 73
     1
 44
1.0
  0
POINT
  5
1EB
330
1E4
100
AcDbEntity
  8
Defpoints
 62
     0
 48
0.6
100
AcDbPoint
 10
1165.125891999675
 20
948.490322358155
 30
0.0
  0
POINT
  5
1EC
330
1E4
100
AcDbEntity
  8
Defpoints
 62
     0
 48
0.6
100
AcDbPoint
 10
1165.125891999675
 20
546.4903223581541
 30
0.0
  0
POINT
  5
1ED
330
1E4
100
AcDbEntity
  8
Defpoints
 62
     0
 48
0.6
100
AcDbPoint
 10
1305.532590593312
 20
546.490322358154
 30
0.0
  0
ENDBLK
  5
1EF
330
1E4
100
AcDbEntity
  8
0
100
AcDbBlockEnd
  0
BLOCK
  5
1F6
330
1F0
100
AcDbEntity
  8
0
100
AcDbBlockBegin
  2
*D3
 70
     1
 10
0.0
 20
0.0
 30
0.0
  3
*D3
  1

  0
LINE
  5
201
330
1F0
100
AcDbEntity
  8
2上模
 62
   104
 48
0.6
370
     9
100
AcDbLine
 10
1002.641467921747
 20
664.5597643481429
 30
0.0
 11
898.2640862738907
 21
556.4903223582406
 31
0.0
  0
MTEXT
  5
202
330
1F0
100
AcDbEntity
  8
2上模
 62
   200
 48
0.6
370
    25
100
AcDbMText
 10
947.3046207800107
 20
621.6805214576598
 30
0.0
 40
15.0
 41
0.0
 46
0.0
 71
     5
 72
     1
  1
\A1;R10 [R0.39”]
 11
0.6947132477969115
 21
0.7192868018638095
 31
0.0
 73
     1
 44
1.0
  0
SOLID
  5
203
330
1F0
100
AcDbEntity
  8
2上模
 62
   104
 48
0.6
100
AcDbTrace
 10
897.065274937451
 20
557.6481777712356
 30
0.0
 11
899.4628976103301
 21
555.3324669452458
 31
0.0
 12
891.3169537959216
 22
549.2974543396026
 32
0.0
 13
891.3169537959216
 23
549.2974543396026
 33
0.0
  0
POINT
  5
204
330
1F0
100
AcDbEntity
  8
Defpoints
 62
     0
 48
0.6
100
AcDbPoint
 10
891.3169537959216
 20
549.2974543396026
 30
0.0
  0
POINT
  5
205
330
1F0
100
AcDbEntity
  8
Defpoints
 62
     0
 48
0.6
100
AcDbPoint
 10
898.2640862738074
 20
556.4903223581545
 30
0.0
  0
ENDBLK
  5
1F7
330
1F0
100
AcDbEntity
  8
0
100
AcDbBlockEnd
  0
BLOCK
  5
20C
330
20B
100
AcDbEntity
  8
0
100
AcDbBlockBegin
  2
*D4
 70
     1
 10
0.0
 20
0.0
 30
0.0
  3
*D4
  1

  0
LINE
  5
20D
330
20B
100
AcDbEntity
  8
2上模
 62
   104
 48
0.6
370
     9
100
AcDbLine
 10
1899.462340239052
 20
7976.867858247247
 30
0.0
 11
1899.462340239052
 21
8056.453320490367
 31
0.0
  0
LINE
  5
20E
330
20B
100
AcDbEntity
  8
2上模
 62
   104
 48
0.6
370
     9
100
AcDbLine
 10
2606.462340238965
 20
7976.867858247306
 30
0.0
 11
2606.462340238965
 21
8056.453320490367
 31
0.0
  0
LINE
  5
20F
330
20B
100
AcDbEntity
  8
2上模
 62
   104
 48
0.6
370
     9
100
AcDbLine
 10
1909.462340239052
 20
8055.203320490369
 30
0.0
 11
2596.462340238965
 21
8055.203320490369
 31
0.0
  0
SOLID
  5
210
330
20B
100
AcDbEntity
  8
2上模
 62
   104
 48
0.6
100
AcDbTrace
 10
1909.462340239052
 20
8056.869987157035
 30
0.0
 11
1909.462340239052
 21
8053.536653823703
 31
0.0
 12
1899.462340239052
 22
8055.203320490369
 32
0.0
 13
1899.462340239052
 23
8055.203320490369
 33
0.0
  0
SOLID
  5
211
330
20B
100
AcDbEntity
  8
2上模
 62
   104
 48
0.6
100
AcDbTrace
 10
2596.462340238965
 20
8056.869987157035
 30
0.0
 11
2596.462340238965
 21
8053.536653823703
 31
0.0
 12
2606.462340238965
 22
8055.203320490369
 32
0.0
 13
2606.462340238965
 23
8055.203320490369
 33
0.0
  0
MTEXT
  5
212
330
20B
100
AcDbEntity
  8
2上模
 62
   200
 48
0.6
370
    25
100
AcDbMText
 10
2252.962340239009
 20
8063.616923431546
 30
0.0
 40
15.0
 41
0.0
 46
0.0
 71
     5
 72
     1
  1
\A1;707 [27.83”]
 73
     1
 44
1.0
  0
POINT
  5
213
330
20B
100
AcDbEntity
  8
Defpoints
 62
     0
 48
0.6
100
AcDbPoint
 10
1899.462340239052
 20
7974.867858247249
 30
0.0
  0
POINT
  5
214
330
20B
100
AcDbEntity
  8
Defpoints
 62
     0
 48
0.6
100
AcDbPoint
 10
2606.462340238965
 20
7974.867858247306
 30
0.0
  0
POINT
  5
215
330
20B
100
AcDbEntity
  8
Defpoints
 62
     0
 48
0.6
100
AcDbPoint
 10
2606.462340238965
 20
8055.203320490369
 30
0.0
  0
ENDBLK
  5
216
330
20B
100
AcDbEntity
  8
0
100
AcDbBlockEnd
  0
BLOCK
  5
218
330
217
100
AcDbEntity
  8
0
100
AcDbBlockBegin
  2
*D5
 70
     1
 10
0.0
 20
0.0
 30
0.0
  3
*D5
  1

  0
LINE
  5
219
330
217
100
AcDbEntity
  8
2上模
 62
   104
 48
0.6
370
     9
100
AcDbLine
 10
2581.643912251948
 20
7998.3605895965
 30
0.0
 11
2666.09790506883
 21
7998.3605895965
 31
0.0
  0
LINE
  5
21A
330
217
100
AcDbEntity
  8
2上模
 62
   104
 48
0.6
370
     9
100
AcDbLine
 10
2581.643912251948
 20
7596.360589596499
 30
0.0
 11
2666.09790506883
 21
7596.360589596499
 31
0.0
  0
LINE
  5
21B
330
217
100
AcDbEntity
  8
2上模
 62
   104
 48
0.6
370
     9
100
AcDbLine
 10
2664.84790506883
 20
7988.360589596499
 30
0.0
 11
2664.84790506883
 21
7606.3605895965
 31
0.0
  0
SOLID
  5
21C
330
217
100
AcDbEntity
  8
2上模
 62
   104
 48
0.6
100
AcDbTrace
 10
2663.181238402164
 20
7988.360589596499
 30
0.0
 11
2666.514571735496
 21
7988.360589596499
 31
0.0
 12
2664.84790506883
 22
7998.3605895965
 32
0.0
 13
2664.84790506883
 23
7998.3605895965
 33
0.0
  0
SOLID
  5
21D
330
217
100
AcDbEntity
  8
2上模
 62
   104
 48
0.6
100
AcDbTrace
 10
2663.181238402164
 20
7606.3605895965
 30
0.0
 11
2666.514571735496
 21
7606.3605895965
 31
0.0
 12
2664.84790506883
 22
7596.360589596499
 32
0.0
 13
2664.84790506883
 23
7596.360589596499
 33
0.0
  0
MTEXT
  5
21E
330
217
100
AcDbEntity
  8
2上模
 62
   200
 48
0.6
370
    25
100
AcDbMText
 10
2656.434302127652
 20
7797.3605895965
 30
0.0
 40
15.0
 41
0.0
 46
0.0
 71
     5
 72
     1
  1
\A1;402 [15.83”]
 11
0.0000000000000001
 21
1.0
 31
0.0
 73
     1
 44
1.0
  0
POINT
  5
21F
330
217
100
AcDbEntity
  8
Defpoints
 62
     0
 48
0.6
100
AcDbPoint
 10
2579.643912251949
 20
7998.3605895965
 30
0.0
  0
POINT
  5
220
330
217
100
AcDbEntity
  8
Defpoints
 62
     0
 48
0.6
100
AcDbPoint
 10
2579.643912251949
 20
7596.360589596499
 30
0.0
  0
POINT
  5
221
330
217
100
AcDbEntity
  8
Defpoints
 62
     0
 48
0.6
100
AcDbPoint
 10
2664.84790506883
 20
7596.360589596499
 30
0.0
  0
ENDBLK
  5
222
330
217
100
AcDbEntity
  8
0
100
AcDbBlockEnd
  0
BLOCK
  5
224
330
223
100
AcDbEntity
  8
0
100
AcDbBlockBegin
  2
*D6
 70
     1
 10
0.0
 20
0.0
 30
0.0
  3
*D6
  1

  0
LINE
  5
225
330
223
100
AcDbEntity
  8
2上模
 62
   104
 48
0.6
370
     9
100
AcDbLine
 10
2029.293478669165
 20
7699.741083112009
 30
0.0
 11
1909.462340239043
 21
7606.36058959649
 31
0.0
  0
MTEXT
  5
226
330
223
100
AcDbEntity
  8
2上模
 62
   200
 48
0.6
370
    25
100
AcDbMText
 10
1968.150212073888
 20
7662.760701111001
 30
0.0
 40
15.0
 41
0.0
 46
0.0
 71
     5
 72
     1
  1
\A1;R10 [R0.39”]
 11
0.7887824803492887
 21
0.6146724320270302
 31
0.0
 73
     1
 44
1.0
  0
SOLID
  5
227
330
223
100
AcDbEntity
  8
2上模
 62
   104
 48
0.6
100
AcDbTrace
 10
1908.437886185664
 20
7607.67522706374
 30
0.0
 11
1910.486794292421
 21
7605.045952129241
 31
0.0
 12
1901.574515435549
 22
7600.213865276221
 32
0.0
 13
1901.574515435549
 23
7600.213865276221
 33
0.0
  0
POINT
  5
228
330
223
100
AcDbEntity
  8
Defpoints
 62
     0
 48
0.6
100
AcDbPoint
 10
1901.574515435549
 20
7600.213865276221
 30
0.0
  0
POINT
  5
229
330
223
100
AcDbEntity
  8
Defpoints
 62
     0
 48
0.6
100
AcDbPoint
 10
1909.462340239053
 20
7606.3605895965
 30
0.0
  0
ENDBLK
  5
22A
330
223
100
AcDbEntity
  8
0
100
AcDbBlockEnd
  0
BLOCK
  5
24F
330
245
100
AcDbEntity
  8
0
100
AcDbBlockBegin
  2
*D7
 70
     1
 10
0.0
 20
0.0
 30
0.0
  3
*D7
  1

  0
LINE
  5
265
330
245
100
AcDbEntity
  8
2上模
 62
   104
 48
0.6
370
     9
100
AcDbLine
 10
1542.68790635818
 20
963.2722777469764
 30
0.0
 11
1542.68790635818
 21
1042.857739990096
 31
0.0
  0
LINE
  5
266
330
245
100
AcDbEntity
  8
2上模
 62
   104
 48
0.6
370
     9
100
AcDbLine
 10
2249.687906358093
 20
963.2722777470338
 30
0.0
 11
2249.687906358093
 21
1042.857739990096
 31
0.0
  0
LINE
  5
267
330
245
100
AcDbEntity
  8
2上模
 62
   104
 48
0.6
370
     9
100
AcDbLine
 10
1552.68790635818
 20
1041.607739990096
 30
0.0
 11
2239.687906358093
 21
1041.607739990096
 31
0.0
  0
SOLID
  5
268
330
245
100
AcDbEntity
  8
2上模
 62
   104
 48
0.6
100
AcDbTrace
 10
1552.68790635818
 20
1043.274406656763
 30
0.0
 11
1552.68790635818
 21
1039.941073323429
 31
0.0
 12
1542.68790635818
 22
1041.607739990096
 32
0.0
 13
1542.68790635818
 23
1041.607739990096
 33
0.0
  0
SOLID
  5
269
330
245
100
AcDbEntity
  8
2上模
 62
   104
 48
0.6
100
AcDbTrace
 10
2239.687906358093
 20
1043.274406656763
 30
0.0
 11
2239.687906358093
 21
1039.941073323429
 31
0.0
 12
2249.687906358093
 22
1041.607739990096
 32
0.0
 13
2249.687906358093
 23
1041.607739990096
 33
0.0
  0
MTEXT
  5
26A
330
245
100
AcDbEntity
  8
2上模
 62
   200
 48
0.6
370
    25
100
AcDbMText
 10
1896.187906358137
 20
1051.622025704382
 30
0.0
 40
15.0
 41
0.0
 46
0.0
 71
     5
 72
     1
  1
\A1;707 [27.83”]
 73
     1
 44
1.0
  0
POINT
  5
26B
330
245
100
AcDbEntity
  8
Defpoints
 62
     0
 48
0.6
100
AcDbPoint
 10
1542.68790635818
 20
961.2722777469763
 30
0.0
  0
POINT
  5
26C
330
245
100
AcDbEntity
  8
Defpoints
 62
     0
 48
0.6
100
AcDbPoint
 10
2249.687906358093
 20
961.2722777470336
 30
0.0
  0
POINT
  5
26D
330
245
100
AcDbEntity
  8
Defpoints
 62
     0
 48
0.6
100
AcDbPoint
 10
2249.687906358093
 20
1041.607739990096
 30
0.0
  0
ENDBLK
  5
250
330
245
100
AcDbEntity
  8
0
100
AcDbBlockEnd
  0
BLOCK
  5
25B
330
251
100
AcDbEntity
  8
0
100
AcDbBlockBegin
  2
*D8
 70
     1
 10
0.0
 20
0.0
 30
0.0
  3
*D8
  1

  0
LINE
  5
26E
330
251
100
AcDbEntity
  8
2上模
 62
   104
 48
0.6
370
     9
100
AcDbLine
 10
2224.869478371076
 20
984.7650090962288
 30
0.0
 11
2309.323471187957
 21
984.7650090962288
 31
0.0
  0
LINE
  5
26F
330
251
100
AcDbEntity
  8
2上模
 62
   104
 48
0.6
370
     9
100
AcDbLine
 10
2224.869478371076
 20
582.7650090962281
 30
0.0
 11
2309.323471187957
 21
582.765009096228
 31
0.0
  0
LINE
  5
270
330
251
100
AcDbEntity
  8
2上模
 62
   104
 48
0.6
370
     9
100
AcDbLine
 10
2308.073471187957
 20
974.765009096229
 30
0.0
 11
2308.073471187957
 21
592.765009096228
 31
0.0
  0
SOLID
  5
271
330
251
100
AcDbEntity
  8
2上模
 62
   104
 48
0.6
100
AcDbTrace
 10
2306.406804521291
 20
974.765009096229
 30
0.0
 11
2309.740137854624
 21
974.765009096229
 31
0.0
 12
2308.073471187957
 22
984.7650090962288
 32
0.0
 13
2308.073471187957
 23
984.7650090962288
 33
0.0
  0
SOLID
  5
272
330
251
100
AcDbEntity
  8
2上模
 62
   104
 48
0.6
100
AcDbTrace
 10
2306.406804521291
 20
592.765009096228
 30
0.0
 11
2309.740137854624
 21
592.765009096228
 31
0.0
 12
2308.073471187957
 22
582.765009096228
 32
0.0
 13
2308.073471187957
 23
582.765009096228
 33
0.0
  0
MTEXT
  5
273
330
251
100
AcDbEntity
  8
2上模
 62
   200
 48
0.6
370
    25
100
AcDbMText
 10
2298.059185473672
 20
783.7650090962289
 30
0.0
 40
15.0
 41
0.0
 46
0.0
 71
     5
 72
     1
  1
\A1;402 [15.83”]
 11
0.0000000000000001
 21
1.0
 31
0.0
 73
     1
 44
1.0
  0
POINT
  5
274
330
251
100
AcDbEntity
  8
Defpoints
 62
     0
 48
0.6
100
AcDbPoint
 10
2222.869478371076
 20
984.7650090962288
 30
0.0
  0
POINT
  5
275
330
251
100
AcDbEntity
  8
Defpoints
 62
     0
 48
0.6
100
AcDbPoint
 10
2222.869478371076
 20
582.7650090962281
 30
0.0
  0
POINT
  5
276
330
251
100
AcDbEntity
  8
Defpoints
 62
     0
 48
0.6
100
AcDbPoint
 10
2308.073471187957
 20
582.765009096228
 30
0.0
  0
ENDBLK
  5
25C
330
251
100
AcDbEntity
  8
0
100
AcDbBlockEnd
  0
BLOCK
  5
263
330
25D
100
AcDbEntity
  8
0
100
AcDbBlockBegin
  2
*D9
 70
     1
 10
0.0
 20
0.0
 30
0.0
  3
*D9
  1

  0
LINE
  5
277
330
25D
100
AcDbEntity
  8
2上模
 62
   104
 48
0.6
370
     9
100
AcDbLine
 10
1671.19874554203
 20
685.1166365188515
 30
0.0
 11
1552.687906358169
 21
592.7650090962194
 31
0.0
  0
MTEXT
  5
278
330
25D
100
AcDbEntity
  8
2上模
 62
   200
 48
0.6
370
    25
100
AcDbMText
 10
1610.391882619961
 20
650.4277111387588
 30
0.0
 40
15.0
 41
0.0
 46
0.0
 71
     5
 72
     1
  1
\A1;R10 [R0.39”]
 11
0.7887824803492526
 21
0.6146724320270766
 31
0.0
 73
     1
 44
1.0
  0
SOLID
  5
279
330
25D
100
AcDbEntity
  8
2上模
 62
   104
 48
0.6
100
AcDbTrace
 10
1551.66345230479
 20
594.0796465634682
 30
0.0
 11
1553.712360411547
 21
591.4503716289707
 31
0.0
 12
1544.800081554677
 22
586.6182847759488
 32
0.0
 13
1544.800081554677
 23
586.6182847759488
 33
0.0
  0
POINT
  5
27A
330
25D
100
AcDbEntity
  8
Defpoints
 62
     0
 48
0.6
100
AcDbPoint
 10
1544.800081554677
 20
586.6182847759488
 30
0.0
  0
POINT
  5
27B
330
25D
100
AcDbEntity
  8
Defpoints
 62
     0
 48
0.6
100
AcDbPoint
 10
1552.687906358181
 20
592.7650090962286
 30
0.0
  0
ENDBLK
  5
264
330
25D
100
AcDbEntity
  8
0
100
AcDbBlockEnd
  0
BLOCK
  5
27D
330
27C
100
AcDbEntity
  8
0
100
AcDbBlockBegin
  2
*D10
 70
     1
 10
0.0
 20
0.0
 30
0.0
  3
*D10
  1

  0
LINE
  5
27E
330
27C
100
AcDbEntity
  8
2上模
 62
   104
 48
0.6
370
     9
100
AcDbLine
 10
3246.654587414559
 20
7697.963857423309
 30
0.0
 11
3125.459457025141
 21
7606.360589596485
 31
0.0
  0
MTEXT
  5
27F
330
27C
100
AcDbEntity
  8
2上模
 62
   200
 48
0.6
370
    25
100
AcDbMText
 10
3184.972643412143
 20
7661.88913653784
 30
0.0
 40
15.0
 41
0.0
 46
0.0
 71
     5
 72
     1
  1
\A1;R10 [R0.39”]
 11
0.7977608892580627
 21
0.6029739327451768
 31
0.0
 73
     1
 44
1.0
  0
SOLID
  5
280
330
27C
100
AcDbEntity
  8
2上模
 62
   104
 48
0.6
100
AcDbTrace
 10
3124.454500470565
 20
7607.690191078582
 30
0.0
 11
3126.464413579717
 21
7605.030988114387
 31
0.0
 12
3117.481848132561
 22
7600.330850269033
 32
0.0
 13
3117.481848132561
 23
7600.330850269033
 33
0.0
  0
POINT
  5
281
330
27C
100
AcDbEntity
  8
Defpoints
 62
     0
 48
0.6
100
AcDbPoint
 10
3117.481848132561
 20
7600.330850269033
 30
0.0
  0
POINT
  5
282
330
27C
100
AcDbEntity
  8
Defpoints
 62
     0
 48
0.6
100
AcDbPoint
 10
3125.45945702516
 20
7606.3605895965
 30
0.0
  0
ENDBLK
  5
283
330
27C
100
AcDbEntity
  8
0
100
AcDbBlockEnd
  0
BLOCK
  5
285
330
284
100
AcDbEntity
  8
0
100
AcDbBlockBegin
  2
*D11
 70
     1
 10
0.0
 20
0.0
 30
0.0
  3
*D11
  1

  0
LINE
  5
286
330
284
100
AcDbEntity
  8
2上模
 62
   104
 48
0.6
370
     9
100
AcDbLine
 10
3115.45945702516
 20
7990.3605895965
 30
0.0
 11
3115.45945702516
 21
8047.491455110678
 31
0.0
  0
LINE
  5
287
330
284
100
AcDbEntity
  8
2上模
 62
   104
 48
0.6
370
     9
100
AcDbLine
 10
3746.459457025073
 20
7990.3605895965
 30
0.0
 11
3746.459457025073
 21
8047.491455110678
 31
0.0
  0
LINE
  5
288
330
284
100
AcDbEntity
  8
2上模
 62
   104
 48
0.6
370
     9
100
AcDbLine
 10
3125.45945702516
 20
8046.241455110676
 30
0.0
 11
3736.459457025074
 21
8046.241455110676
 31
0.0
  0
SOLID
  5
289
330
284
100
AcDbEntity
  8
2上模
 62
   104
 48
0.6
100
AcDbTrace
 10
3125.45945702516
 20
8047.908121777343
 30
0.0
 11
3125.45945702516
 21
8044.574788444009
 31
0.0
 12
3115.45945702516
 22
8046.241455110676
 32
0.0
 13
3115.45945702516
 23
8046.241455110676
 33
0.0
  0
SOLID
  5
28A
330
284
100
AcDbEntity
  8
2上模
 62
   104
 48
0.6
100
AcDbTrace
 10
3736.459457025074
 20
8047.908121777343
 30
0.0
 11
3736.459457025074
 21
8044.574788444009
 31
0.0
 12
3746.459457025073
 22
8046.241455110676
 32
0.0
 13
3746.459457025073
 23
8046.241455110676
 33
0.0
  0
MTEXT
  5
28B
330
284
100
AcDbEntity
  8
2上模
 62
   200
 48
0.6
370
    25
100
AcDbMText
 10
3430.959457025116
 20
8054.655058051855
 30
0.0
 40
15.0
 41
0.0
 46
0.0
 71
     5
 72
     1
  1
\A1;631 [24.84”]
 73
     1
 44
1.0
  0
POINT
  5
28C
330
284
100
AcDbEntity
  8
Defpoints
 62
     0
 48
0.6
100
AcDbPoint
 10
3115.45945702516
 20
7988.360589596499
 30
0.0
  0
POINT
  5
28D
330
284
100
AcDbEntity
  8
Defpoints
 62
     0
 48
0.6
100
AcDbPoint
 10
3746.459457025073
 20
7988.360589596499
 30
0.0
  0
POINT
  5
28E
330
284
100
AcDbEntity
  8
Defpoints
 62
     0
 48
0.6
100
AcDbPoint
 10
3746.459457025073
 20
8046.241455110676
 30
0.0
  0
ENDBLK
  5
28F
330
284
100
AcDbEntity
  8
0
100
AcDbBlockEnd
  0
BLOCK
  5
291
330
290
100
AcDbEntity
  8
0
100
AcDbBlockBegin
  2
*D12
 70
     1
 10
0.0
 20
0.0
 30
0.0
  3
*D12
  1

  0
LINE
  5
292
330
290
100
AcDbEntity
  8
2上模
 62
   104
 48
0.6
370
     9
100
AcDbLine
 10
3738.459457025073
 20
7998.3605895965
 30
0.0
 11
3838.217444970472
 21
7998.3605895965
 31
0.0
  0
LINE
  5
293
330
290
100
AcDbEntity
  8
2上模
 62
   104
 48
0.6
370
     9
100
AcDbLine
 10
3738.45945702516
 20
7596.360589596499
 30
0.0
 11
3838.217444970472
 21
7596.360589596499
 31
0.0
  0
LINE
  5
294
330
290
100
AcDbEntity
  8
2上模
 62
   104
 48
0.6
370
     9
100
AcDbLine
 10
3836.967444970472
 20
7988.360589596499
 30
0.0
 11
3836.967444970472
 21
7606.3605895965
 31
0.0
  0
SOLID
  5
295
330
290
100
AcDbEntity
  8
2上模
 62
   104
 48
0.6
100
AcDbTrace
 10
3835.300778303805
 20
7988.360589596499
 30
0.0
 11
3838.634111637139
 21
7988.360589596499
 31
0.0
 12
3836.967444970472
 22
7998.3605895965
 32
0.0
 13
3836.967444970472
 23
7998.3605895965
 33
0.0
  0
SOLID
  5
296
330
290
100
AcDbEntity
  8
2上模
 62
   104
 48
0.6
100
AcDbTrace
 10
3835.300778303805
 20
7606.3605895965
 30
0.0
 11
3838.634111637139
 21
7606.3605895965
 31
0.0
 12
3836.967444970472
 22
7596.360589596499
 32
0.0
 13
3836.967444970472
 23
7596.360589596499
 33
0.0
  0
MTEXT
  5
297
330
290
100
AcDbEntity
  8
2上模
 62
   200
 48
0.6
370
    25
100
AcDbMText
 10
3828.553842029294
 20
7797.3605895965
 30
0.0
 40
15.0
 41
0.0
 46
0.0
 71
     5
 72
     1
  1
\A1;402 [15.83”]
 11
0.0000000000000001
 21
1.0
 31
0.0
 73
     1
 44
1.0
  0
POINT
  5
298
330
290
100
AcDbEntity
  8
Defpoints
 62
     0
 48
0.6
100
AcDbPoint
 10
3736.459457025074
 20
7998.3605895965
 30
0.0
  0
POINT
  5
299
330
290
100
AcDbEntity
  8
Defpoints
 62
     0
 48
0.6
100
AcDbPoint
 10
3736.459457025161
 20
7596.360589596499
 30
0.0
  0
POINT
  5
29A
330
290
100
AcDbEntity
  8
Defpoints
 62
     0
 48
0.6
100
AcDbPoint
 10
3836.967444970472
 20
7596.360589596499
 30
0.0
  0
ENDBLK
  5
29B
330
290
100
AcDbEntity
  8
0
100
AcDbBlockEnd
  0
BLOCK
  5
2BC
330
2B6
100
AcDbEntity
  8
0
100
AcDbBlockBegin
  2
*D13
 70
     1
 10
0.0
 20
0.0
 30
0.0
  3
*D13
  1

  0
LINE
  5
2D6
330
2B6
100
AcDbEntity
  8
2上模
 62
   104
 48
0.6
370
     9
100
AcDbLine
 10
2704.978309654097
 20
736.3532581950236
 30
0.0
 11
2585.118506971654
 21
645.7592749919617
 31
0.0
  0
MTEXT
  5
2D7
330
2B6
100
AcDbEntity
  8
2上模
 62
   200
 48
0.6
370
    25
100
AcDbMText
 10
2643.666523371872
 20
702.5647840458161
 30
0.0
 40
15.0
 41
0.0
 46
0.0
 71
     5
 72
     1
  1
\A1;R10 [R0.39”]
 11
0.7977608892580183
 21
0.6029739327452358
 31
0.0
 73
     1
 44
1.0
  0
SOLID
  5
2D8
330
2B6
100
AcDbEntity
  8
2上模
 62
   104
 48
0.6
100
AcDbTrace
 10
2584.113550417079
 20
647.0888764740585
 30
0.0
 11
2586.12346352623
 21
644.4296735098649
 31
0.0
 12
2577.140898079074
 22
639.7295356645096
 32
0.0
 13
2577.140898079074
 23
639.7295356645096
 33
0.0
  0
POINT
  5
2D9
330
2B6
100
AcDbEntity
  8
Defpoints
 62
     0
 48
0.6
100
AcDbPoint
 10
2577.140898079074
 20
639.7295356645096
 30
0.0
  0
POINT
  5
2DA
330
2B6
100
AcDbEntity
  8
Defpoints
 62
     0
 48
0.6
100
AcDbPoint
 10
2585.118506971674
 20
645.759274991976
 30
0.0
  0
ENDBLK
  5
2BD
330
2B6
100
AcDbEntity
  8
0
100
AcDbBlockEnd
  0
BLOCK
  5
2C8
330
2BE
100
AcDbEntity
  8
0
100
AcDbBlockBegin
  2
*D14
 70
     1
 10
0.0
 20
0.0
 30
0.0
  3
*D14
  1

  0
LINE
  5
2BF
330
2BE
100
AcDbEntity
  8
2上模
 62
   104
 48
0.6
370
     9
100
AcDbLine
 10
2575.118506971673
 20
1029.759274991976
 30
0.0
 11
2575.118506971673
 21
1086.890140506152
 31
0.0
  0
LINE
  5
2C0
330
2BE
100
AcDbEntity
  8
2上模
 62
   104
 48
0.6
370
     9
100
AcDbLine
 10
3206.118506971587
 20
1029.759274991976
 30
0.0
 11
3206.118506971587
 21
1086.890140506152
 31
0.0
  0
LINE
  5
2C1
330
2BE
100
AcDbEntity
  8
2上模
 62
   104
 48
0.6
370
     9
100
AcDbLine
 10
2585.118506971673
 20
1085.640140506152
 30
0.0
 11
3196.118506971587
 21
1085.640140506152
 31
0.0
  0
SOLID
  5
2C2
330
2BE
100
AcDbEntity
  8
2上模
 62
   104
 48
0.6
100
AcDbTrace
 10
2585.118506971673
 20
1087.306807172819
 30
0.0
 11
2585.118506971673
 21
1083.973473839485
 31
0.0
 12
2575.118506971673
 22
1085.640140506152
 32
0.0
 13
2575.118506971673
 23
1085.640140506152
 33
0.0
  0
SOLID
  5
2C3
330
2BE
100
AcDbEntity
  8
2上模
 62
   104
 48
0.6
100
AcDbTrace
 10
3196.118506971587
 20
1087.306807172819
 30
0.0
 11
3196.118506971587
 21
1083.973473839485
 31
0.0
 12
3206.118506971587
 22
1085.640140506152
 32
0.0
 13
3206.118506971587
 23
1085.640140506152
 33
0.0
  0
MTEXT
  5
2C4
330
2BE
100
AcDbEntity
  8
2上模
 62
   200
 48
0.6
370
    25
100
AcDbMText
 10
2890.618506971631
 20
1095.654426220438
 30
0.0
 40
15.0
 41
0.0
 46
0.0
 71
     5
 72
     1
  1
\A1;631 [24.84”]
 73
     1
 44
1.0
  0
POINT
  5
2C5
330
2BE
100
AcDbEntity
  8
Defpoints
 62
     0
 48
0.6
100
AcDbPoint
 10
2575.118506971673
 20
1027.759274991976
 30
0.0
  0
POINT
  5
2C6
330
2BE
100
AcDbEntity
  8
Defpoints
 62
     0
 48
0.6
100
AcDbPoint
 10
3206.118506971587
 20
1027.759274991976
 30
0.0
  0
POINT
  5
2C7
330
2BE
100
AcDbEntity
  8
Defpoints
 62
     0
 48
0.6
100
AcDbPoint
 10
3206.118506971587
 20
1085.640140506152
 30
0.0
  0
ENDBLK
  5
2C9
330
2BE
100
AcDbEntity
  8
0
100
AcDbBlockEnd
  0
BLOCK
  5
2D4
330
2CA
100
AcDbEntity
  8
0
100
AcDbBlockBegin
  2
*D15
 70
     1
 10
0.0
 20
0.0
 30
0.0
  3
*D15
  1

  0
LINE
  5
2CB
330
2CA
100
AcDbEntity
  8
2上模
 62
   104
 48
0.6
370
     9
100
AcDbLine
 10
3198.118506971587
 20
1037.759274991977
 30
0.0
 11
3297.876494916986
 21
1037.759274991977
 31
0.0
  0
LINE
  5
2CC
330
2CA
100
AcDbEntity
  8
2上模
 62
   104
 48
0.6
370
     9
100
AcDbLine
 10
3198.118506971674
 20
635.7592749919757
 30
0.0
 11
3297.876494916985
 21
635.7592749919757
 31
0.0
  0
LINE
  5
2CD
330
2CA
100
AcDbEntity
  8
2上模
 62
   104
 48
0.6
370
     9
100
AcDbLine
 10
3296.626494916985
 20
1027.759274991977
 30
0.0
 11
3296.626494916985
 21
645.7592749919759
 31
0.0
  0
SOLID
  5
2CE
330
2CA
100
AcDbEntity
  8
2上模
 62
   104
 48
0.6
100
AcDbTrace
 10
3294.95982825032
 20
1027.759274991977
 30
0.0
 11
3298.293161583652
 21
1027.759274991977
 31
0.0
 12
3296.626494916985
 22
1037.759274991977
 32
0.0
 13
3296.626494916985
 23
1037.759274991977
 33
0.0
  0
SOLID
  5
2CF
330
2CA
100
AcDbEntity
  8
2上模
 62
   104
 48
0.6
100
AcDbTrace
 10
3294.959828250318
 20
645.7592749919759
 30
0.0
 11
3298.293161583651
 21
645.7592749919759
 31
0.0
 12
3296.626494916985
 22
635.7592749919757
 32
0.0
 13
3296.626494916985
 23
635.7592749919757
 33
0.0
  0
MTEXT
  5
2D0
330
2CA
100
AcDbEntity
  8
2上模
 62
   200
 48
0.6
370
    25
100
AcDbMText
 10
3286.612209202701
 20
836.7592749919767
 30
0.0
 40
15.0
 41
0.0
 46
0.0
 71
     5
 72
     1
  1
\A1;402 [15.83”]
 11
0.0000000000000001
 21
1.0
 31
0.0
 73
     1
 44
1.0
  0
POINT
  5
2D1
330
2CA
100
AcDbEntity
  8
Defpoints
 62
     0
 48
0.6
100
AcDbPoint
 10
3196.118506971587
 20
1037.759274991977
 30
0.0
  0
POINT
  5
2D2
330
2CA
100
AcDbEntity
  8
Defpoints
 62
     0
 48
0.6
100
AcDbPoint
 10
3196.118506971675
 20
635.7592749919757
 30
0.0
  0
POINT
  5
2D3
330
2CA
100
AcDbEntity
  8
Defpoints
 62
     0
 48
0.6
100
AcDbPoint
 10
3296.626494916985
 20
635.7592749919757
 30
0.0
  0
ENDBLK
  5
2D5
330
2CA
100
AcDbEntity
  8
0
100
AcDbBlockEnd
  0
BLOCK
  5
2DC
330
2DB
100
AcDbEntity
  8
0
100
AcDbBlockBegin
  2
*D16
 70
     1
 10
0.0
 20
0.0
 30
0.0
  3
*D16
  1

  0
LINE
  5
2DD
330
2DB
100
AcDbEntity
  8
2上模
 62
   104
 48
0.6
370
     9
100
AcDbLine
 10
1219.128740430492
 20
7040.175869970338
 30
0.0
 11
1097.933610041705
 21
6948.57260214268
 31
0.0
  0
MTEXT
  5
2DE
330
2DB
100
AcDbEntity
  8
2上模
 62
   200
 48
0.6
370
    25
100
AcDbMText
 10
1157.446796428324
 20
7004.101149084442
 30
0.0
 40
15.0
 41
0.0
 46
0.0
 71
     5
 72
     1
  1
\A1;R10 [R0.39”]
 11
0.7977608892539069
 21
0.6029739327506752
 31
0.0
 73
     1
 44
1.0
  0
SOLID
  5
2DF
330
2DB
100
AcDbEntity
  8
2上模
 62
   104
 48
0.6
100
AcDbTrace
 10
1096.92865348712
 20
6949.902203624768
 30
0.0
 11
1098.938566596289
 21
6947.24300066059
 31
0.0
 12
1089.956001149166
 22
6942.542862815172
 32
0.0
 13
1089.956001149166
 23
6942.542862815172
 33
0.0
  0
POINT
  5
2E0
330
2DB
100
AcDbEntity
  8
Defpoints
 62
     0
 48
0.6
100
AcDbPoint
 10
1089.956001149166
 20
6942.542862815172
 30
0.0
  0
POINT
  5
2E1
330
2DB
100
AcDbEntity
  8
Defpoints
 62
     0
 48
0.6
100
AcDbPoint
 10
1097.93361004165
 20
6948.572602142636
 30
0.0
  0
ENDBLK
  5
2E2
330
2DB
100
AcDbEntity
  8
0
100
AcDbBlockEnd
  0
BLOCK
  5
2E4
330
2E3
100
AcDbEntity
  8
0
100
AcDbBlockBegin
  2
*D17
 70
     1
 10
0.0
 20
0.0
 30
0.0
  3
*D17
  1

  0
LINE
  5
2E5
330
2E3
100
AcDbEntity
  8
2上模
 62
   104
 48
0.6
370
     9
100
AcDbLine
 10
1087.93361004165
 20
7332.572602142635
 30
0.0
 11
1087.93361004165
 21
7389.703467656798
 31
0.0
  0
LINE
  5
2E6
330
2E3
100
AcDbEntity
  8
2上模
 62
   104
 48
0.6
370
     9
100
AcDbLine
 10
1616.93361004165
 20
7332.572602142635
 30
0.0
 11
1616.93361004165
 21
7389.703467656798
 31
0.0
  0
LINE
  5
2E7
330
2E3
100
AcDbEntity
  8
2上模
 62
   104
 48
0.6
370
     9
100
AcDbLine
 10
1097.93361004165
 20
7388.453467656798
 30
0.0
 11
1606.93361004165
 21
7388.453467656798
 31
0.0
  0
SOLID
  5
2E8
330
2E3
100
AcDbEntity
  8
2上模
 62
   104
 48
0.6
100
AcDbTrace
 10
1097.93361004165
 20
7390.120134323466
 30
0.0
 11
1097.93361004165
 21
7386.78680099013
 31
0.0
 12
1087.93361004165
 22
7388.453467656798
 32
0.0
 13
1087.93361004165
 23
7388.453467656798
 33
0.0
  0
SOLID
  5
2E9
330
2E3
100
AcDbEntity
  8
2上模
 62
   104
 48
0.6
100
AcDbTrace
 10
1606.93361004165
 20
7390.120134323466
 30
0.0
 11
1606.93361004165
 21
7386.78680099013
 31
0.0
 12
1616.93361004165
 22
7388.453467656798
 32
0.0
 13
1616.93361004165
 23
7388.453467656798
 33
0.0
  0
MTEXT
  5
2EA
330
2E3
100
AcDbEntity
  8
2上模
 62
   200
 48
0.6
370
    25
100
AcDbMText
 10
1352.43361004165
 20
7396.867070597974
 30
0.0
 40
15.0
 41
0.0
 46
0.0
 71
     5
 72
     1
  1
\A1;529 [20.83”]
 73
     1
 44
1.0
  0
POINT
  5
2EB
330
2E3
100
AcDbEntity
  8
Defpoints
 62
     0
 48
0.6
100
AcDbPoint
 10
1087.93361004165
 20
7330.572602142637
 30
0.0
  0
POINT
  5
2EC
330
2E3
100
AcDbEntity
  8
Defpoints
 62
     0
 48
0.6
100
AcDbPoint
 10
1616.93361004165
 20
7330.572602142637
 30
0.0
  0
POINT
  5
2ED
330
2E3
100
AcDbEntity
  8
Defpoints
 62
     0
 48
0.6
100
AcDbPoint
 10
1616.93361004165
 20
7388.453467656798
 30
0.0
  0
ENDBLK
  5
2EE
330
2E3
100
AcDbEntity
  8
0
100
AcDbBlockEnd
  0
BLOCK
  5
2F0
330
2EF
100
AcDbEntity
  8
0
100
AcDbBlockBegin
  2
*D18
 70
     1
 10
0.0
 20
0.0
 30
0.0
  3
*D18
  1

  0
LINE
  5
2F1
330
2EF
100
AcDbEntity
  8
2上模
 62
   104
 48
0.6
370
     9
100
AcDbLine
 10
1608.93361004165
 20
7340.572602142636
 30
0.0
 11
1708.691597987078
 21
7340.572602142636
 31
0.0
  0
LINE
  5
2F2
330
2EF
100
AcDbEntity
  8
2上模
 62
   104
 48
0.6
370
     9
100
AcDbLine
 10
1608.93361004165
 20
6938.572602142635
 30
0.0
 11
1708.691597987078
 21
6938.572602142635
 31
0.0
  0
LINE
  5
2F3
330
2EF
100
AcDbEntity
  8
2上模
 62
   104
 48
0.6
370
     9
100
AcDbLine
 10
1707.441597987078
 20
7330.572602142637
 30
0.0
 11
1707.441597987078
 21
6948.572602142636
 31
0.0
  0
SOLID
  5
2F4
330
2EF
100
AcDbEntity
  8
2上模
 62
   104
 48
0.6
100
AcDbTrace
 10
1705.774931320411
 20
7330.572602142637
 30
0.0
 11
1709.108264653745
 21
7330.572602142637
 31
0.0
 12
1707.441597987078
 22
7340.572602142636
 32
0.0
 13
1707.441597987078
 23
7340.572602142636
 33
0.0
  0
SOLID
  5
2F5
330
2EF
100
AcDbEntity
  8
2上模
 62
   104
 48
0.6
100
AcDbTrace
 10
1705.774931320411
 20
6948.572602142636
 30
0.0
 11
1709.108264653745
 21
6948.572602142636
 31
0.0
 12
1707.441597987078
 22
6938.572602142635
 32
0.0
 13
1707.441597987078
 23
6938.572602142635
 33
0.0
  0
MTEXT
  5
2F6
330
2EF
100
AcDbEntity
  8
2上模
 62
   200
 48
0.6
370
    25
100
AcDbMText
 10
1699.0279950459
 20
7139.572602142637
 30
0.0
 40
15.0
 41
0.0
 46
0.0
 71
     5
 72
     1
  1
\A1;402 [15.83”]
 11
0.0000000000000001
 21
1.0
 31
0.0
 73
     1
 44
1.0
  0
POINT
  5
2F7
330
2EF
100
AcDbEntity
  8
Defpoints
 62
     0
 48
0.6
100
AcDbPoint
 10
1606.93361004165
 20
7340.572602142636
 30
0.0
  0
POINT
  5
2F8
330
2EF
100
AcDbEntity
  8
Defpoints
 62
     0
 48
0.6
100
AcDbPoint
 10
1606.93361004165
 20
6938.572602142635
 30
0.0
  0
POINT
  5
2F9
330
2EF
100
AcDbEntity
  8
Defpoints
 62
     0
 48
0.6
100
AcDbPoint
 10
1707.441597987078
 20
6938.572602142635
 30
0.0
  0
ENDBLK
  5
2FA
330
2EF
100
AcDbEntity
  8
0
100
AcDbBlockEnd
  0
BLOCK
  5
31B
330
315
100
AcDbEntity
  8
0
100
AcDbBlockBegin
  2
*D19
 70
     1
 10
0.0
 20
0.0
 30
0.0
  3
*D19
  1

  0
LINE
  5
335
330
315
100
AcDbEntity
  8
2上模
 62
   104
 48
0.6
370
     9
100
AcDbLine
 10
3572.565031980206
 20
741.224565208159
 30
0.0
 11
3452.705229298363
 21
650.6305820043021
 31
0.0
  0
MTEXT
  5
336
330
315
100
AcDbEntity
  8
2上模
 62
   200
 48
0.6
370
    25
100
AcDbMText
 10
3511.253245698204
 20
707.4360910585451
 30
0.0
 40
15.0
 41
0.0
 46
0.0
 71
     5
 72
     1
  1
\A1;R10 [R0.39”]
 11
0.7977608892540215
 21
0.6029739327505237
 31
0.0
 73
     1
 44
1.0
  0
SOLID
  5
337
330
315
100
AcDbEntity
  8
2上模
 62
   104
 48
0.6
100
AcDbTrace
 10
3451.700272743778
 20
651.9601834863922
 30
0.0
 11
3453.710185852947
 21
649.3009805222119
 31
0.0
 12
3444.727620405823
 22
644.6008426767969
 32
0.0
 13
3444.727620405823
 23
644.6008426767969
 33
0.0
  0
POINT
  5
338
330
315
100
AcDbEntity
  8
Defpoints
 62
     0
 48
0.6
100
AcDbPoint
 10
3444.727620405823
 20
644.6008426767969
 30
0.0
  0
POINT
  5
339
330
315
100
AcDbEntity
  8
Defpoints
 62
     0
 48
0.6
100
AcDbPoint
 10
3452.705229298306
 20
650.6305820042594
 30
0.0
  0
ENDBLK
  5
31C
330
315
100
AcDbEntity
  8
0
100
AcDbBlockEnd
  0
BLOCK
  5
327
330
31D
100
AcDbEntity
  8
0
100
AcDbBlockBegin
  2
*D20
 70
     1
 10
0.0
 20
0.0
 30
0.0
  3
*D20
  1

  0
LINE
  5
31E
330
31D
100
AcDbEntity
  8
2上模
 62
   104
 48
0.6
370
     9
100
AcDbLine
 10
3442.705229298307
 20
1034.630582004261
 30
0.0
 11
3442.705229298307
 21
1091.761447518422
 31
0.0
  0
LINE
  5
31F
330
31D
100
AcDbEntity
  8
2上模
 62
   104
 48
0.6
370
     9
100
AcDbLine
 10
3971.705229298306
 20
1034.630582004261
 30
0.0
 11
3971.705229298306
 21
1091.761447518422
 31
0.0
  0
LINE
  5
320
330
31D
100
AcDbEntity
  8
2上模
 62
   104
 48
0.6
370
     9
100
AcDbLine
 10
3452.705229298306
 20
1090.511447518422
 30
0.0
 11
3961.705229298306
 21
1090.511447518422
 31
0.0
  0
SOLID
  5
321
330
31D
100
AcDbEntity
  8
2上模
 62
   104
 48
0.6
100
AcDbTrace
 10
3452.705229298306
 20
1092.178114185089
 30
0.0
 11
3452.705229298306
 21
1088.844780851755
 31
0.0
 12
3442.705229298307
 22
1090.511447518422
 32
0.0
 13
3442.705229298307
 23
1090.511447518422
 33
0.0
  0
SOLID
  5
322
330
31D
100
AcDbEntity
  8
2上模
 62
   104
 48
0.6
100
AcDbTrace
 10
3961.705229298306
 20
1092.178114185089
 30
0.0
 11
3961.705229298306
 21
1088.844780851755
 31
0.0
 12
3971.705229298306
 22
1090.511447518422
 32
0.0
 13
3971.705229298306
 23
1090.511447518422
 33
0.0
  0
MTEXT
  5
323
330
31D
100
AcDbEntity
  8
2上模
 62
   200
 48
0.6
370
    25
100
AcDbMText
 10
3707.205229298307
 20
1100.525733232708
 30
0.0
 40
15.0
 41
0.0
 46
0.0
 71
     5
 72
     1
  1
\A1;529 [20.83”]
 73
     1
 44
1.0
  0
POINT
  5
324
330
31D
100
AcDbEntity
  8
Defpoints
 62
     0
 48
0.6
100
AcDbPoint
 10
3442.705229298307
 20
1032.630582004261
 30
0.0
  0
POINT
  5
325
330
31D
100
AcDbEntity
  8
Defpoints
 62
     0
 48
0.6
100
AcDbPoint
 10
3971.705229298306
 20
1032.630582004261
 30
0.0
  0
POINT
  5
326
330
31D
100
AcDbEntity
  8
Defpoints
 62
     0
 48
0.6
100
AcDbPoint
 10
3971.705229298306
 20
1090.511447518422
 30
0.0
  0
ENDBLK
  5
328
330
31D
100
AcDbEntity
  8
0
100
AcDbBlockEnd
  0
BLOCK
  5
333
330
329
100
AcDbEntity
  8
0
100
AcDbBlockBegin
  2
*D21
 70
     1
 10
0.0
 20
0.0
 30
0.0
  3
*D21
  1

  0
LINE
  5
32A
330
329
100
AcDbEntity
  8
2上模
 62
   104
 48
0.6
370
     9
100
AcDbLine
 10
3963.705229298307
 20
1042.630582004259
 30
0.0
 11
4063.463217243735
 21
1042.630582004259
 31
0.0
  0
LINE
  5
32B
330
329
100
AcDbEntity
  8
2上模
 62
   104
 48
0.6
370
     9
100
AcDbLine
 10
3963.705229298307
 20
640.6305820042594
 30
0.0
 11
4063.463217243734
 21
640.6305820042594
 31
0.0
  0
LINE
  5
32C
330
329
100
AcDbEntity
  8
2上模
 62
   104
 48
0.6
370
     9
100
AcDbLine
 10
4062.213217243733
 20
1032.630582004259
 30
0.0
 11
4062.213217243733
 21
650.6305820042594
 31
0.0
  0
SOLID
  5
32D
330
329
100
AcDbEntity
  8
2上模
 62
   104
 48
0.6
100
AcDbTrace
 10
4060.546550577067
 20
1032.630582004259
 30
0.0
 11
4063.879883910401
 21
1032.630582004259
 31
0.0
 12
4062.213217243733
 22
1042.630582004259
 32
0.0
 13
4062.213217243733
 23
1042.630582004259
 33
0.0
  0
SOLID
  5
32E
330
329
100
AcDbEntity
  8
2上模
 62
   104
 48
0.6
100
AcDbTrace
 10
4060.546550577067
 20
650.6305820042594
 30
0.0
 11
4063.8798839104
 21
650.6305820042594
 31
0.0
 12
4062.213217243733
 22
640.6305820042594
 32
0.0
 13
4062.213217243733
 23
640.6305820042594
 33
0.0
  0
MTEXT
  5
32F
330
329
100
AcDbEntity
  8
2上模
 62
   200
 48
0.6
370
    25
100
AcDbMText
 10
4052.198931529448
 20
841.63058200426
 30
0.0
 40
15.0
 41
0.0
 46
0.0
 71
     5
 72
     1
  1
\A1;402 [15.83”]
 11
0.0000000000000001
 21
1.0
 31
0.0
 73
     1
 44
1.0
  0
POINT
  5
330
330
329
100
AcDbEntity
  8
Defpoints
 62
     0
 48
0.6
100
AcDbPoint
 10
3961.705229298306
 20
1042.630582004259
 30
0.0
  0
POINT
  5
331
330
329
100
AcDbEntity
  8
Defpoints
 62
     0
 48
0.6
100
AcDbPoint
 10
3961.705229298306
 20
640.6305820042594
 30
0.0
  0
POINT
  5
332
330
329
100
AcDbEntity
  8
Defpoints
 62
     0
 48
0.6
100
AcDbPoint
 10
4062.213217243733
 20
640.6305820042594
 30
0.0
  0
ENDBLK
  5
334
330
329
100
AcDbEntity
  8
0
100
AcDbBlockEnd
  0
BLOCK
  5
33B
330
33A
100
AcDbEntity
  8
0
100
AcDbBlockBegin
  2
*D22
 70
     1
 10
0.0
 20
0.0
 30
0.0
  3
*D22
  1

  0
LINE
  5
33C
330
33A
100
AcDbEntity
  8
2上模
 62
   104
 48
0.6
370
     9
100
AcDbLine
 10
2093.021292934706
 20
7040.175869970079
 30
0.0
 11
1971.826162545715
 21
6948.572602142687
 31
0.0
  0
MTEXT
  5
33D
330
33A
100
AcDbEntity
  8
2上模
 62
   200
 48
0.6
370
    25
100
AcDbMText
 10
2031.339348932458
 20
7004.101149084322
 30
0.0
 40
15.0
 41
0.0
 46
0.0
 71
     5
 72
     1
  1
\A1;R10 [R0.39”]
 11
0.7977608892552464
 21
0.6029739327489031
 31
0.0
 73
     1
 44
1.0
  0
SOLID
  5
33E
330
33A
100
AcDbEntity
  8
2上模
 62
   104
 48
0.6
100
AcDbTrace
 10
1970.821205991133
 20
6949.902203624779
 30
0.0
 11
1972.831119100297
 21
6947.243000660596
 31
0.0
 12
1963.848553653162
 22
6942.542862815199
 32
0.0
 13
1963.848553653162
 23
6942.542862815199
 33
0.0
  0
POINT
  5
33F
330
33A
100
AcDbEntity
  8
Defpoints
 62
     0
 48
0.6
100
AcDbPoint
 10
1963.848553653162
 20
6942.542862815199
 30
0.0
  0
POINT
  5
340
330
33A
100
AcDbEntity
  8
Defpoints
 62
     0
 48
0.6
100
AcDbPoint
 10
1971.826162545647
 20
6948.572602142636
 30
0.0
  0
ENDBLK
  5
341
330
33A
100
AcDbEntity
  8
0
100
AcDbBlockEnd
  0
BLOCK
  5
343
330
342
100
AcDbEntity
  8
0
100
AcDbBlockBegin
  2
*D23
 70
     1
 10
0.0
 20
0.0
 30
0.0
  3
*D23
  1

  0
LINE
  5
344
330
342
100
AcDbEntity
  8
2上模
 62
   104
 48
0.6
370
     9
100
AcDbLine
 10
1961.826162545646
 20
7332.572602142635
 30
0.0
 11
1961.826162545646
 21
7389.703467656798
 31
0.0
  0
LINE
  5
345
330
342
100
AcDbEntity
  8
2上模
 62
   104
 48
0.6
370
     9
100
AcDbLine
 10
2592.826162545646
 20
7332.572602142635
 30
0.0
 11
2592.826162545646
 21
7389.703467656798
 31
0.0
  0
LINE
  5
346
330
342
100
AcDbEntity
  8
2上模
 62
   104
 48
0.6
370
     9
100
AcDbLine
 10
1971.826162545646
 20
7388.453467656798
 30
0.0
 11
2582.826162545647
 21
7388.453467656798
 31
0.0
  0
SOLID
  5
347
330
342
100
AcDbEntity
  8
2上模
 62
   104
 48
0.6
100
AcDbTrace
 10
1971.826162545646
 20
7390.120134323466
 30
0.0
 11
1971.826162545646
 21
7386.78680099013
 31
0.0
 12
1961.826162545646
 22
7388.453467656798
 32
0.0
 13
1961.826162545646
 23
7388.453467656798
 33
0.0
  0
SOLID
  5
348
330
342
100
AcDbEntity
  8
2上模
 62
   104
 48
0.6
100
AcDbTrace
 10
2582.826162545647
 20
7390.120134323466
 30
0.0
 11
2582.826162545647
 21
7386.78680099013
 31
0.0
 12
2592.826162545646
 22
7388.453467656798
 32
0.0
 13
2592.826162545646
 23
7388.453467656798
 33
0.0
  0
MTEXT
  5
349
330
342
100
AcDbEntity
  8
2上模
 62
   200
 48
0.6
370
    25
100
AcDbMText
 10
2277.326162545646
 20
7396.867070597974
 30
0.0
 40
15.0
 41
0.0
 46
0.0
 71
     5
 72
     1
  1
\A1;631 [24.84”]
 73
     1
 44
1.0
  0
POINT
  5
34A
330
342
100
AcDbEntity
  8
Defpoints
 62
     0
 48
0.6
100
AcDbPoint
 10
1961.826162545646
 20
7330.572602142637
 30
0.0
  0
POINT
  5
34B
330
342
100
AcDbEntity
  8
Defpoints
 62
     0
 48
0.6
100
AcDbPoint
 10
2592.826162545646
 20
7330.572602142637
 30
0.0
  0
POINT
  5
34C
330
342
100
AcDbEntity
  8
Defpoints
 62
     0
 48
0.6
100
AcDbPoint
 10
2592.826162545646
 20
7388.453467656798
 30
0.0
  0
ENDBLK
  5
34D
330
342
100
AcDbEntity
  8
0
100
AcDbBlockEnd
  0
BLOCK
  5
34F
330
34E
100
AcDbEntity
  8
0
100
AcDbBlockBegin
  2
*D24
 70
     1
 10
0.0
 20
0.0
 30
0.0
  3
*D24
  1

  0
LINE
  5
350
330
34E
100
AcDbEntity
  8
2上模
 62
   104
 48
0.6
370
     9
100
AcDbLine
 10
2584.826162545646
 20
7340.572602142636
 30
0.0
 11
2684.584150490958
 21
7340.572602142636
 31
0.0
  0
LINE
  5
351
330
34E
100
AcDbEntity
  8
2上模
 62
   104
 48
0.6
370
     9
100
AcDbLine
 10
2584.826162545646
 20
6938.572602142635
 30
0.0
 11
2684.584150490957
 21
6938.572602142635
 31
0.0
  0
LINE
  5
352
330
34E
100
AcDbEntity
  8
2上模
 62
   104
 48
0.6
370
     9
100
AcDbLine
 10
2683.334150490959
 20
7330.572602142637
 30
0.0
 11
2683.334150490959
 21
6948.572602142636
 31
0.0
  0
SOLID
  5
353
330
34E
100
AcDbEntity
  8
2上模
 62
   104
 48
0.6
100
AcDbTrace
 10
2681.667483824292
 20
7330.572602142637
 30
0.0
 11
2685.000817157626
 21
7330.572602142637
 31
0.0
 12
2683.334150490959
 22
7340.572602142636
 32
0.0
 13
2683.334150490959
 23
7340.572602142636
 33
0.0
  0
SOLID
  5
354
330
34E
100
AcDbEntity
  8
2上模
 62
   104
 48
0.6
100
AcDbTrace
 10
2681.667483824291
 20
6948.572602142636
 30
0.0
 11
2685.000817157624
 21
6948.572602142636
 31
0.0
 12
2683.334150490959
 22
6938.572602142635
 32
0.0
 13
2683.334150490959
 23
6938.572602142635
 33
0.0
  0
MTEXT
  5
355
330
34E
100
AcDbEntity
  8
2上模
 62
   200
 48
0.6
370
    25
100
AcDbMText
 10
2674.92054754978
 20
7139.572602142637
 30
0.0
 40
15.0
 41
0.0
 46
0.0
 71
     5
 72
     1
  1
\A1;402 [15.83”]
 11
0.0000000000000001
 21
1.0
 31
0.0
 73
     1
 44
1.0
  0
POINT
  5
356
330
34E
100
AcDbEntity
  8
Defpoints
 62
     0
 48
0.6
100
AcDbPoint
 10
2582.826162545647
 20
7340.572602142636
 30
0.0
  0
POINT
  5
357
330
34E
100
AcDbEntity
  8
Defpoints
 62
     0
 48
0.6
100
AcDbPoint
 10
2582.826162545647
 20
6938.572602142635
 30
0.0
  0
POINT
  5
358
330
34E
100
AcDbEntity
  8
Defpoints
 62
     0
 48
0.6
100
AcDbPoint
 10
2683.334150490959
 20
6938.572602142635
 30
0.0
  0
ENDBLK
  5
359
330
34E
100
AcDbEntity
  8
0
100
AcDbBlockEnd
  0
BLOCK
  5
37A
330
374
100
AcDbEntity
  8
0
100
AcDbBlockBegin
  2
*D25
 70
     1
 10
0.0
 20
0.0
 30
0.0
  3
*D25
  1

  0
LINE
  5
394
330
374
100
AcDbEntity
  8
2上模
 62
   104
 48
0.6
370
     9
100
AcDbLine
 10
2462.676720680939
 20
753.3891703883653
 30
0.0
 11
2342.816917998903
 21
662.7951871847597
 31
0.0
  0
MTEXT
  5
395
330
374
100
AcDbEntity
  8
2上模
 62
   200
 48
0.6
370
    25
100
AcDbMText
 10
2401.364934398865
 20
719.6006962388803
 30
0.0
 40
15.0
 41
0.0
 46
0.0
 71
     5
 72
     1
  1
\A1;R10 [R0.39”]
 11
0.79776088925529
 21
0.6029739327488453
 31
0.0
 73
     1
 44
1.0
  0
SOLID
  5
396
330
374
100
AcDbEntity
  8
2上模
 62
   104
 48
0.6
100
AcDbTrace
 10
2341.811961444321
 20
664.1247886668518
 30
0.0
 11
2343.821874553484
 21
661.4655857026678
 31
0.0
 12
2334.83930910635
 22
656.7654478572714
 32
0.0
 13
2334.83930910635
 23
656.7654478572714
 33
0.0
  0
POINT
  5
397
330
374
100
AcDbEntity
  8
Defpoints
 62
     0
 48
0.6
100
AcDbPoint
 10
2334.83930910635
 20
656.7654478572714
 30
0.0
  0
POINT
  5
398
330
374
100
AcDbEntity
  8
Defpoints
 62
     0
 48
0.6
100
AcDbPoint
 10
2342.816917998835
 20
662.795187184708
 30
0.0
  0
ENDBLK
  5
37B
330
374
100
AcDbEntity
  8
0
100
AcDbBlockEnd
  0
BLOCK
  5
386
330
37C
100
AcDbEntity
  8
0
100
AcDbBlockBegin
  2
*D26
 70
     1
 10
0.0
 20
0.0
 30
0.0
  3
*D26
  1

  0
LINE
  5
37D
330
37C
100
AcDbEntity
  8
2上模
 62
   104
 48
0.6
370
     9
100
AcDbLine
 10
2332.816917998835
 20
1046.79518718471
 30
0.0
 11
2332.816917998835
 21
1103.926052698871
 31
0.0
  0
LINE
  5
37E
330
37C
100
AcDbEntity
  8
2上模
 62
   104
 48
0.6
370
     9
100
AcDbLine
 10
2963.816917998835
 20
1046.79518718471
 30
0.0
 11
2963.816917998835
 21
1103.926052698871
 31
0.0
  0
LINE
  5
37F
330
37C
100
AcDbEntity
  8
2上模
 62
   104
 48
0.6
370
     9
100
AcDbLine
 10
2342.816917998835
 20
1102.676052698871
 30
0.0
 11
2953.816917998835
 21
1102.676052698871
 31
0.0
  0
SOLID
  5
380
330
37C
100
AcDbEntity
  8
2上模
 62
   104
 48
0.6
100
AcDbTrace
 10
2342.816917998835
 20
1104.342719365537
 30
0.0
 11
2342.816917998835
 21
1101.009386032204
 31
0.0
 12
2332.816917998835
 22
1102.676052698871
 32
0.0
 13
2332.816917998835
 23
1102.676052698871
 33
0.0
  0
SOLID
  5
381
330
37C
100
AcDbEntity
  8
2上模
 62
   104
 48
0.6
100
AcDbTrace
 10
2953.816917998835
 20
1104.342719365537
 30
0.0
 11
2953.816917998835
 21
1101.009386032204
 31
0.0
 12
2963.816917998835
 22
1102.676052698871
 32
0.0
 13
2963.816917998835
 23
1102.676052698871
 33
0.0
  0
MTEXT
  5
382
330
37C
100
AcDbEntity
  8
2上模
 62
   200
 48
0.6
370
    25
100
AcDbMText
 10
2648.316917998835
 20
1112.690338413157
 30
0.0
 40
15.0
 41
0.0
 46
0.0
 71
     5
 72
     1
  1
\A1;631 [24.84”]
 73
     1
 44
1.0
  0
POINT
  5
383
330
37C
100
AcDbEntity
  8
Defpoints
 62
     0
 48
0.6
100
AcDbPoint
 10
2332.816917998835
 20
1044.79518718471
 30
0.0
  0
POINT
  5
384
330
37C
100
AcDbEntity
  8
Defpoints
 62
     0
 48
0.6
100
AcDbPoint
 10
2963.816917998835
 20
1044.79518718471
 30
0.0
  0
POINT
  5
385
330
37C
100
AcDbEntity
  8
Defpoints
 62
     0
 48
0.6
100
AcDbPoint
 10
2963.816917998835
 20
1102.676052698871
 30
0.0
  0
ENDBLK
  5
387
330
37C
100
AcDbEntity
  8
0
100
AcDbBlockEnd
  0
BLOCK
  5
392
330
388
100
AcDbEntity
  8
0
100
AcDbBlockBegin
  2
*D27
 70
     1
 10
0.0
 20
0.0
 30
0.0
  3
*D27
  1

  0
LINE
  5
389
330
388
100
AcDbEntity
  8
2上模
 62
   104
 48
0.6
370
     9
100
AcDbLine
 10
2955.816917998836
 20
1054.795187184708
 30
0.0
 11
3055.574905944148
 21
1054.795187184708
 31
0.0
  0
LINE
  5
38A
330
388
100
AcDbEntity
  8
2上模
 62
   104
 48
0.6
370
     9
100
AcDbLine
 10
2955.816917998836
 20
652.7951871847079
 30
0.0
 11
3055.574905944147
 21
652.7951871847079
 31
0.0
  0
LINE
  5
38B
330
388
100
AcDbEntity
  8
2上模
 62
   104
 48
0.6
370
     9
100
AcDbLine
 10
3054.324905944147
 20
1044.795187184708
 30
0.0
 11
3054.324905944147
 21
662.7951871847081
 31
0.0
  0
SOLID
  5
38C
330
388
100
AcDbEntity
  8
2上模
 62
   104
 48
0.6
100
AcDbTrace
 10
3052.658239277481
 20
1044.795187184708
 30
0.0
 11
3055.991572610814
 21
1044.795187184708
 31
0.0
 12
3054.324905944147
 22
1054.795187184708
 32
0.0
 13
3054.324905944147
 23
1054.795187184708
 33
0.0
  0
SOLID
  5
38D
330
388
100
AcDbEntity
  8
2上模
 62
   104
 48
0.6
100
AcDbTrace
 10
3052.658239277481
 20
662.7951871847081
 30
0.0
 11
3055.991572610813
 21
662.7951871847081
 31
0.0
 12
3054.324905944147
 22
652.7951871847079
 32
0.0
 13
3054.324905944147
 23
652.7951871847079
 33
0.0
  0
MTEXT
  5
38E
330
388
100
AcDbEntity
  8
2上模
 62
   200
 48
0.6
370
    25
100
AcDbMText
 10
3044.310620229861
 20
853.7951871847084
 30
0.0
 40
15.0
 41
0.0
 46
0.0
 71
     5
 72
     1
  1
\A1;402 [15.83”]
 11
0.0000000000000001
 21
1.0
 31
0.0
 73
     1
 44
1.0
  0
POINT
  5
38F
330
388
100
AcDbEntity
  8
Defpoints
 62
     0
 48
0.6
100
AcDbPoint
 10
2953.816917998836
 20
1054.795187184708
 30
0.0
  0
POINT
  5
390
330
388
100
AcDbEntity
  8
Defpoints
 62
     0
 48
0.6
100
AcDbPoint
 10
2953.816917998836
 20
652.7951871847079
 30
0.0
  0
POINT
  5
391
330
388
100
AcDbEntity
  8
Defpoints
 62
     0
 48
0.6
100
AcDbPoint
 10
3054.324905944147
 20
652.7951871847079
 30
0.0
  0
ENDBLK
  5
393
330
388
100
AcDbEntity
  8
0
100
AcDbBlockEnd
  0
BLOCK
  5
39A
330
399
100
AcDbEntity
  8
0
100
AcDbBlockBegin
  2
*D28
 70
     1
 10
0.0
 20
0.0
 30
0.0
  3
*D28
  1

  0
LINE
  5
39B
330
399
100
AcDbEntity
  8
2上模
 62
   104
 48
0.6
370
     9
100
AcDbLine
 10
3105.448848611357
 20
7040.175869968956
 30
0.0
 11
2984.25371822152
 21
6948.572602142686
 31
0.0
  0
MTEXT
  5
39C
330
399
100
AcDbEntity
  8
2上模
 62
   200
 48
0.6
370
    25
100
AcDbMText
 10
3043.766904608776
 20
7004.101149083769
 30
0.0
 40
15.0
 41
0.0
 46
0.0
 71
     5
 72
     1
  1
\A1;R10 [R0.39”]
 11
0.7977608892608186
 21
0.6029739327415308
 31
0.0
 73
     1
 44
1.0
  0
SOLID
  5
39D
330
399
100
AcDbEntity
  8
2上模
 62
   104
 48
0.6
100
AcDbTrace
 10
2983.248761666951
 20
6949.902203624787
 30
0.0
 11
2985.258674776089
 21
6947.243000660583
 31
0.0
 12
2976.276109328912
 22
6942.54286281527
 32
0.0
 13
2976.276109328912
 23
6942.54286281527
 33
0.0
  0
POINT
  5
39E
330
399
100
AcDbEntity
  8
Defpoints
 62
     0
 48
0.6
100
AcDbPoint
 10
2976.276109328912
 20
6942.54286281527
 30
0.0
  0
POINT
  5
39F
330
399
100
AcDbEntity
  8
Defpoints
 62
     0
 48
0.6
100
AcDbPoint
 10
2984.253718221513
 20
6948.57260214268
 30
0.0
  0
ENDBLK
  5
3A0
330
399
100
AcDbEntity
  8
0
100
AcDbBlockEnd
  0
BLOCK
  5
3A2
330
3A1
100
AcDbEntity
  8
0
100
AcDbBlockBegin
  2
*D29
 70
     1
 10
0.0
 20
0.0
 30
0.0
  3
*D29
  1

  0
LINE
  5
3A3
330
3A1
100
AcDbEntity
  8
2上模
 62
   104
 48
0.6
370
     9
100
AcDbLine
 10
2974.253718221469
 20
7332.572602142635
 30
0.0
 11
2974.253718221469
 21
7389.703467656798
 31
0.0
  0
LINE
  5
3A4
330
3A1
100
AcDbEntity
  8
2上模
 62
   104
 48
0.6
370
     9
100
AcDbLine
 10
3656.253718221468
 20
7332.572602142635
 30
0.0
 11
3656.253718221468
 21
7389.703467656798
 31
0.0
  0
LINE
  5
3A5
330
3A1
100
AcDbEntity
  8
2上模
 62
   104
 48
0.6
370
     9
100
AcDbLine
 10
2984.253718221469
 20
7388.453467656798
 30
0.0
 11
3646.253718221468
 21
7388.453467656798
 31
0.0
  0
SOLID
  5
3A6
330
3A1
100
AcDbEntity
  8
2上模
 62
   104
 48
0.6
100
AcDbTrace
 10
2984.253718221469
 20
7390.120134323466
 30
0.0
 11
2984.253718221469
 21
7386.78680099013
 31
0.0
 12
2974.253718221469
 22
7388.453467656798
 32
0.0
 13
2974.253718221469
 23
7388.453467656798
 33
0.0
  0
SOLID
  5
3A7
330
3A1
100
AcDbEntity
  8
2上模
 62
   104
 48
0.6
100
AcDbTrace
 10
3646.253718221468
 20
7390.120134323466
 30
0.0
 11
3646.253718221468
 21
7386.78680099013
 31
0.0
 12
3656.253718221468
 22
7388.453467656798
 32
0.0
 13
3656.253718221468
 23
7388.453467656798
 33
0.0
  0
MTEXT
  5
3A8
330
3A1
100
AcDbEntity
  8
2上模
 62
   200
 48
0.6
370
    25
100
AcDbMText
 10
3315.25371822147
 20
7396.867070597974
 30
0.0
 40
15.0
 41
0.0
 46
0.0
 71
     5
 72
     1
  1
\A1;682 [26.85”]
 73
     1
 44
1.0
  0
POINT
  5
3A9
330
3A1
100
AcDbEntity
  8
Defpoints
 62
     0
 48
0.6
100
AcDbPoint
 10
2974.253718221469
 20
7330.572602142637
 30
0.0
  0
POINT
  5
3AA
330
3A1
100
AcDbEntity
  8
Defpoints
 62
     0
 48
0.6
100
AcDbPoint
 10
3656.253718221468
 20
7330.572602142637
 30
0.0
  0
POINT
  5
3AB
330
3A1
100
AcDbEntity
  8
Defpoints
 62
     0
 48
0.6
100
AcDbPoint
 10
3656.253718221468
 20
7388.453467656798
 30
0.0
  0
ENDBLK
  5
3AC
330
3A1
100
AcDbEntity
  8
0
100
AcDbBlockEnd
  0
BLOCK
  5
3AE
330
3AD
100
AcDbEntity
  8
0
100
AcDbBlockBegin
  2
*D30
 70
     1
 10
0.0
 20
0.0
 30
0.0
  3
*D30
  1

  0
LINE
  5
3AF
330
3AD
100
AcDbEntity
  8
2上模
 62
   104
 48
0.6
370
     9
100
AcDbLine
 10
3648.253718221468
 20
7340.572602142636
 30
0.0
 11
3748.011706166869
 21
7340.572602142636
 31
0.0
  0
LINE
  5
3B0
330
3AD
100
AcDbEntity
  8
2上模
 62
   104
 48
0.6
370
     9
100
AcDbLine
 10
3648.253718221468
 20
6938.572602142635
 30
0.0
 11
3748.011706166867
 21
6938.572602142635
 31
0.0
  0
LINE
  5
3B1
330
3AD
100
AcDbEntity
  8
2上模
 62
   104
 48
0.6
370
     9
100
AcDbLine
 10
3746.761706166868
 20
7330.572602142637
 30
0.0
 11
3746.761706166867
 21
6948.572602142636
 31
0.0
  0
SOLID
  5
3B2
330
3AD
100
AcDbEntity
  8
2上模
 62
   104
 48
0.6
100
AcDbTrace
 10
3745.095039500201
 20
7330.572602142637
 30
0.0
 11
3748.428372833534
 21
7330.572602142637
 31
0.0
 12
3746.761706166868
 22
7340.572602142636
 32
0.0
 13
3746.761706166868
 23
7340.572602142636
 33
0.0
  0
SOLID
  5
3B3
330
3AD
100
AcDbEntity
  8
2上模
 62
   104
 48
0.6
100
AcDbTrace
 10
3745.0950395002
 20
6948.572602142636
 30
0.0
 11
3748.428372833533
 21
6948.572602142636
 31
0.0
 12
3746.761706166867
 22
6938.572602142635
 32
0.0
 13
3746.761706166867
 23
6938.572602142635
 33
0.0
  0
MTEXT
  5
3B4
330
3AD
100
AcDbEntity
  8
2上模
 62
   200
 48
0.6
370
    25
100
AcDbMText
 10
3738.34810322569
 20
7139.572602142637
 30
0.0
 40
15.0
 41
0.0
 46
0.0
 71
     5
 72
     1
  1
\A1;402 [15.83”]
 11
0.0000000000000001
 21
1.0
 31
0.0
 73
     1
 44
1.0
  0
POINT
  5
3B5
330
3AD
100
AcDbEntity
  8
Defpoints
 62
     0
 48
0.6
100
AcDbPoint
 10
3646.253718221468
 20
7340.572602142636
 30
0.0
  0
POINT
  5
3B6
330
3AD
100
AcDbEntity
  8
Defpoints
 62
     0
 48
0.6
100
AcDbPoint
 10
3646.253718221468
 20
6938.572602142635
 30
0.0
  0
POINT
  5
3B7
330
3AD
100
AcDbEntity
  8
Defpoints
 62
     0
 48
0.6
100
AcDbPoint
 10
3746.761706166867
 20
6938.572602142635
 30
0.0
  0
ENDBLK
  5
3B8
330
3AD
100
AcDbEntity
  8
0
100
AcDbBlockEnd
  0
BLOCK
  5
3D9
330
3D3
100
AcDbEntity
  8
0
100
AcDbBlockBegin
  2
*D31
 70
     1
 10
0.0
 20
0.0
 30
0.0
  3
*D31
  1

  0
LINE
  5
3F3
330
3D3
100
AcDbEntity
  8
2上模
 62
   104
 48
0.6
370
     9
100
AcDbLine
 10
3354.554674428507
 20
780.3699983196398
 30
0.0
 11
3234.694871745642
 21
689.7760151171332
 31
0.0
  0
MTEXT
  5
3F4
330
3D3
100
AcDbEntity
  8
2上模
 62
   200
 48
0.6
370
    25
100
AcDbMText
 10
3293.242888146125
 20
746.5815241707177
 30
0.0
 40
15.0
 41
0.0
 46
0.0
 71
     5
 72
     1
  1
\A1;R10 [R0.39”]
 11
0.7977608892608186
 21
0.6029739327415308
 31
0.0
 73
     1
 44
1.0
  0
SOLID
  5
3F5
330
3D3
100
AcDbEntity
  8
2上模
 62
   104
 48
0.6
100
AcDbTrace
 10
3233.689915191071
 20
691.1056165992347
 30
0.0
 11
3235.699828300211
 21
688.446413635032
 31
0.0
 12
3226.717262853033
 22
683.746275789718
 32
0.0
 13
3226.717262853033
 23
683.746275789718
 33
0.0
  0
POINT
  5
3F6
330
3D3
100
AcDbEntity
  8
Defpoints
 62
     0
 48
0.6
100
AcDbPoint
 10
3226.717262853033
 20
683.746275789718
 30
0.0
  0
POINT
  5
3F7
330
3D3
100
AcDbEntity
  8
Defpoints
 62
     0
 48
0.6
100
AcDbPoint
 10
3234.694871745634
 20
689.7760151171284
 30
0.0
  0
ENDBLK
  5
3DA
330
3D3
100
AcDbEntity
  8
0
100
AcDbBlockEnd
  0
BLOCK
  5
3E5
330
3DB
100
AcDbEntity
  8
0
100
AcDbBlockBegin
  2
*D32
 70
     1
 10
0.0
 20
0.0
 30
0.0
  3
*D32
  1

  0
LINE
  5
3DC
330
3DB
100
AcDbEntity
  8
2上模
 62
   104
 48
0.6
370
     9
100
AcDbLine
 10
3224.694871745592
 20
1073.776015117087
 30
0.0
 11
3224.694871745592
 21
1130.906880631248
 31
0.0
  0
LINE
  5
3DD
330
3DB
100
AcDbEntity
  8
2上模
 62
   104
 48
0.6
370
     9
100
AcDbLine
 10
3906.69487174559
 20
1073.776015117087
 30
0.0
 11
3906.69487174559
 21
1130.906880631248
 31
0.0
  0
LINE
  5
3DE
330
3DB
100
AcDbEntity
  8
2上模
 62
   104
 48
0.6
370
     9
100
AcDbLine
 10
3234.694871745592
 20
1129.656880631248
 30
0.0
 11
3896.694871745591
 21
1129.656880631248
 31
0.0
  0
SOLID
  5
3DF
330
3DB
100
AcDbEntity
  8
2上模
 62
   104
 48
0.6
100
AcDbTrace
 10
3234.694871745592
 20
1131.323547297915
 30
0.0
 11
3234.694871745592
 21
1127.990213964581
 31
0.0
 12
3224.694871745592
 22
1129.656880631248
 32
0.0
 13
3224.694871745592
 23
1129.656880631248
 33
0.0
  0
SOLID
  5
3E0
330
3DB
100
AcDbEntity
  8
2上模
 62
   104
 48
0.6
100
AcDbTrace
 10
3896.694871745591
 20
1131.323547297915
 30
0.0
 11
3896.694871745591
 21
1127.990213964581
 31
0.0
 12
3906.69487174559
 22
1129.656880631248
 32
0.0
 13
3906.69487174559
 23
1129.656880631248
 33
0.0
  0
MTEXT
  5
3E1
330
3DB
100
AcDbEntity
  8
2上模
 62
   200
 48
0.6
370
    25
100
AcDbMText
 10
3565.694871745591
 20
1139.671166345533
 30
0.0
 40
15.0
 41
0.0
 46
0.0
 71
     5
 72
     1
  1
\A1;682 [26.85”]
 73
     1
 44
1.0
  0
POINT
  5
3E2
330
3DB
100
AcDbEntity
  8
Defpoints
 62
     0
 48
0.6
100
AcDbPoint
 10
3224.694871745592
 20
1071.776015117087
 30
0.0
  0
POINT
  5
3E3
330
3DB
100
AcDbEntity
  8
Defpoints
 62
     0
 48
0.6
100
AcDbPoint
 10
3906.69487174559
 20
1071.776015117087
 30
0.0
  0
POINT
  5
3E4
330
3DB
100
AcDbEntity
  8
Defpoints
 62
     0
 48
0.6
100
AcDbPoint
 10
3906.69487174559
 20
1129.656880631248
 30
0.0
  0
ENDBLK
  5
3E6
330
3DB
100
AcDbEntity
  8
0
100
AcDbBlockEnd
  0
BLOCK
  5
3F1
330
3E7
100
AcDbEntity
  8
0
100
AcDbBlockBegin
  2
*D33
 70
     1
 10
0.0
 20
0.0
 30
0.0
  3
*D33
  1

  0
LINE
  5
3E8
330
3E7
100
AcDbEntity
  8
2上模
 62
   104
 48
0.6
370
     9
100
AcDbLine
 10
3898.69487174559
 20
1081.776015117084
 30
0.0
 11
3998.452859690991
 21
1081.776015117084
 31
0.0
  0
LINE
  5
3E9
330
3E7
100
AcDbEntity
  8
2上模
 62
   104
 48
0.6
370
     9
100
AcDbLine
 10
3898.69487174559
 20
679.7760151170851
 30
0.0
 11
3998.452859690991
 21
679.7760151170851
 31
0.0
  0
LINE
  5
3EA
330
3E7
100
AcDbEntity
  8
2上模
 62
   104
 48
0.6
370
     9
100
AcDbLine
 10
3997.20285969099
 20
1071.776015117085
 30
0.0
 11
3997.20285969099
 21
689.7760151170849
 31
0.0
  0
SOLID
  5
3EB
330
3E7
100
AcDbEntity
  8
2上模
 62
   104
 48
0.6
100
AcDbTrace
 10
3995.536193024324
 20
1071.776015117085
 30
0.0
 11
3998.869526357657
 21
1071.776015117085
 31
0.0
 12
3997.20285969099
 22
1081.776015117084
 32
0.0
 13
3997.20285969099
 23
1081.776015117084
 33
0.0
  0
SOLID
  5
3EC
330
3E7
100
AcDbEntity
  8
2上模
 62
   104
 48
0.6
100
AcDbTrace
 10
3995.536193024323
 20
689.7760151170849
 30
0.0
 11
3998.869526357657
 21
689.7760151170849
 31
0.0
 12
3997.20285969099
 22
679.7760151170851
 32
0.0
 13
3997.20285969099
 23
679.7760151170851
 33
0.0
  0
MTEXT
  5
3ED
330
3E7
100
AcDbEntity
  8
2上模
 62
   200
 48
0.6
370
    25
100
AcDbMText
 10
3987.188573976704
 20
880.7760151170857
 30
0.0
 40
15.0
 41
0.0
 46
0.0
 71
     5
 72
     1
  1
\A1;402 [15.83”]
 11
0.0000000000000001
 21
1.0
 31
0.0
 73
     1
 44
1.0
  0
POINT
  5
3EE
330
3E7
100
AcDbEntity
  8
Defpoints
 62
     0
 48
0.6
100
AcDbPoint
 10
3896.694871745591
 20
1081.776015117084
 30
0.0
  0
POINT
  5
3EF
330
3E7
100
AcDbEntity
  8
Defpoints
 62
     0
 48
0.6
100
AcDbPoint
 10
3896.694871745591
 20
679.7760151170851
 30
0.0
  0
POINT
  5
3F0
330
3E7
100
AcDbEntity
  8
Defpoints
 62
     0
 48
0.6
100
AcDbPoint
 10
3997.20285969099
 20
679.7760151170851
 30
0.0
  0
ENDBLK
  5
3F2
330
3E7
100
AcDbEntity
  8
0
100
AcDbBlockEnd
  0
BLOCK
  5
3F9
330
3F8
100
AcDbEntity
  8
0
100
AcDbBlockBegin
  2
*D34
 70
     1
 10
0.0
 20
0.0
 30
0.0
  3
*D34
  1

  0
LINE
  5
3FA
330
3F8
100
AcDbEntity
  8
2上模
 62
   104
 48
0.6
370
     9
100
AcDbLine
 10
1184.300856629746
 20
6374.468694447945
 30
0.0
 11
1063.105726240166
 21
6282.865426621333
 31
0.0
  0
MTEXT
  5
3FB
330
3F8
100
AcDbEntity
  8
2上模
 62
   200
 48
0.6
370
    25
100
AcDbMText
 10
1122.618912627266
 20
6338.393973562586
 30
0.0
 40
15.0
 41
0.0
 46
0.0
 71
     5
 72
     1
  1
\A1;R10 [R0.39”]
 11
0.7977608892591209
 21
0.6029739327437768
 31
0.0
 73
     1
 44
1.0
  0
SOLID
  5
3FC
330
3F8
100
AcDbEntity
  8
2上模
 62
   104
 48
0.6
100
AcDbTrace
 10
1062.100769685592
 20
6284.195028103432
 30
0.0
 11
1064.110682794739
 21
6281.535825139234
 31
0.0
 12
1055.128117347575
 22
6276.835687293896
 32
0.0
 13
1055.128117347575
 23
6276.835687293896
 33
0.0
  0
POINT
  5
3FD
330
3F8
100
AcDbEntity
  8
Defpoints
 62
     0
 48
0.6
100
AcDbPoint
 10
1055.128117347575
 20
6276.835687293896
 30
0.0
  0
POINT
  5
3FE
330
3F8
100
AcDbEntity
  8
Defpoints
 62
     0
 48
0.6
100
AcDbPoint
 10
1063.105726240089
 20
6282.865426621274
 30
0.0
  0
ENDBLK
  5
3FF
330
3F8
100
AcDbEntity
  8
0
100
AcDbBlockEnd
  0
BLOCK
  5
401
330
400
100
AcDbEntity
  8
0
100
AcDbBlockBegin
  2
*D35
 70
     1
 10
0.0
 20
0.0
 30
0.0
  3
*D35
  1

  0
LINE
  5
402
330
400
100
AcDbEntity
  8
2上模
 62
   104
 48
0.6
370
     9
100
AcDbLine
 10
1053.105726240082
 20
6666.865426621267
 30
0.0
 11
1053.105726240082
 21
6723.996292135459
 31
0.0
  0
LINE
  5
403
330
400
100
AcDbEntity
  8
2上模
 62
   104
 48
0.6
370
     9
100
AcDbLine
 10
1811.105726239965
 20
6666.865426621267
 30
0.0
 11
1811.105726239965
 21
6723.996292135459
 31
0.0
  0
LINE
  5
404
330
400
100
AcDbEntity
  8
2上模
 62
   104
 48
0.6
370
     9
100
AcDbLine
 10
1063.105726240082
 20
6722.746292135458
 30
0.0
 11
1801.105726239965
 21
6722.746292135458
 31
0.0
  0
SOLID
  5
405
330
400
100
AcDbEntity
  8
2上模
 62
   104
 48
0.6
100
AcDbTrace
 10
1063.105726240082
 20
6724.412958802125
 30
0.0
 11
1063.105726240082
 21
6721.079625468791
 31
0.0
 12
1053.105726240082
 22
6722.746292135458
 32
0.0
 13
1053.105726240082
 23
6722.746292135458
 33
0.0
  0
SOLID
  5
406
330
400
100
AcDbEntity
  8
2上模
 62
   104
 48
0.6
100
AcDbTrace
 10
1801.105726239965
 20
6724.412958802125
 30
0.0
 11
1801.105726239965
 21
6721.079625468791
 31
0.0
 12
1811.105726239965
 22
6722.746292135458
 32
0.0
 13
1811.105726239965
 23
6722.746292135458
 33
0.0
  0
MTEXT
  5
407
330
400
100
AcDbEntity
  8
2上模
 62
   200
 48
0.6
370
    25
100
AcDbMText
 10
1432.105726240023
 20
6731.159895076635
 30
0.0
 40
15.0
 41
0.0
 46
0.0
 71
     5
 72
     1
  1
\A1;758 [29.84”]
 73
     1
 44
1.0
  0
POINT
  5
408
330
400
100
AcDbEntity
  8
Defpoints
 62
     0
 48
0.6
100
AcDbPoint
 10
1053.105726240082
 20
6664.865426621267
 30
0.0
  0
POINT
  5
409
330
400
100
AcDbEntity
  8
Defpoints
 62
     0
 48
0.6
100
AcDbPoint
 10
1811.105726239965
 20
6664.865426621267
 30
0.0
  0
POINT
  5
40A
330
400
100
AcDbEntity
  8
Defpoints
 62
     0
 48
0.6
100
AcDbPoint
 10
1811.105726239965
 20
6722.746292135458
 30
0.0
  0
ENDBLK
  5
40B
330
400
100
AcDbEntity
  8
0
100
AcDbBlockEnd
  0
BLOCK
  5
40D
330
40C
100
AcDbEntity
  8
0
100
AcDbBlockBegin
  2
*D36
 70
     1
 10
0.0
 20
0.0
 30
0.0
  3
*D36
  1

  0
LINE
  5
40E
330
40C
100
AcDbEntity
  8
2上模
 62
   104
 48
0.6
370
     9
100
AcDbLine
 10
1803.105726240081
 20
6674.865426621281
 30
0.0
 11
1902.863714185364
 21
6674.865426621281
 31
0.0
  0
LINE
  5
40F
330
40C
100
AcDbEntity
  8
2上模
 62
   104
 48
0.6
370
     9
100
AcDbLine
 10
1803.105726240081
 20
6272.865426621267
 30
0.0
 11
1902.863714185364
 21
6272.865426621267
 31
0.0
  0
LINE
  5
410
330
40C
100
AcDbEntity
  8
2上模
 62
   104
 48
0.6
370
     9
100
AcDbLine
 10
1901.613714185364
 20
6664.865426621282
 30
0.0
 11
1901.613714185364
 21
6282.865426621267
 31
0.0
  0
SOLID
  5
411
330
40C
100
AcDbEntity
  8
2上模
 62
   104
 48
0.6
100
AcDbTrace
 10
1899.947047518698
 20
6664.865426621282
 30
0.0
 11
1903.280380852031
 21
6664.865426621282
 31
0.0
 12
1901.613714185364
 22
6674.865426621281
 32
0.0
 13
1901.613714185364
 23
6674.865426621281
 33
0.0
  0
SOLID
  5
412
330
40C
100
AcDbEntity
  8
2上模
 62
   104
 48
0.6
100
AcDbTrace
 10
1899.947047518697
 20
6282.865426621267
 30
0.0
 11
1903.280380852031
 21
6282.865426621267
 31
0.0
 12
1901.613714185364
 22
6272.865426621267
 32
0.0
 13
1901.613714185364
 23
6272.865426621267
 33
0.0
  0
MTEXT
  5
413
330
40C
100
AcDbEntity
  8
2上模
 62
   200
 48
0.6
370
    25
100
AcDbMText
 10
1893.200111244187
 20
6473.865426621275
 30
0.0
 40
15.0
 41
0.0
 46
0.0
 71
     5
 72
     1
  1
\A1;402 [15.83”]
 11
0.0000000000000001
 21
1.0
 31
0.0
 73
     1
 44
1.0
  0
POINT
  5
414
330
40C
100
AcDbEntity
  8
Defpoints
 62
     0
 48
0.6
100
AcDbPoint
 10
1801.105726240082
 20
6674.865426621281
 30
0.0
  0
POINT
  5
415
330
40C
100
AcDbEntity
  8
Defpoints
 62
     0
 48
0.6
100
AcDbPoint
 10
1801.105726240082
 20
6272.865426621267
 30
0.0
  0
POINT
  5
416
330
40C
100
AcDbEntity
  8
Defpoints
 62
     0
 48
0.6
100
AcDbPoint
 10
1901.613714185364
 20
6272.865426621267
 30
0.0
  0
ENDBLK
  5
417
330
40C
100
AcDbEntity
  8
0
100
AcDbBlockEnd
  0
BLOCK
  5
438
330
432
100
AcDbEntity
  8
0
100
AcDbBlockBegin
  2
*D37
 70
     1
 10
0.0
 20
0.0
 30
0.0
  3
*D37
  1

  0
LINE
  5
452
330
432
100
AcDbEntity
  8
2上模
 62
   104
 48
0.6
370
     9
100
AcDbLine
 10
4296.855385714351
 20
803.3420822491807
 30
0.0
 11
4176.99558303174
 21
712.7480990463409
 31
0.0
  0
MTEXT
  5
453
330
432
100
AcDbEntity
  8
2上模
 62
   200
 48
0.6
370
    25
100
AcDbMText
 10
4235.543599432063
 20
769.5536081000873
 30
0.0
 40
15.0
 41
0.0
 46
0.0
 71
     5
 72
     1
  1
\A1;R10 [R0.39”]
 11
0.797760889259137
 21
0.6029739327437556
 31
0.0
 73
     1
 44
1.0
  0
SOLID
  5
454
330
432
100
AcDbEntity
  8
2上模
 62
   104
 48
0.6
100
AcDbTrace
 10
4175.990626477167
 20
714.0777005284393
 30
0.0
 11
4178.000539586313
 21
711.4184975642422
 31
0.0
 12
4169.017974139147
 22
706.7183597189036
 32
0.0
 13
4169.017974139147
 23
706.7183597189036
 33
0.0
  0
POINT
  5
455
330
432
100
AcDbEntity
  8
Defpoints
 62
     0
 48
0.6
100
AcDbPoint
 10
4169.017974139147
 20
706.7183597189036
 30
0.0
  0
POINT
  5
456
330
432
100
AcDbEntity
  8
Defpoints
 62
     0
 48
0.6
100
AcDbPoint
 10
4176.995583031663
 20
712.7480990462824
 30
0.0
  0
ENDBLK
  5
439
330
432
100
AcDbEntity
  8
0
100
AcDbBlockEnd
  0
BLOCK
  5
444
330
43A
100
AcDbEntity
  8
0
100
AcDbBlockBegin
  2
*D38
 70
     1
 10
0.0
 20
0.0
 30
0.0
  3
*D38
  1

  0
LINE
  5
43B
330
43A
100
AcDbEntity
  8
2上模
 62
   104
 48
0.6
370
     9
100
AcDbLine
 10
4166.995583031654
 20
1096.748099046275
 30
0.0
 11
4166.995583031654
 21
1153.878964560466
 31
0.0
  0
LINE
  5
43C
330
43A
100
AcDbEntity
  8
2上模
 62
   104
 48
0.6
370
     9
100
AcDbLine
 10
4924.995583031538
 20
1096.748099046275
 30
0.0
 11
4924.995583031538
 21
1153.878964560466
 31
0.0
  0
LINE
  5
43D
330
43A
100
AcDbEntity
  8
2上模
 62
   104
 48
0.6
370
     9
100
AcDbLine
 10
4176.995583031656
 20
1152.628964560466
 30
0.0
 11
4914.995583031538
 21
1152.628964560466
 31
0.0
  0
SOLID
  5
43E
330
43A
100
AcDbEntity
  8
2上模
 62
   104
 48
0.6
100
AcDbTrace
 10
4176.995583031656
 20
1154.295631227133
 30
0.0
 11
4176.995583031656
 21
1150.9622978938
 31
0.0
 12
4166.995583031654
 22
1152.628964560466
 32
0.0
 13
4166.995583031654
 23
1152.628964560466
 33
0.0
  0
SOLID
  5
43F
330
43A
100
AcDbEntity
  8
2上模
 62
   104
 48
0.6
100
AcDbTrace
 10
4914.995583031538
 20
1154.295631227133
 30
0.0
 11
4914.995583031538
 21
1150.9622978938
 31
0.0
 12
4924.995583031538
 22
1152.628964560466
 32
0.0
 13
4924.995583031538
 23
1152.628964560466
 33
0.0
  0
MTEXT
  5
440
330
43A
100
AcDbEntity
  8
2上模
 62
   200
 48
0.6
370
    25
100
AcDbMText
 10
4545.995583031597
 20
1162.643250274752
 30
0.0
 40
15.0
 41
0.0
 46
0.0
 71
     5
 72
     1
  1
\A1;758 [29.84”]
 73
     1
 44
1.0
  0
POINT
  5
441
330
43A
100
AcDbEntity
  8
Defpoints
 62
     0
 48
0.6
100
AcDbPoint
 10
4166.995583031654
 20
1094.748099046275
 30
0.0
  0
POINT
  5
442
330
43A
100
AcDbEntity
  8
Defpoints
 62
     0
 48
0.6
100
AcDbPoint
 10
4924.995583031538
 20
1094.748099046275
 30
0.0
  0
POINT
  5
443
330
43A
100
AcDbEntity
  8
Defpoints
 62
     0
 48
0.6
100
AcDbPoint
 10
4924.995583031538
 20
1152.628964560466
 30
0.0
  0
ENDBLK
  5
445
330
43A
100
AcDbEntity
  8
0
100
AcDbBlockEnd
  0
BLOCK
  5
450
330
446
100
AcDbEntity
  8
0
100
AcDbBlockBegin
  2
*D39
 70
     1
 10
0.0
 20
0.0
 30
0.0
  3
*D39
  1

  0
LINE
  5
447
330
446
100
AcDbEntity
  8
2上模
 62
   104
 48
0.6
370
     9
100
AcDbLine
 10
4916.995583031656
 20
1104.748099046289
 30
0.0
 11
5016.753570976938
 21
1104.748099046289
 31
0.0
  0
LINE
  5
448
330
446
100
AcDbEntity
  8
2上模
 62
   104
 48
0.6
370
     9
100
AcDbLine
 10
4916.995583031656
 20
702.7480990462755
 30
0.0
 11
5016.753570976938
 21
702.7480990462755
 31
0.0
  0
LINE
  5
449
330
446
100
AcDbEntity
  8
2上模
 62
   104
 48
0.6
370
     9
100
AcDbLine
 10
5015.503570976938
 20
1094.748099046289
 30
0.0
 11
5015.503570976938
 21
712.7480990462753
 31
0.0
  0
SOLID
  5
44A
330
446
100
AcDbEntity
  8
2上模
 62
   104
 48
0.6
100
AcDbTrace
 10
5013.836904310271
 20
1094.748099046289
 30
0.0
 11
5017.170237643605
 21
1094.748099046289
 31
0.0
 12
5015.503570976938
 22
1104.748099046289
 32
0.0
 13
5015.503570976938
 23
1104.748099046289
 33
0.0
  0
SOLID
  5
44B
330
446
100
AcDbEntity
  8
2上模
 62
   104
 48
0.6
100
AcDbTrace
 10
5013.836904310271
 20
712.7480990462753
 30
0.0
 11
5017.170237643605
 21
712.7480990462753
 31
0.0
 12
5015.503570976938
 22
702.7480990462755
 32
0.0
 13
5015.503570976938
 23
702.7480990462755
 33
0.0
  0
MTEXT
  5
44C
330
446
100
AcDbEntity
  8
2上模
 62
   200
 48
0.6
370
    25
100
AcDbMText
 10
5005.489285262654
 20
903.748099046283
 30
0.0
 40
15.0
 41
0.0
 46
0.0
 71
     5
 72
     1
  1
\A1;402 [15.83”]
 11
0.0000000000000001
 21
1.0
 31
0.0
 73
     1
 44
1.0
  0
POINT
  5
44D
330
446
100
AcDbEntity
  8
Defpoints
 62
     0
 48
0.6
100
AcDbPoint
 10
4914.995583031656
 20
1104.748099046289
 30
0.0
  0
POINT
  5
44E
330
446
100
AcDbEntity
  8
Defpoints
 62
     0
 48
0.6
100
AcDbPoint
 10
4914.995583031656
 20
702.7480990462755
 30
0.0
  0
POINT
  5
44F
330
446
100
AcDbEntity
  8
Defpoints
 62
     0
 48
0.6
100
AcDbPoint
 10
5015.503570976938
 20
702.7480990462755
 30
0.0
  0
ENDBLK
  5
451
330
446
100
AcDbEntity
  8
0
100
AcDbBlockEnd
  0
BLOCK
  5
458
330
457
100
AcDbEntity
  8
0
100
AcDbBlockBegin
  2
*D40
 70
     1
 10
0.0
 20
0.0
 30
0.0
  3
*D40
  1

  0
LINE
  5
459
330
457
100
AcDbEntity
  8
2上模
 62
   104
 48
0.6
370
     9
100
AcDbLine
 10
2264.568051544199
 20
6374.468694448228
 30
0.0
 11
2143.372921154842
 21
6282.865426621322
 31
0.0
  0
MTEXT
  5
45A
330
457
100
AcDbEntity
  8
2上模
 62
   200
 48
0.6
370
    25
100
AcDbMText
 10
2202.886107541808
 20
6338.393973562717
 30
0.0
 40
15.0
 41
0.0
 46
0.0
 71
     5
 72
     1
  1
\A1;R10 [R0.39”]
 11
0.7977608892576546
 21
0.6029739327457167
 31
0.0
 73
     1
 44
1.0
  0
SOLID
  5
45B
330
457
100
AcDbEntity
  8
2上模
 62
   104
 48
0.6
100
AcDbTrace
 10
2142.367964600266
 20
6284.195028103417
 30
0.0
 11
2144.377877709419
 21
6281.535825139226
 31
0.0
 12
2135.395312262266
 22
6276.835687293864
 32
0.0
 13
2135.395312262266
 23
6276.835687293864
 33
0.0
  0
POINT
  5
45C
330
457
100
AcDbEntity
  8
Defpoints
 62
     0
 48
0.6
100
AcDbPoint
 10
2135.395312262266
 20
6276.835687293864
 30
0.0
  0
POINT
  5
45D
330
457
100
AcDbEntity
  8
Defpoints
 62
     0
 48
0.6
100
AcDbPoint
 10
2143.372921154779
 20
6282.865426621274
 30
0.0
  0
ENDBLK
  5
45E
330
457
100
AcDbEntity
  8
0
100
AcDbBlockEnd
  0
BLOCK
  5
460
330
45F
100
AcDbEntity
  8
0
100
AcDbBlockBegin
  2
*D41
 70
     1
 10
0.0
 20
0.0
 30
0.0
  3
*D41
  1

  0
LINE
  5
461
330
45F
100
AcDbEntity
  8
2上模
 62
   104
 48
0.6
370
     9
100
AcDbLine
 10
2133.372921154772
 20
6666.865426621267
 30
0.0
 11
2133.372921154772
 21
6723.996292135459
 31
0.0
  0
LINE
  5
462
330
45F
100
AcDbEntity
  8
2上模
 62
   104
 48
0.6
370
     9
100
AcDbLine
 10
2916.372921154772
 20
6666.865426621267
 30
0.0
 11
2916.372921154772
 21
6723.996292135459
 31
0.0
  0
LINE
  5
463
330
45F
100
AcDbEntity
  8
2上模
 62
   104
 48
0.6
370
     9
100
AcDbLine
 10
2143.372921154772
 20
6722.746292135458
 30
0.0
 11
2906.372921154772
 21
6722.746292135458
 31
0.0
  0
SOLID
  5
464
330
45F
100
AcDbEntity
  8
2上模
 62
   104
 48
0.6
100
AcDbTrace
 10
2143.372921154772
 20
6724.412958802125
 30
0.0
 11
2143.372921154772
 21
6721.079625468791
 31
0.0
 12
2133.372921154772
 22
6722.746292135458
 32
0.0
 13
2133.372921154772
 23
6722.746292135458
 33
0.0
  0
SOLID
  5
465
330
45F
100
AcDbEntity
  8
2上模
 62
   104
 48
0.6
100
AcDbTrace
 10
2906.372921154772
 20
6724.412958802125
 30
0.0
 11
2906.372921154772
 21
6721.079625468791
 31
0.0
 12
2916.372921154772
 22
6722.746292135458
 32
0.0
 13
2916.372921154772
 23
6722.746292135458
 33
0.0
  0
MTEXT
  5
466
330
45F
100
AcDbEntity
  8
2上模
 62
   200
 48
0.6
370
    25
100
AcDbMText
 10
2524.872921154772
 20
6731.159895076635
 30
0.0
 40
15.0
 41
0.0
 46
0.0
 71
     5
 72
     1
  1
\A1;783 [30.83”]
 73
     1
 44
1.0
  0
POINT
  5
467
330
45F
100
AcDbEntity
  8
Defpoints
 62
     0
 48
0.6
100
AcDbPoint
 10
2133.372921154772
 20
6664.865426621267
 30
0.0
  0
POINT
  5
468
330
45F
100
AcDbEntity
  8
Defpoints
 62
     0
 48
0.6
100
AcDbPoint
 10
2916.372921154772
 20
6664.865426621267
 30
0.0
  0
POINT
  5
469
330
45F
100
AcDbEntity
  8
Defpoints
 62
     0
 48
0.6
100
AcDbPoint
 10
2916.372921154772
 20
6722.746292135458
 30
0.0
  0
ENDBLK
  5
46A
330
45F
100
AcDbEntity
  8
0
100
AcDbBlockEnd
  0
BLOCK
  5
46C
330
46B
100
AcDbEntity
  8
0
100
AcDbBlockBegin
  2
*D42
 70
     1
 10
0.0
 20
0.0
 30
0.0
  3
*D42
  1

  0
LINE
  5
46D
330
46B
100
AcDbEntity
  8
2上模
 62
   104
 48
0.6
370
     9
100
AcDbLine
 10
2908.372921154772
 20
6674.865426621281
 30
0.0
 11
3008.130909100171
 21
6674.865426621281
 31
0.0
  0
LINE
  5
46E
330
46B
100
AcDbEntity
  8
2上模
 62
   104
 48
0.6
370
     9
100
AcDbLine
 10
2908.372921154772
 20
6272.865426621267
 30
0.0
 11
3008.130909100171
 21
6272.865426621267
 31
0.0
  0
LINE
  5
46F
330
46B
100
AcDbEntity
  8
2上模
 62
   104
 48
0.6
370
     9
100
AcDbLine
 10
3006.88090910017
 20
6664.865426621282
 30
0.0
 11
3006.88090910017
 21
6282.865426621267
 31
0.0
  0
SOLID
  5
470
330
46B
100
AcDbEntity
  8
2上模
 62
   104
 48
0.6
100
AcDbTrace
 10
3005.214242433504
 20
6664.865426621282
 30
0.0
 11
3008.547575766837
 21
6664.865426621282
 31
0.0
 12
3006.88090910017
 22
6674.865426621281
 32
0.0
 13
3006.88090910017
 23
6674.865426621281
 33
0.0
  0
SOLID
  5
471
330
46B
100
AcDbEntity
  8
2上模
 62
   104
 48
0.6
100
AcDbTrace
 10
3005.214242433504
 20
6282.865426621267
 30
0.0
 11
3008.547575766837
 21
6282.865426621267
 31
0.0
 12
3006.88090910017
 22
6272.865426621267
 32
0.0
 13
3006.88090910017
 23
6272.865426621267
 33
0.0
  0
MTEXT
  5
472
330
46B
100
AcDbEntity
  8
2上模
 62
   200
 48
0.6
370
    25
100
AcDbMText
 10
2998.467306158993
 20
6473.865426621275
 30
0.0
 40
15.0
 41
0.0
 46
0.0
 71
     5
 72
     1
  1
\A1;402 [15.83”]
 11
0.0000000000000001
 21
1.0
 31
0.0
 73
     1
 44
1.0
  0
POINT
  5
473
330
46B
100
AcDbEntity
  8
Defpoints
 62
     0
 48
0.6
100
AcDbPoint
 10
2906.372921154772
 20
6674.865426621281
 30
0.0
  0
POINT
  5
474
330
46B
100
AcDbEntity
  8
Defpoints
 62
     0
 48
0.6
100
AcDbPoint
 10
2906.372921154772
 20
6272.865426621267
 30
0.0
  0
POINT
  5
475
330
46B
100
AcDbEntity
  8
Defpoints
 62
     0
 48
0.6
100
AcDbPoint
 10
3006.88090910017
 20
6272.865426621267
 30
0.0
  0
ENDBLK
  5
476
330
46B
100
AcDbEntity
  8
0
100
AcDbBlockEnd
  0
BLOCK
  5
497
330
491
100
AcDbEntity
  8
0
100
AcDbBlockBegin
  2
*D43
 70
     1
 10
0.0
 20
0.0
 30
0.0
  3
*D43
  1

  0
LINE
  5
4B1
330
491
100
AcDbEntity
  8
2上模
 62
   104
 48
0.6
370
     9
100
AcDbLine
 10
5325.438027715218
 20
802.2673270137413
 30
0.0
 11
5205.578225032837
 21
711.6733438105941
 31
0.0
  0
MTEXT
  5
4B2
330
491
100
AcDbEntity
  8
2上模
 62
   200
 48
0.6
370
    25
100
AcDbMText
 10
5264.126241433014
 20
768.4788528644904
 30
0.0
 40
15.0
 41
0.0
 46
0.0
 71
     5
 72
     1
  1
\A1;R10 [R0.39”]
 11
0.797760889257595
 21
0.6029739327457957
 31
0.0
 73
     1
 44
1.0
  0
SOLID
  5
4B3
330
491
100
AcDbEntity
  8
2上模
 62
   104
 48
0.6
100
AcDbTrace
 10
5204.573268478259
 20
713.0029452926901
 30
0.0
 11
5206.583181587412
 21
710.3437423284987
 31
0.0
 12
5197.600616140261
 22
705.6436044831363
 32
0.0
 13
5197.600616140261
 23
705.6436044831363
 33
0.0
  0
POINT
  5
4B4
330
491
100
AcDbEntity
  8
Defpoints
 62
     0
 48
0.6
100
AcDbPoint
 10
5197.600616140261
 20
705.6436044831363
 30
0.0
  0
POINT
  5
4B5
330
491
100
AcDbEntity
  8
Defpoints
 62
     0
 48
0.6
100
AcDbPoint
 10
5205.578225032773
 20
711.6733438105462
 30
0.0
  0
ENDBLK
  5
498
330
491
100
AcDbEntity
  8
0
100
AcDbBlockEnd
  0
BLOCK
  5
4A3
330
499
100
AcDbEntity
  8
0
100
AcDbBlockBegin
  2
*D44
 70
     1
 10
0.0
 20
0.0
 30
0.0
  3
*D44
  1

  0
LINE
  5
49A
330
499
100
AcDbEntity
  8
2上模
 62
   104
 48
0.6
370
     9
100
AcDbLine
 10
5195.578225032766
 20
1095.673343810539
 30
0.0
 11
5195.578225032766
 21
1152.80420932473
 31
0.0
  0
LINE
  5
49B
330
499
100
AcDbEntity
  8
2上模
 62
   104
 48
0.6
370
     9
100
AcDbLine
 10
5978.578225032766
 20
1095.673343810539
 30
0.0
 11
5978.578225032766
 21
1152.80420932473
 31
0.0
  0
LINE
  5
49C
330
499
100
AcDbEntity
  8
2上模
 62
   104
 48
0.6
370
     9
100
AcDbLine
 10
5205.578225032766
 20
1151.55420932473
 30
0.0
 11
5968.578225032764
 21
1151.55420932473
 31
0.0
  0
SOLID
  5
49D
330
499
100
AcDbEntity
  8
2上模
 62
   104
 48
0.6
100
AcDbTrace
 10
5205.578225032766
 20
1153.220875991396
 30
0.0
 11
5205.578225032766
 21
1149.887542658063
 31
0.0
 12
5195.578225032766
 22
1151.55420932473
 32
0.0
 13
5195.578225032766
 23
1151.55420932473
 33
0.0
  0
SOLID
  5
49E
330
499
100
AcDbEntity
  8
2上模
 62
   104
 48
0.6
100
AcDbTrace
 10
5968.578225032764
 20
1153.220875991396
 30
0.0
 11
5968.578225032764
 21
1149.887542658063
 31
0.0
 12
5978.578225032766
 22
1151.55420932473
 32
0.0
 13
5978.578225032766
 23
1151.55420932473
 33
0.0
  0
MTEXT
  5
49F
330
499
100
AcDbEntity
  8
2上模
 62
   200
 48
0.6
370
    25
100
AcDbMText
 10
5587.078225032766
 20
1161.568495039015
 30
0.0
 40
15.0
 41
0.0
 46
0.0
 71
     5
 72
     1
  1
\A1;783 [30.83”]
 73
     1
 44
1.0
  0
POINT
  5
4A0
330
499
100
AcDbEntity
  8
Defpoints
 62
     0
 48
0.6
100
AcDbPoint
 10
5195.578225032766
 20
1093.673343810539
 30
0.0
  0
POINT
  5
4A1
330
499
100
AcDbEntity
  8
Defpoints
 62
     0
 48
0.6
100
AcDbPoint
 10
5978.578225032766
 20
1093.673343810539
 30
0.0
  0
POINT
  5
4A2
330
499
100
AcDbEntity
  8
Defpoints
 62
     0
 48
0.6
100
AcDbPoint
 10
5978.578225032766
 20
1151.55420932473
 30
0.0
  0
ENDBLK
  5
4A4
330
499
100
AcDbEntity
  8
0
100
AcDbBlockEnd
  0
BLOCK
  5
4AF
330
4A5
100
AcDbEntity
  8
0
100
AcDbBlockBegin
  2
*D45
 70
     1
 10
0.0
 20
0.0
 30
0.0
  3
*D45
  1

  0
LINE
  5
4A6
330
4A5
100
AcDbEntity
  8
2上模
 62
   104
 48
0.6
370
     9
100
AcDbLine
 10
5970.578225032767
 20
1103.673343810552
 30
0.0
 11
6070.336212978165
 21
1103.673343810552
 31
0.0
  0
LINE
  5
4A7
330
4A5
100
AcDbEntity
  8
2上模
 62
   104
 48
0.6
370
     9
100
AcDbLine
 10
5970.578225032767
 20
701.6733438105387
 30
0.0
 11
6070.336212978165
 21
701.6733438105387
 31
0.0
  0
LINE
  5
4A8
330
4A5
100
AcDbEntity
  8
2上模
 62
   104
 48
0.6
370
     9
100
AcDbLine
 10
6069.086212978163
 20
1093.673343810552
 30
0.0
 11
6069.086212978163
 21
711.673343810539
 31
0.0
  0
SOLID
  5
4A9
330
4A5
100
AcDbEntity
  8
2上模
 62
   104
 48
0.6
100
AcDbTrace
 10
6067.419546311497
 20
1093.673343810552
 30
0.0
 11
6070.752879644832
 21
1093.673343810552
 31
0.0
 12
6069.086212978163
 22
1103.673343810552
 32
0.0
 13
6069.086212978163
 23
1103.673343810552
 33
0.0
  0
SOLID
  5
4AA
330
4A5
100
AcDbEntity
  8
2上模
 62
   104
 48
0.6
100
AcDbTrace
 10
6067.419546311497
 20
711.673343810539
 30
0.0
 11
6070.752879644832
 21
711.673343810539
 31
0.0
 12
6069.086212978163
 22
701.6733438105387
 32
0.0
 13
6069.086212978163
 23
701.6733438105387
 33
0.0
  0
MTEXT
  5
4AB
330
4A5
100
AcDbEntity
  8
2上模
 62
   200
 48
0.6
370
    25
100
AcDbMText
 10
6059.071927263878
 20
902.6733438105466
 30
0.0
 40
15.0
 41
0.0
 46
0.0
 71
     5
 72
     1
  1
\A1;402 [15.83”]
 11
0.0000000000000001
 21
1.0
 31
0.0
 73
     1
 44
1.0
  0
POINT
  5
4AC
330
4A5
100
AcDbEntity
  8
Defpoints
 62
     0
 48
0.6
100
AcDbPoint
 10
5968.578225032764
 20
1103.673343810552
 30
0.0
  0
POINT
  5
4AD
330
4A5
100
AcDbEntity
  8
Defpoints
 62
     0
 48
0.6
100
AcDbPoint
 10
5968.578225032764
 20
701.6733438105387
 30
0.0
  0
POINT
  5
4AE
330
4A5
100
AcDbEntity
  8
Defpoints
 62
     0
 48
0.6
100
AcDbPoint
 10
6069.086212978163
 20
701.6733438105387
 30
0.0
  0
ENDBLK
  5
4B0
330
4A5
100
AcDbEntity
  8
0
100
AcDbBlockEnd
  0
BLOCK
  5
4BC
330
4BB
100
AcDbEntity
  8
0
100
AcDbBlockBegin
  2
*D46
 70
     1
 10
0.0
 20
0.0
 30
0.0
  3
*D46
  1

  0
LINE
  5
4BD
330
4BB
100
AcDbEntity
  8
2上模
 62
   104
 48
0.6
370
     9
100
AcDbLine
 10
3481.576629441843
 20
6374.468694447403
 30
0.0
 11
3360.381499051891
 21
6282.865426621285
 31
0.0
  0
MTEXT
  5
4BE
330
4BB
100
AcDbEntity
  8
2上模
 62
   200
 48
0.6
370
    25
100
AcDbMText
 10
3419.894685439217
 20
6338.393973562292
 30
0.0
 40
15.0
 41
0.0
 46
0.0
 71
     5
 72
     1
  1
\A1;R10 [R0.39”]
 11
0.7977608892615791
 21
0.6029739327405246
 31
0.0
 73
     1
 44
1.0
  0
SOLID
  5
4BF
330
4BB
100
AcDbEntity
  8
2上模
 62
   104
 48
0.6
100
AcDbTrace
 10
3359.376542497323
 20
6284.195028103388
 30
0.0
 11
3361.386455606459
 21
6281.535825139183
 31
0.0
 12
3352.403890159275
 22
6276.835687293879
 32
0.0
 13
3352.403890159275
 23
6276.835687293879
 33
0.0
  0
POINT
  5
4C0
330
4BB
100
AcDbEntity
  8
Defpoints
 62
     0
 48
0.6
100
AcDbPoint
 10
3352.403890159275
 20
6276.835687293879
 30
0.0
  0
POINT
  5
4C1
330
4BB
100
AcDbEntity
  8
Defpoints
 62
     0
 48
0.6
100
AcDbPoint
 10
3360.381499051876
 20
6282.865426621274
 30
0.0
  0
ENDBLK
  5
4C2
330
4BB
100
AcDbEntity
  8
0
100
AcDbBlockEnd
  0
BLOCK
  5
4C4
330
4C3
100
AcDbEntity
  8
0
100
AcDbBlockBegin
  2
*D47
 70
     1
 10
0.0
 20
0.0
 30
0.0
  3
*D47
  1

  0
LINE
  5
4C5
330
4C3
100
AcDbEntity
  8
2上模
 62
   104
 48
0.6
370
     9
100
AcDbLine
 10
3350.381499051869
 20
6692.86542662128
 30
0.0
 11
3350.381499051869
 21
6749.996292135458
 31
0.0
  0
LINE
  5
4C6
330
4C3
100
AcDbEntity
  8
2上模
 62
   104
 48
0.6
370
     9
100
AcDbLine
 10
4082.381499051868
 20
6692.86542662128
 30
0.0
 11
4082.381499051868
 21
6749.996292135458
 31
0.0
  0
LINE
  5
4C7
330
4C3
100
AcDbEntity
  8
2上模
 62
   104
 48
0.6
370
     9
100
AcDbLine
 10
3360.381499051869
 20
6748.746292135456
 30
0.0
 11
4072.381499051868
 21
6748.746292135456
 31
0.0
  0
SOLID
  5
4C8
330
4C3
100
AcDbEntity
  8
2上模
 62
   104
 48
0.6
100
AcDbTrace
 10
3360.381499051869
 20
6750.412958802126
 30
0.0
 11
3360.381499051869
 21
6747.079625468791
 31
0.0
 12
3350.381499051869
 22
6748.746292135456
 32
0.0
 13
3350.381499051869
 23
6748.746292135456
 33
0.0
  0
SOLID
  5
4C9
330
4C3
100
AcDbEntity
  8
2上模
 62
   104
 48
0.6
100
AcDbTrace
 10
4072.381499051868
 20
6750.412958802126
 30
0.0
 11
4072.381499051868
 21
6747.079625468791
 31
0.0
 12
4082.381499051868
 22
6748.746292135456
 32
0.0
 13
4082.381499051868
 23
6748.746292135456
 33
0.0
  0
MTEXT
  5
4CA
330
4C3
100
AcDbEntity
  8
2上模
 62
   200
 48
0.6
370
    25
100
AcDbMText
 10
3716.381499051869
 20
6757.159895076634
 30
0.0
 40
15.0
 41
0.0
 46
0.0
 71
     5
 72
     1
  1
\A1;732 [28.82”]
 73
     1
 44
1.0
  0
POINT
  5
4CB
330
4C3
100
AcDbEntity
  8
Defpoints
 62
     0
 48
0.6
100
AcDbPoint
 10
3350.381499051869
 20
6690.865426621282
 30
0.0
  0
POINT
  5
4CC
330
4C3
100
AcDbEntity
  8
Defpoints
 62
     0
 48
0.6
100
AcDbPoint
 10
4082.381499051868
 20
6690.865426621282
 30
0.0
  0
POINT
  5
4CD
330
4C3
100
AcDbEntity
  8
Defpoints
 62
     0
 48
0.6
100
AcDbPoint
 10
4082.381499051868
 20
6748.746292135456
 30
0.0
  0
ENDBLK
  5
4CE
330
4C3
100
AcDbEntity
  8
0
100
AcDbBlockEnd
  0
BLOCK
  5
4D0
330
4CF
100
AcDbEntity
  8
0
100
AcDbBlockBegin
  2
*D48
 70
     1
 10
0.0
 20
0.0
 30
0.0
  3
*D48
  1

  0
LINE
  5
4D1
330
4CF
100
AcDbEntity
  8
2上模
 62
   104
 48
0.6
370
     9
100
AcDbLine
 10
4074.381499051868
 20
6700.86542662128
 30
0.0
 11
4174.139486997266
 21
6700.86542662128
 31
0.0
  0
LINE
  5
4D2
330
4CF
100
AcDbEntity
  8
2上模
 62
   104
 48
0.6
370
     9
100
AcDbLine
 10
4074.381499051868
 20
6272.865426621267
 30
0.0
 11
4174.139486997266
 21
6272.865426621267
 31
0.0
  0
LINE
  5
4D3
330
4CF
100
AcDbEntity
  8
2上模
 62
   104
 48
0.6
370
     9
100
AcDbLine
 10
4172.889486997266
 20
6690.865426621282
 30
0.0
 11
4172.889486997266
 21
6282.865426621267
 31
0.0
  0
SOLID
  5
4D4
330
4CF
100
AcDbEntity
  8
2上模
 62
   104
 48
0.6
100
AcDbTrace
 10
4171.2228203306
 20
6690.865426621282
 30
0.0
 11
4174.556153663933
 21
6690.865426621282
 31
0.0
 12
4172.889486997266
 22
6700.86542662128
 32
0.0
 13
4172.889486997266
 23
6700.86542662128
 33
0.0
  0
SOLID
  5
4D5
330
4CF
100
AcDbEntity
  8
2上模
 62
   104
 48
0.6
100
AcDbTrace
 10
4171.2228203306
 20
6282.865426621267
 30
0.0
 11
4174.556153663933
 21
6282.865426621267
 31
0.0
 12
4172.889486997266
 22
6272.865426621267
 32
0.0
 13
4172.889486997266
 23
6272.865426621267
 33
0.0
  0
MTEXT
  5
4D6
330
4CF
100
AcDbEntity
  8
2上模
 62
   200
 48
0.6
370
    25
100
AcDbMText
 10
4164.475884056089
 20
6486.865426621275
 30
0.0
 40
15.0
 41
0.0
 46
0.0
 71
     5
 72
     1
  1
\A1;428 [16.85”]
 11
0.0000000000000001
 21
1.0
 31
0.0
 73
     1
 44
1.0
  0
POINT
  5
4D7
330
4CF
100
AcDbEntity
  8
Defpoints
 62
     0
 48
0.6
100
AcDbPoint
 10
4072.381499051868
 20
6700.86542662128
 30
0.0
  0
POINT
  5
4D8
330
4CF
100
AcDbEntity
  8
Defpoints
 62
     0
 48
0.6
100
AcDbPoint
 10
4072.381499051868
 20
6272.865426621267
 30
0.0
  0
POINT
  5
4D9
330
4CF
100
AcDbEntity
  8
Defpoints
 62
     0
 48
0.6
100
AcDbPoint
 10
4172.889486997266
 20
6272.865426621267
 30
0.0
  0
ENDBLK
  5
4DA
330
4CF
100
AcDbEntity
  8
0
100
AcDbBlockEnd
  0
BLOCK
  5
4FB
330
4F5
100
AcDbEntity
  8
0
100
AcDbBlockBegin
  2
*D50
 70
     1
 10
0.0
 20
0.0
 30
0.0
  3
*D50
  1

  0
LINE
  5
515
330
4F5
100
AcDbEntity
  8
2上模
 62
   104
 48
0.6
370
     9
100
AcDbLine
 10
6401.805928132941
 20
824.2240866938022
 30
0.0
 11
6281.946125449965
 21
733.6301034914427
 31
0.0
  0
MTEXT
  5
516
330
4F5
100
AcDbEntity
  8
2上模
 62
   200
 48
0.6
370
    25
100
AcDbMText
 10
6340.494141850516
 20
790.4356125449539
 30
0.0
 40
15.0
 41
0.0
 46
0.0
 71
     5
 72
     1
  1
\A1;R10 [R0.39”]
 11
0.7977608892615572
 21
0.6029739327405535
 31
0.0
 73
     1
 44
1.0
  0
SOLID
  5
517
330
4F5
100
AcDbEntity
  8
2上模
 62
   104
 48
0.6
100
AcDbTrace
 10
6280.941168895397
 20
734.9597049735448
 30
0.0
 11
6282.951082004533
 21
732.30050200934
 31
0.0
 12
6273.968516557349
 22
727.6003641640373
 32
0.0
 13
6273.968516557349
 23
727.6003641640373
 33
0.0
  0
POINT
  5
518
330
4F5
100
AcDbEntity
  8
Defpoints
 62
     0
 48
0.6
100
AcDbPoint
 10
6273.968516557349
 20
727.6003641640373
 30
0.0
  0
POINT
  5
519
330
4F5
100
AcDbEntity
  8
Defpoints
 62
     0
 48
0.6
100
AcDbPoint
 10
6281.94612544995
 20
733.6301034914318
 30
0.0
  0
ENDBLK
  5
4FC
330
4F5
100
AcDbEntity
  8
0
100
AcDbBlockEnd
  0
BLOCK
  5
507
330
4FD
100
AcDbEntity
  8
0
100
AcDbBlockBegin
  2
*D51
 70
     1
 10
0.0
 20
0.0
 30
0.0
  3
*D51
  1

  0
LINE
  5
4FE
330
4FD
100
AcDbEntity
  8
2上模
 62
   104
 48
0.6
370
     9
100
AcDbLine
 10
6271.946125449944
 20
1143.630103491439
 30
0.0
 11
6271.946125449944
 21
1200.760969005614
 31
0.0
  0
LINE
  5
4FF
330
4FD
100
AcDbEntity
  8
2上模
 62
   104
 48
0.6
370
     9
100
AcDbLine
 10
7003.946125449944
 20
1143.630103491439
 30
0.0
 11
7003.946125449944
 21
1200.760969005614
 31
0.0
  0
LINE
  5
500
330
4FD
100
AcDbEntity
  8
2上模
 62
   104
 48
0.6
370
     9
100
AcDbLine
 10
6281.946125449944
 20
1199.510969005614
 30
0.0
 11
6993.946125449943
 21
1199.510969005614
 31
0.0
  0
SOLID
  5
501
330
4FD
100
AcDbEntity
  8
2上模
 62
   104
 48
0.6
100
AcDbTrace
 10
6281.946125449944
 20
1201.17763567228
 30
0.0
 11
6281.946125449944
 21
1197.844302338947
 31
0.0
 12
6271.946125449944
 22
1199.510969005614
 32
0.0
 13
6271.946125449944
 23
1199.510969005614
 33
0.0
  0
SOLID
  5
502
330
4FD
100
AcDbEntity
  8
2上模
 62
   104
 48
0.6
100
AcDbTrace
 10
6993.946125449943
 20
1201.17763567228
 30
0.0
 11
6993.946125449943
 21
1197.844302338947
 31
0.0
 12
7003.946125449944
 22
1199.510969005614
 32
0.0
 13
7003.946125449944
 23
1199.510969005614
 33
0.0
  0
MTEXT
  5
503
330
4FD
100
AcDbEntity
  8
2上模
 62
   200
 48
0.6
370
    25
100
AcDbMText
 10
6637.946125449943
 20
1209.525254719899
 30
0.0
 40
15.0
 41
0.0
 46
0.0
 71
     5
 72
     1
  1
\A1;732 [28.82”]
 73
     1
 44
1.0
  0
POINT
  5
504
330
4FD
100
AcDbEntity
  8
Defpoints
 62
     0
 48
0.6
100
AcDbPoint
 10
6271.946125449944
 20
1141.630103491439
 30
0.0
  0
POINT
  5
505
330
4FD
100
AcDbEntity
  8
Defpoints
 62
     0
 48
0.6
100
AcDbPoint
 10
7003.946125449944
 20
1141.630103491439
 30
0.0
  0
POINT
  5
506
330
4FD
100
AcDbEntity
  8
Defpoints
 62
     0
 48
0.6
100
AcDbPoint
 10
7003.946125449944
 20
1199.510969005614
 30
0.0
  0
ENDBLK
  5
508
330
4FD
100
AcDbEntity
  8
0
100
AcDbBlockEnd
  0
BLOCK
  5
513
330
509
100
AcDbEntity
  8
0
100
AcDbBlockBegin
  2
*D52
 70
     1
 10
0.0
 20
0.0
 30
0.0
  3
*D52
  1

  0
LINE
  5
50A
330
509
100
AcDbEntity
  8
2上模
 62
   104
 48
0.6
370
     9
100
AcDbLine
 10
6995.946125449944
 20
1151.630103491438
 30
0.0
 11
7095.704113395342
 21
1151.630103491438
 31
0.0
  0
LINE
  5
50B
330
509
100
AcDbEntity
  8
2上模
 62
   104
 48
0.6
370
     9
100
AcDbLine
 10
6995.946125449944
 20
723.6301034914244
 30
0.0
 11
7095.704113395342
 21
723.6301034914244
 31
0.0
  0
LINE
  5
50C
330
509
100
AcDbEntity
  8
2上模
 62
   104
 48
0.6
370
     9
100
AcDbLine
 10
7094.454113395342
 20
1141.630103491438
 30
0.0
 11
7094.454113395342
 21
733.6301034914245
 31
0.0
  0
SOLID
  5
50D
330
509
100
AcDbEntity
  8
2上模
 62
   104
 48
0.6
100
AcDbTrace
 10
7092.787446728674
 20
1141.630103491438
 30
0.0
 11
7096.120780062008
 21
1141.630103491438
 31
0.0
 12
7094.454113395342
 22
1151.630103491438
 32
0.0
 13
7094.454113395342
 23
1151.630103491438
 33
0.0
  0
SOLID
  5
50E
330
509
100
AcDbEntity
  8
2上模
 62
   104
 48
0.6
100
AcDbTrace
 10
7092.787446728674
 20
733.6301034914245
 30
0.0
 11
7096.120780062008
 21
733.6301034914245
 31
0.0
 12
7094.454113395342
 22
723.6301034914244
 32
0.0
 13
7094.454113395342
 23
723.6301034914244
 33
0.0
  0
MTEXT
  5
50F
330
509
100
AcDbEntity
  8
2上模
 62
   200
 48
0.6
370
    25
100
AcDbMText
 10
7084.439827681056
 20
937.6301034914325
 30
0.0
 40
15.0
 41
0.0
 46
0.0
 71
     5
 72
     1
  1
\A1;428 [16.85”]
 11
0.0000000000000001
 21
1.0
 31
0.0
 73
     1
 44
1.0
  0
POINT
  5
510
330
509
100
AcDbEntity
  8
Defpoints
 62
     0
 48
0.6
100
AcDbPoint
 10
6993.946125449943
 20
1151.630103491438
 30
0.0
  0
POINT
  5
511
330
509
100
AcDbEntity
  8
Defpoints
 62
     0
 48
0.6
100
AcDbPoint
 10
6993.946125449943
 20
723.6301034914244
 30
0.0
  0
POINT
  5
512
330
509
100
AcDbEntity
  8
Defpoints
 62
     0
 48
0.6
100
AcDbPoint
 10
7094.454113395342
 20
723.6301034914244
 30
0.0
  0
ENDBLK
  5
514
330
509
100
AcDbEntity
  8
0
100
AcDbBlockEnd
  0
BLOCK
  5
51B
330
51A
100
AcDbEntity
  8
0
100
AcDbBlockBegin
  2
*D53
 70
     1
 10
0.0
 20
0.0
 30
0.0
  3
*D53
  1

  0
LINE
  5
51C
330
51A
100
AcDbEntity
  8
2上模
 62
   104
 48
0.6
370
     9
100
AcDbLine
 10
2059.67613515735
 20
5721.975078200564
 30
0.0
 11
1938.481004767556
 21
5630.371810374237
 31
0.0
  0
MTEXT
  5
51D
330
51A
100
AcDbEntity
  8
2上模
 62
   200
 48
0.6
370
    25
100
AcDbMText
 10
1997.994191154786
 20
5685.900357315348
 30
0.0
 40
15.0
 41
0.0
 46
0.0
 71
     5
 72
     1
  1
\A1;R10 [R0.39”]
 11
0.7977608892605368
 21
0.6029739327419036
 31
0.0
 73
     1
 44
1.0
  0
SOLID
  5
51E
330
51A
100
AcDbEntity
  8
2上模
 62
   104
 48
0.6
100
AcDbTrace
 10
1937.476048212986
 20
5631.701411856337
 30
0.0
 11
1939.485961322126
 21
5629.042208892136
 31
0.0
 12
1930.50339587495
 22
5624.342071046817
 32
0.0
 13
1930.50339587495
 23
5624.342071046817
 33
0.0
  0
POINT
  5
51F
330
51A
100
AcDbEntity
  8
Defpoints
 62
     0
 48
0.6
100
AcDbPoint
 10
1930.50339587495
 20
5624.342071046817
 30
0.0
  0
POINT
  5
520
330
51A
100
AcDbEntity
  8
Defpoints
 62
     0
 48
0.6
100
AcDbPoint
 10
1938.48100476758
 20
5630.371810374256
 30
0.0
  0
ENDBLK
  5
521
330
51A
100
AcDbEntity
  8
0
100
AcDbBlockEnd
  0
BLOCK
  5
523
330
522
100
AcDbEntity
  8
0
100
AcDbBlockBegin
  2
*D54
 70
     1
 10
0.0
 20
0.0
 30
0.0
  3
*D54
  1

  0
LINE
  5
524
330
522
100
AcDbEntity
  8
2上模
 62
   104
 48
0.6
370
     9
100
AcDbLine
 10
1928.481004767581
 20
6040.371810374256
 30
0.0
 11
1928.481004767581
 21
6097.502675888417
 31
0.0
  0
LINE
  5
525
330
522
100
AcDbEntity
  8
2上模
 62
   104
 48
0.6
370
     9
100
AcDbLine
 10
2711.481004767466
 20
6040.371810374256
 30
0.0
 11
2711.481004767466
 21
6097.502675888417
 31
0.0
  0
LINE
  5
526
330
522
100
AcDbEntity
  8
2上模
 62
   104
 48
0.6
370
     9
100
AcDbLine
 10
1938.481004767581
 20
6096.252675888418
 30
0.0
 11
2701.481004767465
 21
6096.252675888418
 31
0.0
  0
SOLID
  5
527
330
522
100
AcDbEntity
  8
2上模
 62
   104
 48
0.6
100
AcDbTrace
 10
1938.481004767581
 20
6097.919342555083
 30
0.0
 11
1938.481004767581
 21
6094.58600922175
 31
0.0
 12
1928.481004767581
 22
6096.252675888418
 32
0.0
 13
1928.481004767581
 23
6096.252675888418
 33
0.0
  0
SOLID
  5
528
330
522
100
AcDbEntity
  8
2上模
 62
   104
 48
0.6
100
AcDbTrace
 10
2701.481004767465
 20
6097.919342555083
 30
0.0
 11
2701.481004767465
 21
6094.58600922175
 31
0.0
 12
2711.481004767466
 22
6096.252675888418
 32
0.0
 13
2711.481004767466
 23
6096.252675888418
 33
0.0
  0
MTEXT
  5
529
330
522
100
AcDbEntity
  8
2上模
 62
   200
 48
0.6
370
    25
100
AcDbMText
 10
2319.981004767523
 20
6104.666278829594
 30
0.0
 40
15.0
 41
0.0
 46
0.0
 71
     5
 72
     1
  1
\A1;783 [30.83”]
 73
     1
 44
1.0
  0
POINT
  5
52A
330
522
100
AcDbEntity
  8
Defpoints
 62
     0
 48
0.6
100
AcDbPoint
 10
1928.481004767581
 20
6038.371810374257
 30
0.0
  0
POINT
  5
52B
330
522
100
AcDbEntity
  8
Defpoints
 62
     0
 48
0.6
100
AcDbPoint
 10
2711.481004767466
 20
6038.371810374257
 30
0.0
  0
POINT
  5
52C
330
522
100
AcDbEntity
  8
Defpoints
 62
     0
 48
0.6
100
AcDbPoint
 10
2711.481004767466
 20
6096.252675888418
 30
0.0
  0
ENDBLK
  5
52D
330
522
100
AcDbEntity
  8
0
100
AcDbBlockEnd
  0
BLOCK
  5
52F
330
52E
100
AcDbEntity
  8
0
100
AcDbBlockBegin
  2
*D55
 70
     1
 10
0.0
 20
0.0
 30
0.0
  3
*D55
  1

  0
LINE
  5
530
330
52E
100
AcDbEntity
  8
2上模
 62
   104
 48
0.6
370
     9
100
AcDbLine
 10
2703.481004767581
 20
6048.371810374256
 30
0.0
 11
2803.238992712863
 21
6048.371810374256
 31
0.0
  0
LINE
  5
531
330
52E
100
AcDbEntity
  8
2上模
 62
   104
 48
0.6
370
     9
100
AcDbLine
 10
2703.481004767581
 20
5620.371810374257
 30
0.0
 11
2803.238992712863
 21
5620.371810374257
 31
0.0
  0
LINE
  5
532
330
52E
100
AcDbEntity
  8
2上模
 62
   104
 48
0.6
370
     9
100
AcDbLine
 10
2801.988992712864
 20
6038.371810374257
 30
0.0
 11
2801.988992712864
 21
5630.371810374256
 31
0.0
  0
SOLID
  5
533
330
52E
100
AcDbEntity
  8
2上模
 62
   104
 48
0.6
100
AcDbTrace
 10
2800.322326046197
 20
6038.371810374257
 30
0.0
 11
2803.65565937953
 21
6038.371810374257
 31
0.0
 12
2801.988992712864
 22
6048.371810374256
 32
0.0
 13
2801.988992712864
 23
6048.371810374256
 33
0.0
  0
SOLID
  5
534
330
52E
100
AcDbEntity
  8
2上模
 62
   104
 48
0.6
100
AcDbTrace
 10
2800.322326046197
 20
5630.371810374256
 30
0.0
 11
2803.65565937953
 21
5630.371810374256
 31
0.0
 12
2801.988992712864
 22
5620.371810374257
 32
0.0
 13
2801.988992712864
 23
5620.371810374257
 33
0.0
  0
MTEXT
  5
535
330
52E
100
AcDbEntity
  8
2上模
 62
   200
 48
0.6
370
    25
100
AcDbMText
 10
2793.575389771686
 20
5834.371810374257
 30
0.0
 40
15.0
 41
0.0
 46
0.0
 71
     5
 72
     1
  1
\A1;428 [16.85”]
 11
0.0000000000000001
 21
1.0
 31
0.0
 73
     1
 44
1.0
  0
POINT
  5
536
330
52E
100
AcDbEntity
  8
Defpoints
 62
     0
 48
0.6
100
AcDbPoint
 10
2701.481004767581
 20
6048.371810374256
 30
0.0
  0
POINT
  5
537
330
52E
100
AcDbEntity
  8
Defpoints
 62
     0
 48
0.6
100
AcDbPoint
 10
2701.481004767581
 20
5620.371810374257
 30
0.0
  0
POINT
  5
538
330
52E
100
AcDbEntity
  8
Defpoints
 62
     0
 48
0.6
100
AcDbPoint
 10
2801.988992712864
 20
5620.371810374257
 30
0.0
  0
ENDBLK
  5
539
330
52E
100
AcDbEntity
  8
0
100
AcDbBlockEnd
  0
BLOCK
  5
55A
330
554
100
AcDbEntity
  8
0
100
AcDbBlockBegin
  2
*D57
 70
     1
 10
0.0
 20
0.0
 30
0.0
  3
*D57
  1

  0
LINE
  5
574
330
554
100
AcDbEntity
  8
2上模
 62
   104
 48
0.6
370
     9
100
AcDbLine
 10
7371.068269366756
 20
887.3599558011401
 30
0.0
 11
7251.208466683937
 21
796.7659725985726
 31
0.0
  0
MTEXT
  5
575
330
554
100
AcDbEntity
  8
2上模
 62
   200
 48
0.6
370
    25
100
AcDbMText
 10
7309.756483084393
 20
853.5714816521858
 30
0.0
 40
15.0
 41
0.0
 46
0.0
 71
     5
 72
     1
  1
\A1;R10 [R0.39”]
 11
0.7977608892605158
 21
0.6029739327419314
 31
0.0
 73
     1
 44
1.0
  0
SOLID
  5
576
330
554
100
AcDbEntity
  8
2上模
 62
   104
 48
0.6
100
AcDbTrace
 10
7250.203510129368
 20
798.0955740806734
 30
0.0
 11
7252.213423238507
 21
795.4363711164719
 31
0.0
 12
7243.230857791331
 22
790.7362332711532
 32
0.0
 13
7243.230857791331
 23
790.7362332711532
 33
0.0
  0
POINT
  5
577
330
554
100
AcDbEntity
  8
Defpoints
 62
     0
 48
0.6
100
AcDbPoint
 10
7243.230857791331
 20
790.7362332711532
 30
0.0
  0
POINT
  5
578
330
554
100
AcDbEntity
  8
Defpoints
 62
     0
 48
0.6
100
AcDbPoint
 10
7251.208466683964
 20
796.7659725985932
 30
0.0
  0
ENDBLK
  5
55B
330
554
100
AcDbEntity
  8
0
100
AcDbBlockEnd
  0
BLOCK
  5
566
330
55C
100
AcDbEntity
  8
0
100
AcDbBlockBegin
  2
*D58
 70
     1
 10
0.0
 20
0.0
 30
0.0
  3
*D58
  1

  0
LINE
  5
55D
330
55C
100
AcDbEntity
  8
2上模
 62
   104
 48
0.6
370
     9
100
AcDbLine
 10
7241.208466683964
 20
1206.765972598593
 30
0.0
 11
7241.208466683964
 21
1263.896838112754
 31
0.0
  0
LINE
  5
55E
330
55C
100
AcDbEntity
  8
2上模
 62
   104
 48
0.6
370
     9
100
AcDbLine
 10
8024.20846668385
 20
1206.765972598593
 30
0.0
 11
8024.20846668385
 21
1263.896838112754
 31
0.0
  0
LINE
  5
55F
330
55C
100
AcDbEntity
  8
2上模
 62
   104
 48
0.6
370
     9
100
AcDbLine
 10
7251.208466683964
 20
1262.646838112754
 30
0.0
 11
8014.20846668385
 21
1262.646838112754
 31
0.0
  0
SOLID
  5
560
330
55C
100
AcDbEntity
  8
2上模
 62
   104
 48
0.6
100
AcDbTrace
 10
7251.208466683964
 20
1264.313504779421
 30
0.0
 11
7251.208466683964
 21
1260.980171446087
 31
0.0
 12
7241.208466683964
 22
1262.646838112754
 32
0.0
 13
7241.208466683964
 23
1262.646838112754
 33
0.0
  0
SOLID
  5
561
330
55C
100
AcDbEntity
  8
2上模
 62
   104
 48
0.6
100
AcDbTrace
 10
8014.20846668385
 20
1264.313504779421
 30
0.0
 11
8014.20846668385
 21
1260.980171446087
 31
0.0
 12
8024.20846668385
 22
1262.646838112754
 32
0.0
 13
8024.20846668385
 23
1262.646838112754
 33
0.0
  0
MTEXT
  5
562
330
55C
100
AcDbEntity
  8
2上模
 62
   200
 48
0.6
370
    25
100
AcDbMText
 10
7632.708466683907
 20
1272.66112382704
 30
0.0
 40
15.0
 41
0.0
 46
0.0
 71
     5
 72
     1
  1
\A1;783 [30.83”]
 73
     1
 44
1.0
  0
POINT
  5
563
330
55C
100
AcDbEntity
  8
Defpoints
 62
     0
 48
0.6
100
AcDbPoint
 10
7241.208466683964
 20
1204.765972598593
 30
0.0
  0
POINT
  5
564
330
55C
100
AcDbEntity
  8
Defpoints
 62
     0
 48
0.6
100
AcDbPoint
 10
8024.20846668385
 20
1204.765972598593
 30
0.0
  0
POINT
  5
565
330
55C
100
AcDbEntity
  8
Defpoints
 62
     0
 48
0.6
100
AcDbPoint
 10
8024.20846668385
 20
1262.646838112754
 30
0.0
  0
ENDBLK
  5
567
330
55C
100
AcDbEntity
  8
0
100
AcDbBlockEnd
  0
BLOCK
  5
572
330
568
100
AcDbEntity
  8
0
100
AcDbBlockBegin
  2
*D59
 70
     1
 10
0.0
 20
0.0
 30
0.0
  3
*D59
  1

  0
LINE
  5
569
330
568
100
AcDbEntity
  8
2上模
 62
   104
 48
0.6
370
     9
100
AcDbLine
 10
8016.208466683965
 20
1214.765972598593
 30
0.0
 11
8115.966454629248
 21
1214.765972598593
 31
0.0
  0
LINE
  5
56A
330
568
100
AcDbEntity
  8
2上模
 62
   104
 48
0.6
370
     9
100
AcDbLine
 10
8016.208466683965
 20
786.765972598593
 30
0.0
 11
8115.966454629248
 21
786.765972598593
 31
0.0
  0
LINE
  5
56B
330
568
100
AcDbEntity
  8
2上模
 62
   104
 48
0.6
370
     9
100
AcDbLine
 10
8114.716454629249
 20
1204.765972598593
 30
0.0
 11
8114.716454629249
 21
796.7659725985931
 31
0.0
  0
SOLID
  5
56C
330
568
100
AcDbEntity
  8
2上模
 62
   104
 48
0.6
100
AcDbTrace
 10
8113.04978796258
 20
1204.765972598593
 30
0.0
 11
8116.383121295916
 21
1204.765972598593
 31
0.0
 12
8114.716454629249
 22
1214.765972598593
 32
0.0
 13
8114.716454629249
 23
1214.765972598593
 33
0.0
  0
SOLID
  5
56D
330
568
100
AcDbEntity
  8
2上模
 62
   104
 48
0.6
100
AcDbTrace
 10
8113.04978796258
 20
796.7659725985931
 30
0.0
 11
8116.383121295916
 21
796.7659725985931
 31
0.0
 12
8114.716454629249
 22
786.765972598593
 32
0.0
 13
8114.716454629249
 23
786.765972598593
 33
0.0
  0
MTEXT
  5
56E
330
568
100
AcDbEntity
  8
2上模
 62
   200
 48
0.6
370
    25
100
AcDbMText
 10
8104.702168914963
 20
1000.765972598594
 30
0.0
 40
15.0
 41
0.0
 46
0.0
 71
     5
 72
     1
  1
\A1;428 [16.85”]
 11
0.0000000000000001
 21
1.0
 31
0.0
 73
     1
 44
1.0
  0
POINT
  5
56F
330
568
100
AcDbEntity
  8
Defpoints
 62
     0
 48
0.6
100
AcDbPoint
 10
8014.208466683966
 20
1214.765972598593
 30
0.0
  0
POINT
  5
570
330
568
100
AcDbEntity
  8
Defpoints
 62
     0
 48
0.6
100
AcDbPoint
 10
8014.208466683966
 20
786.765972598593
 30
0.0
  0
POINT
  5
571
330
568
100
AcDbEntity
  8
Defpoints
 62
     0
 48
0.6
100
AcDbPoint
 10
8114.716454629249
 20
786.765972598593
 30
0.0
  0
ENDBLK
  5
573
330
568
100
AcDbEntity
  8
0
100
AcDbBlockEnd
  0
BLOCK
  5
57B
330
57A
100
AcDbEntity
  8
0
100
AcDbBlockBegin
  2
*D60
 70
     1
 10
0.0
 20
0.0
 30
0.0
  3
*D60
  1

  0
LINE
  5
57C
330
57A
100
AcDbEntity
  8
2上模
 62
   104
 48
0.6
370
     9
100
AcDbLine
 10
998.232905902255
 20
3739.181665877461
 30
0.0
 11
998.232905902255
 21
3799.21850865497
 31
0.0
  0
LINE
  5
57D
330
57A
100
AcDbEntity
  8
2上模
 62
   104
 48
0.6
370
     9
100
AcDbLine
 10
1453.232905902255
 20
3739.181665877461
 30
0.0
 11
1453.232905902255
 21
3799.21850865497
 31
0.0
  0
LINE
  5
57E
330
57A
100
AcDbEntity
  8
2上模
 62
   104
 48
0.6
370
     9
100
AcDbLine
 10
1008.232905902255
 20
3797.96850865497
 30
0.0
 11
1443.232905902255
 21
3797.96850865497
 31
0.0
  0
SOLID
  5
57F
330
57A
100
AcDbEntity
  8
2上模
 62
   104
 48
0.6
100
AcDbTrace
 10
1008.232905902255
 20
3799.635175321637
 30
0.0
 11
1008.232905902255
 21
3796.301841988304
 31
0.0
 12
998.232905902255
 22
3797.96850865497
 32
0.0
 13
998.232905902255
 23
3797.96850865497
 33
0.0
  0
SOLID
  5
580
330
57A
100
AcDbEntity
  8
2上模
 62
   104
 48
0.6
100
AcDbTrace
 10
1443.232905902255
 20
3799.635175321637
 30
0.0
 11
1443.232905902255
 21
3796.301841988304
 31
0.0
 12
1453.232905902255
 22
3797.96850865497
 32
0.0
 13
1453.232905902255
 23
3797.96850865497
 33
0.0
  0
MTEXT
  5
581
330
57A
100
AcDbEntity
  8
2上模
 62
   200
 48
0.6
370
    25
100
AcDbMText
 10
1225.732905902255
 20
3806.382111596147
 30
0.0
 40
15.0
 41
0.0
 46
0.0
 71
     5
 72
     1
  1
\A1;455 [17 7/8”]
 73
     1
 44
1.0
  0
POINT
  5
582
330
57A
100
AcDbEntity
  8
Defpoints
 62
     0
 48
0.6
100
AcDbPoint
 10
998.232905902255
 20
3737.181665877461
 30
0.0
  0
POINT
  5
583
330
57A
100
AcDbEntity
  8
Defpoints
 62
     0
 48
0.6
100
AcDbPoint
 10
1453.232905902255
 20
3737.181665877461
 30
0.0
  0
POINT
  5
584
330
57A
100
AcDbEntity
  8
Defpoints
 62
     0
 48
0.6
100
AcDbPoint
 10
1453.232905902255
 20
3797.96850865497
 30
0.0
  0
ENDBLK
  5
585
330
57A
100
AcDbEntity
  8
0
100
AcDbBlockEnd
  0
BLOCK
  5
587
330
586
100
AcDbEntity
  8
0
100
AcDbBlockBegin
  2
*D61
 70
     1
 10
0.0
 20
0.0
 30
0.0
  3
*D61
  1

  0
LINE
  5
588
330
586
100
AcDbEntity
  8
2上模
 62
   104
 48
0.6
370
     9
100
AcDbLine
 10
1445.232905902255
 20
3747.181665877475
 30
0.0
 11
1540.189055059566
 21
3747.181665877475
 31
0.0
  0
LINE
  5
589
330
586
100
AcDbEntity
  8
2上模
 62
   104
 48
0.6
370
     9
100
AcDbLine
 10
1445.232905902255
 20
3344.181665877461
 30
0.0
 11
1540.189055059566
 21
3344.181665877461
 31
0.0
  0
LINE
  5
58A
330
586
100
AcDbEntity
  8
2上模
 62
   104
 48
0.6
370
     9
100
AcDbLine
 10
1538.939055059566
 20
3737.181665877475
 30
0.0
 11
1538.939055059566
 21
3354.181665877461
 31
0.0
  0
SOLID
  5
58B
330
586
100
AcDbEntity
  8
2上模
 62
   104
 48
0.6
100
AcDbTrace
 10
1537.272388392899
 20
3737.181665877475
 30
0.0
 11
1540.605721726233
 21
3737.181665877475
 31
0.0
 12
1538.939055059566
 22
3747.181665877475
 32
0.0
 13
1538.939055059566
 23
3747.181665877475
 33
0.0
  0
SOLID
  5
58C
330
586
100
AcDbEntity
  8
2上模
 62
   104
 48
0.6
100
AcDbTrace
 10
1537.272388392899
 20
3354.181665877461
 30
0.0
 11
1540.605721726233
 21
3354.181665877461
 31
0.0
 12
1538.939055059566
 22
3344.181665877461
 32
0.0
 13
1538.939055059566
 23
3344.181665877461
 33
0.0
  0
MTEXT
  5
58D
330
586
100
AcDbEntity
  8
2上模
 62
   200
 48
0.6
370
    25
100
AcDbMText
 10
1530.525452118389
 20
3545.681665877469
 30
0.0
 40
15.0
 41
0.0
 46
0.0
 71
     5
 72
     1
  1
\A1;403 [15 7/8”]
 11
0.0000000000000001
 21
1.0
 31
0.0
 73
     1
 44
1.0
  0
POINT
  5
58E
330
586
100
AcDbEntity
  8
Defpoints
 62
     0
 48
0.6
100
AcDbPoint
 10
1443.232905902255
 20
3747.181665877475
 30
0.0
  0
POINT
  5
58F
330
586
100
AcDbEntity
  8
Defpoints
 62
     0
 48
0.6
100
AcDbPoint
 10
1443.232905902255
 20
3344.181665877461
 30
0.0
  0
POINT
  5
590
330
586
100
AcDbEntity
  8
Defpoints
 62
     0
 48
0.6
100
AcDbPoint
 10
1538.939055059566
 20
3344.181665877461
 30
0.0
  0
ENDBLK
  5
591
330
586
100
AcDbEntity
  8
0
100
AcDbBlockEnd
  0
BLOCK
  5
593
330
592
100
AcDbEntity
  8
0
100
AcDbBlockBegin
  2
*D62
 70
     1
 10
0.0
 20
0.0
 30
0.0
  3
*D62
  1

  0
LINE
  5
594
330
592
100
AcDbEntity
  8
2上模
 62
   104
 48
0.6
370
     9
100
AcDbLine
 10
1123.212101277834
 20
3449.60628193225
 30
0.0
 11
1008.232905902239
 21
3354.181665877449
 31
0.0
  0
MTEXT
  5
595
330
592
100
AcDbEntity
  8
2上模
 62
   200
 48
0.6
370
    25
100
AcDbMText
 10
1064.196802883118
 20
3411.561494362789
 30
0.0
 40
15.0
 41
0.0
 46
0.0
 71
     5
 72
     1
  1
\A1;R10 [R3/8”]
 11
0.7695079263363481
 21
0.6386372611314921
 31
0.0
 73
     1
 44
1.0
  0
SOLID
  5
596
330
592
100
AcDbEntity
  8
2上模
 62
   104
 48
0.6
100
AcDbTrace
 10
1007.16851046702
 20
3355.464179088009
 30
0.0
 11
1009.297301337458
 21
3352.899152666888
 31
0.0
 12
1000.537826638876
 22
3347.795293266133
 32
0.0
 13
1000.537826638876
 23
3347.795293266133
 33
0.0
  0
POINT
  5
597
330
592
100
AcDbEntity
  8
Defpoints
 62
     0
 48
0.6
100
AcDbPoint
 10
1000.537826638876
 20
3347.795293266133
 30
0.0
  0
POINT
  5
598
330
592
100
AcDbEntity
  8
Defpoints
 62
     0
 48
0.6
100
AcDbPoint
 10
1008.232905902262
 20
3354.181665877467
 30
0.0
  0
ENDBLK
  5
599
330
592
100
AcDbEntity
  8
0
100
AcDbBlockEnd
  0
BLOCK
  5
5BE
330
5B4
100
AcDbEntity
  8
0
100
AcDbBlockBegin
  2
*D64
 70
     1
 10
0.0
 20
0.0
 30
0.0
  3
*D64
  1

  0
LINE
  5
5B5
330
5B4
100
AcDbEntity
  8
2上模
 62
   104
 48
0.6
370
     9
100
AcDbLine
 10
8387.396736638207
 20
1179.313137481343
 30
0.0
 11
8387.396736638207
 21
1239.349980258852
 31
0.0
  0
LINE
  5
5B6
330
5B4
100
AcDbEntity
  8
2上模
 62
   104
 48
0.6
370
     9
100
AcDbLine
 10
8842.396736638205
 20
1179.313137481343
 30
0.0
 11
8842.396736638205
 21
1239.349980258852
 31
0.0
  0
LINE
  5
5B7
330
5B4
100
AcDbEntity
  8
2上模
 62
   104
 48
0.6
370
     9
100
AcDbLine
 10
8397.396736638205
 20
1238.099980258853
 30
0.0
 11
8832.396736638207
 21
1238.099980258853
 31
0.0
  0
SOLID
  5
5B8
330
5B4
100
AcDbEntity
  8
2上模
 62
   104
 48
0.6
100
AcDbTrace
 10
8397.396736638205
 20
1239.766646925519
 30
0.0
 11
8397.396736638205
 21
1236.433313592186
 31
0.0
 12
8387.396736638207
 22
1238.099980258853
 32
0.0
 13
8387.396736638207
 23
1238.099980258853
 33
0.0
  0
SOLID
  5
5B9
330
5B4
100
AcDbEntity
  8
2上模
 62
   104
 48
0.6
100
AcDbTrace
 10
8832.396736638207
 20
1239.766646925519
 30
0.0
 11
8832.396736638207
 21
1236.433313592186
 31
0.0
 12
8842.396736638205
 22
1238.099980258853
 32
0.0
 13
8842.396736638205
 23
1238.099980258853
 33
0.0
  0
MTEXT
  5
5BA
330
5B4
100
AcDbEntity
  8
2上模
 62
   200
 48
0.6
370
    25
100
AcDbMText
 10
8614.896736638206
 20
1248.328551687424
 30
0.0
 40
15.0
 41
0.0
 46
0.0
 71
     5
 72
     1
  1
\A1;455 [17 7/8”]
 73
     1
 44
1.0
  0
POINT
  5
5BB
330
5B4
100
AcDbEntity
  8
Defpoints
 62
     0
 48
0.6
100
AcDbPoint
 10
8387.396736638207
 20
1177.313137481343
 30
0.0
  0
POINT
  5
5BC
330
5B4
100
AcDbEntity
  8
Defpoints
 62
     0
 48
0.6
100
AcDbPoint
 10
8842.396736638205
 20
1177.313137481343
 30
0.0
  0
POINT
  5
5BD
330
5B4
100
AcDbEntity
  8
Defpoints
 62
     0
 48
0.6
100
AcDbPoint
 10
8842.396736638205
 20
1238.099980258853
 30
0.0
  0
ENDBLK
  5
5BF
330
5B4
100
AcDbEntity
  8
0
100
AcDbBlockEnd
  0
BLOCK
  5
5CA
330
5C0
100
AcDbEntity
  8
0
100
AcDbBlockBegin
  2
*D65
 70
     1
 10
0.0
 20
0.0
 30
0.0
  3
*D65
  1

  0
LINE
  5
5C1
330
5C0
100
AcDbEntity
  8
2上模
 62
   104
 48
0.6
370
     9
100
AcDbLine
 10
8834.396736638206
 20
1187.313137481357
 30
0.0
 11
8929.352885795516
 21
1187.313137481357
 31
0.0
  0
LINE
  5
5C2
330
5C0
100
AcDbEntity
  8
2上模
 62
   104
 48
0.6
370
     9
100
AcDbLine
 10
8834.396736638206
 20
784.313137481343
 30
0.0
 11
8929.352885795516
 21
784.313137481343
 31
0.0
  0
LINE
  5
5C3
330
5C0
100
AcDbEntity
  8
2上模
 62
   104
 48
0.6
370
     9
100
AcDbLine
 10
8928.102885795517
 20
1177.313137481357
 30
0.0
 11
8928.102885795517
 21
794.313137481343
 31
0.0
  0
SOLID
  5
5C4
330
5C0
100
AcDbEntity
  8
2上模
 62
   104
 48
0.6
100
AcDbTrace
 10
8926.43621912885
 20
1177.313137481357
 30
0.0
 11
8929.769552462182
 21
1177.313137481357
 31
0.0
 12
8928.102885795517
 22
1187.313137481357
 32
0.0
 13
8928.102885795517
 23
1187.313137481357
 33
0.0
  0
SOLID
  5
5C5
330
5C0
100
AcDbEntity
  8
2上模
 62
   104
 48
0.6
100
AcDbTrace
 10
8926.43621912885
 20
794.313137481343
 30
0.0
 11
8929.769552462182
 21
794.313137481343
 31
0.0
 12
8928.102885795517
 22
784.313137481343
 32
0.0
 13
8928.102885795517
 23
784.313137481343
 33
0.0
  0
MTEXT
  5
5C6
330
5C0
100
AcDbEntity
  8
2上模
 62
   200
 48
0.6
370
    25
100
AcDbMText
 10
8917.874314366946
 20
985.8131374813517
 30
0.0
 40
15.0
 41
0.0
 46
0.0
 71
     5
 72
     1
  1
\A1;403 [15 7/8”]
 11
0.0000000000000001
 21
1.0
 31
0.0
 73
     1
 44
1.0
  0
POINT
  5
5C7
330
5C0
100
AcDbEntity
  8
Defpoints
 62
     0
 48
0.6
100
AcDbPoint
 10
8832.396736638207
 20
1187.313137481357
 30
0.0
  0
POINT
  5
5C8
330
5C0
100
AcDbEntity
  8
Defpoints
 62
     0
 48
0.6
100
AcDbPoint
 10
8832.396736638207
 20
784.313137481343
 30
0.0
  0
POINT
  5
5C9
330
5C0
100
AcDbEntity
  8
Defpoints
 62
     0
 48
0.6
100
AcDbPoint
 10
8928.102885795517
 20
784.313137481343
 30
0.0
  0
ENDBLK
  5
5CB
330
5C0
100
AcDbEntity
  8
0
100
AcDbBlockEnd
  0
BLOCK
  5
5D2
330
5CC
100
AcDbEntity
  8
0
100
AcDbBlockBegin
  2
*D66
 70
     1
 10
0.0
 20
0.0
 30
0.0
  3
*D66
  1

  0
LINE
  5
5D4
330
5CC
100
AcDbEntity
  8
2上模
 62
   104
 48
0.6
370
     9
100
AcDbLine
 10
8507.828479657936
 20
885.9636890745683
 30
0.0
 11
8397.39673663819
 21
794.3131374813315
 31
0.0
  0
MTEXT
  5
5D5
330
5CC
100
AcDbEntity
  8
2上模
 62
   200
 48
0.6
370
    25
100
AcDbMText
 10
8452.201527115242
 20
853.0895986037675
 30
0.0
 40
15.0
 41
0.0
 46
0.0
 71
     5
 72
     1
  1
\A1;R10 [R3/8”]
 11
0.7695079263364108
 21
0.6386372611314169
 31
0.0
 73
     1
 44
1.0
  0
SOLID
  5
5D6
330
5CC
100
AcDbEntity
  8
2上模
 62
   104
 48
0.6
100
AcDbTrace
 10
8396.33234120297
 20
795.5956506918924
 30
0.0
 11
8398.461132073409
 21
793.0306242707707
 31
0.0
 12
8389.701657374827
 22
787.9267648700174
 32
0.0
 13
8389.701657374827
 23
787.9267648700174
 33
0.0
  0
POINT
  5
5D7
330
5CC
100
AcDbEntity
  8
Defpoints
 62
     0
 48
0.6
100
AcDbPoint
 10
8389.701657374827
 20
787.9267648700174
 30
0.0
  0
POINT
  5
5D8
330
5CC
100
AcDbEntity
  8
Defpoints
 62
     0
 48
0.6
100
AcDbPoint
 10
8397.396736638212
 20
794.3131374813506
 30
0.0
  0
ENDBLK
  5
5D3
330
5CC
100
AcDbEntity
  8
0
100
AcDbBlockEnd
  0
BLOCK
  5
5DA
330
5D9
100
AcDbEntity
  8
0
100
AcDbBlockBegin
  2
*D67
 70
     1
 10
0.0
 20
0.0
 30
0.0
  3
*D67
  1

  0
LINE
  5
5DB
330
5D9
100
AcDbEntity
  8
2上模
 62
   104
 48
0.6
370
     9
100
AcDbLine
 10
2576.726579410311
 20
3749.964206866452
 30
0.0
 11
2724.515059577821
 21
3749.964206866452
 31
0.0
  0
LINE
  5
5DC
330
5D9
100
AcDbEntity
  8
2上模
 62
   104
 48
0.6
370
     9
100
AcDbLine
 10
2576.726579410311
 20
3346.964206866452
 30
0.0
 11
2724.515059577821
 21
3346.964206866452
 31
0.0
  0
LINE
  5
5DD
330
5D9
100
AcDbEntity
  8
2上模
 62
   104
 48
0.6
370
     9
100
AcDbLine
 10
2723.265059577821
 20
3739.964206866452
 30
0.0
 11
2723.265059577821
 21
3356.964206866452
 31
0.0
  0
SOLID
  5
5DE
330
5D9
100
AcDbEntity
  8
2上模
 62
   104
 48
0.6
100
AcDbTrace
 10
2721.598392911154
 20
3739.964206866452
 30
0.0
 11
2724.931726244487
 21
3739.964206866452
 31
0.0
 12
2723.265059577821
 22
3749.964206866452
 32
0.0
 13
2723.265059577821
 23
3749.964206866452
 33
0.0
  0
SOLID
  5
5DF
330
5D9
100
AcDbEntity
  8
2上模
 62
   104
 48
0.6
100
AcDbTrace
 10
2721.598392911154
 20
3356.964206866452
 30
0.0
 11
2724.931726244487
 21
3356.964206866452
 31
0.0
 12
2723.265059577821
 22
3346.964206866452
 32
0.0
 13
2723.265059577821
 23
3346.964206866452
 33
0.0
  0
MTEXT
  5
5E0
330
5D9
100
AcDbEntity
  8
2上模
 62
   200
 48
0.6
370
    25
100
AcDbMText
 10
2714.851456636643
 20
3548.464206866454
 30
0.0
 40
15.0
 41
0.0
 46
0.0
 71
     5
 72
     1
  1
\A1;403 [15 7/8”]
 11
0.0000000000000001
 21
1.0
 31
0.0
 73
     1
 44
1.0
  0
POINT
  5
5E1
330
5D9
100
AcDbEntity
  8
Defpoints
 62
     0
 48
0.6
100
AcDbPoint
 10
2574.72657941031
 20
3749.964206866452
 30
0.0
  0
POINT
  5
5E2
330
5D9
100
AcDbEntity
  8
Defpoints
 62
     0
 48
0.6
100
AcDbPoint
 10
2574.72657941031
 20
3346.964206866452
 30
0.0
  0
POINT
  5
5E3
330
5D9
100
AcDbEntity
  8
Defpoints
 62
     0
 48
0.6
100
AcDbPoint
 10
2723.265059577821
 20
3346.964206866452
 30
0.0
  0
ENDBLK
  5
5E4
330
5D9
100
AcDbEntity
  8
0
100
AcDbBlockEnd
  0
BLOCK
  5
5E6
330
5E5
100
AcDbEntity
  8
0
100
AcDbBlockBegin
  2
*D68
 70
     1
 10
0.0
 20
0.0
 30
0.0
  3
*D68
  1

  0
LINE
  5
5E7
330
5E5
100
AcDbEntity
  8
2上模
 62
   104
 48
0.6
370
     9
100
AcDbLine
 10
2601.760975122273
 20
3720.062134413163
 30
0.0
 11
2601.760975122273
 21
3770.632561508855
 31
0.0
  0
LINE
  5
5E8
330
5E5
100
AcDbEntity
  8
2上模
 62
   104
 48
0.6
370
     9
100
AcDbLine
 10
1816.760975122273
 20
3720.062134413163
 30
0.0
 11
1816.760975122273
 21
3770.632561508855
 31
0.0
  0
LINE
  5
5E9
330
5E5
100
AcDbEntity
  8
2上模
 62
   104
 48
0.6
370
     9
100
AcDbLine
 10
2591.760975122273
 20
3769.382561508855
 30
0.0
 11
1826.760975122272
 21
3769.382561508855
 31
0.0
  0
SOLID
  5
5EA
330
5E5
100
AcDbEntity
  8
2上模
 62
   104
 48
0.6
100
AcDbTrace
 10
2591.760975122273
 20
3771.049228175523
 30
0.0
 11
2591.760975122273
 21
3767.715894842189
 31
0.0
 12
2601.760975122273
 22
3769.382561508855
 32
0.0
 13
2601.760975122273
 23
3769.382561508855
 33
0.0
  0
SOLID
  5
5EB
330
5E5
100
AcDbEntity
  8
2上模
 62
   104
 48
0.6
100
AcDbTrace
 10
1826.760975122272
 20
3771.049228175523
 30
0.0
 11
1826.760975122272
 21
3767.715894842189
 31
0.0
 12
1816.760975122273
 22
3769.382561508855
 32
0.0
 13
1816.760975122273
 23
3769.382561508855
 33
0.0
  0
MTEXT
  5
5EC
330
5E5
100
AcDbEntity
  8
2上模
 62
   200
 48
0.6
370
    25
100
AcDbMText
 10
2209.260975122273
 20
3777.796164450033
 30
0.0
 40
15.0
 41
0.0
 46
0.0
 71
     5
 72
     1
  1
\A1;785 [30 7/8”]
 73
     1
 44
1.0
  0
POINT
  5
5ED
330
5E5
100
AcDbEntity
  8
Defpoints
 62
     0
 48
0.6
100
AcDbPoint
 10
2601.760975122273
 20
3718.062134413163
 30
0.0
  0
POINT
  5
5EE
330
5E5
100
AcDbEntity
  8
Defpoints
 62
     0
 48
0.6
100
AcDbPoint
 10
1816.760975122273
 20
3718.062134413163
 30
0.0
  0
POINT
  5
5EF
330
5E5
100
AcDbEntity
  8
Defpoints
 62
     0
 48
0.6
100
AcDbPoint
 10
1816.760975122273
 20
3769.382561508855
 30
0.0
  0
ENDBLK
  5
5F0
330
5E5
100
AcDbEntity
  8
0
100
AcDbBlockEnd
  0
BLOCK
  5
5F2
330
5F1
100
AcDbEntity
  8
0
100
AcDbBlockBegin
  2
*D69
 70
     1
 10
0.0
 20
0.0
 30
0.0
  3
*D69
  1

  0
LINE
  5
5F3
330
5F1
100
AcDbEntity
  8
2上模
 62
   104
 48
0.6
370
     9
100
AcDbLine
 10
1948.809465156775
 20
3449.459890890306
 30
0.0
 11
1833.830269781181
 21
3354.035274835502
 31
0.0
  0
MTEXT
  5
5F4
330
5F1
100
AcDbEntity
  8
2上模
 62
   200
 48
0.6
370
    25
100
AcDbMText
 10
1889.794166762059
 20
3411.415103320843
 30
0.0
 40
15.0
 41
0.0
 46
0.0
 71
     5
 72
     1
  1
\A1;R10 [R3/8”]
 11
0.7695079263363419
 21
0.6386372611314996
 31
0.0
 73
     1
 44
1.0
  0
SOLID
  5
5F5
330
5F1
100
AcDbEntity
  8
2上模
 62
   104
 48
0.6
100
AcDbTrace
 10
1832.765874345962
 20
3355.317788046062
 30
0.0
 11
1834.8946652164
 21
3352.752761624941
 31
0.0
 12
1826.135190517818
 22
3347.648902224187
 32
0.0
 13
1826.135190517818
 23
3347.648902224187
 33
0.0
  0
POINT
  5
5F6
330
5F1
100
AcDbEntity
  8
Defpoints
 62
     0
 48
0.6
100
AcDbPoint
 10
1826.135190517818
 20
3347.648902224187
 30
0.0
  0
POINT
  5
5F7
330
5F1
100
AcDbEntity
  8
Defpoints
 62
     0
 48
0.6
100
AcDbPoint
 10
1833.830269781203
 20
3354.035274835521
 30
0.0
  0
ENDBLK
  5
5F8
330
5F1
100
AcDbEntity
  8
0
100
AcDbBlockEnd
  0
BLOCK
  5
615
330
60F
100
AcDbEntity
  8
0
100
AcDbBlockBegin
  2
*D71
 70
     1
 10
0.0
 20
0.0
 30
0.0
  3
*D71
  1

  0
LINE
  5
62F
330
60F
100
AcDbEntity
  8
2上模
 62
   104
 48
0.6
370
     9
100
AcDbLine
 10
9256.997008935876
 20
908.7943156357024
 30
0.0
 11
9146.565265916146
 21
817.1437640424446
 31
0.0
  0
MTEXT
  5
630
330
60F
100
AcDbEntity
  8
2上模
 62
   200
 48
0.6
370
    25
100
AcDbMText
 10
9201.370056393189
 20
875.9202251648913
 30
0.0
 40
15.0
 41
0.0
 46
0.0
 71
     5
 72
     1
  1
\A1;R10 [R3/8”]
 11
0.7695079263362921
 21
0.6386372611315596
 31
0.0
 73
     1
 44
1.0
  0
SOLID
  5
631
330
60F
100
AcDbEntity
  8
2上模
 62
   104
 48
0.6
100
AcDbTrace
 10
9145.500870480926
 20
818.426277253005
 30
0.0
 11
9147.629661351365
 21
815.8612508318837
 31
0.0
 12
9138.870186652782
 22
810.7573914311288
 32
0.0
 13
9138.870186652782
 23
810.7573914311288
 33
0.0
  0
POINT
  5
632
330
60F
100
AcDbEntity
  8
Defpoints
 62
     0
 48
0.6
100
AcDbPoint
 10
9138.870186652782
 20
810.7573914311288
 30
0.0
  0
POINT
  5
633
330
60F
100
AcDbEntity
  8
Defpoints
 62
     0
 48
0.6
100
AcDbPoint
 10
9146.565265916168
 20
817.1437640424628
 30
0.0
  0
ENDBLK
  5
616
330
60F
100
AcDbEntity
  8
0
100
AcDbBlockEnd
  0
BLOCK
  5
621
330
617
100
AcDbEntity
  8
0
100
AcDbBlockBegin
  2
*D72
 70
     1
 10
0.0
 20
0.0
 30
0.0
  3
*D72
  1

  0
LINE
  5
634
330
617
100
AcDbEntity
  8
2上模
 62
   104
 48
0.6
370
     9
100
AcDbLine
 10
9889.461575545276
 20
1213.072696073394
 30
0.0
 11
10037.25005571278
 21
1213.072696073394
 31
0.0
  0
LINE
  5
635
330
617
100
AcDbEntity
  8
2上模
 62
   104
 48
0.6
370
     9
100
AcDbLine
 10
9889.461575545276
 20
810.0726960733938
 30
0.0
 11
10037.25005571278
 21
810.0726960733936
 31
0.0
  0
LINE
  5
636
330
617
100
AcDbEntity
  8
2上模
 62
   104
 48
0.6
370
     9
100
AcDbLine
 10
10036.00005571279
 20
1203.072696073393
 30
0.0
 11
10036.00005571279
 21
820.0726960733936
 31
0.0
  0
SOLID
  5
637
330
617
100
AcDbEntity
  8
2上模
 62
   104
 48
0.6
100
AcDbTrace
 10
10034.33338904612
 20
1203.072696073393
 30
0.0
 11
10037.66672237945
 21
1203.072696073393
 31
0.0
 12
10036.00005571279
 22
1213.072696073394
 32
0.0
 13
10036.00005571279
 23
1213.072696073394
 33
0.0
  0
SOLID
  5
638
330
617
100
AcDbEntity
  8
2上模
 62
   104
 48
0.6
100
AcDbTrace
 10
10034.33338904612
 20
820.0726960733936
 30
0.0
 11
10037.66672237945
 21
820.0726960733936
 31
0.0
 12
10036.00005571279
 22
810.0726960733936
 32
0.0
 13
10036.00005571279
 23
810.0726960733936
 33
0.0
  0
MTEXT
  5
639
330
617
100
AcDbEntity
  8
2上模
 62
   200
 48
0.6
370
    25
100
AcDbMText
 10
10025.77148428421
 20
1011.572696073395
 30
0.0
 40
15.0
 41
0.0
 46
0.0
 71
     5
 72
     1
  1
\A1;403 [15 7/8”]
 11
0.0000000000000001
 21
1.0
 31
0.0
 73
     1
 44
1.0
  0
POINT
  5
63A
330
617
100
AcDbEntity
  8
Defpoints
 62
     0
 48
0.6
100
AcDbPoint
 10
9887.461575545277
 20
1213.072696073394
 30
0.0
  0
POINT
  5
63B
330
617
100
AcDbEntity
  8
Defpoints
 62
     0
 48
0.6
100
AcDbPoint
 10
9887.461575545277
 20
810.0726960733938
 30
0.0
  0
POINT
  5
63C
330
617
100
AcDbEntity
  8
Defpoints
 62
     0
 48
0.6
100
AcDbPoint
 10
10036.00005571279
 20
810.0726960733936
 30
0.0
  0
ENDBLK
  5
622
330
617
100
AcDbEntity
  8
0
100
AcDbBlockEnd
  0
BLOCK
  5
62D
330
623
100
AcDbEntity
  8
0
100
AcDbBlockBegin
  2
*D73
 70
     1
 10
0.0
 20
0.0
 30
0.0
  3
*D73
  1

  0
LINE
  5
624
330
623
100
AcDbEntity
  8
2上模
 62
   104
 48
0.6
370
     9
100
AcDbLine
 10
9914.495971257238
 20
1183.170623620104
 30
0.0
 11
9914.495971257238
 21
1233.741050715796
 31
0.0
  0
LINE
  5
625
330
623
100
AcDbEntity
  8
2上模
 62
   104
 48
0.6
370
     9
100
AcDbLine
 10
9129.495971257238
 20
1183.170623620104
 30
0.0
 11
9129.495971257238
 21
1233.741050715796
 31
0.0
  0
LINE
  5
626
330
623
100
AcDbEntity
  8
2上模
 62
   104
 48
0.6
370
     9
100
AcDbLine
 10
9904.495971257238
 20
1232.491050715796
 30
0.0
 11
9139.495971257238
 21
1232.491050715796
 31
0.0
  0
SOLID
  5
627
330
623
100
AcDbEntity
  8
2上模
 62
   104
 48
0.6
100
AcDbTrace
 10
9904.495971257238
 20
1234.157717382463
 30
0.0
 11
9904.495971257238
 21
1230.82438404913
 31
0.0
 12
9914.495971257238
 22
1232.491050715796
 32
0.0
 13
9914.495971257238
 23
1232.491050715796
 33
0.0
  0
SOLID
  5
628
330
623
100
AcDbEntity
  8
2上模
 62
   104
 48
0.6
100
AcDbTrace
 10
9139.495971257238
 20
1234.157717382463
 30
0.0
 11
9139.495971257238
 21
1230.82438404913
 31
0.0
 12
9129.495971257238
 22
1232.491050715796
 32
0.0
 13
9129.495971257238
 23
1232.491050715796
 33
0.0
  0
MTEXT
  5
629
330
623
100
AcDbEntity
  8
2上模
 62
   200
 48
0.6
370
    25
100
AcDbMText
 10
9521.995971257238
 20
1242.719622144368
 30
0.0
 40
15.0
 41
0.0
 46
0.0
 71
     5
 72
     1
  1
\A1;785 [30 7/8”]
 73
     1
 44
1.0
  0
POINT
  5
62A
330
623
100
AcDbEntity
  8
Defpoints
 62
     0
 48
0.6
100
AcDbPoint
 10
9914.495971257238
 20
1181.170623620104
 30
0.0
  0
POINT
  5
62B
330
623
100
AcDbEntity
  8
Defpoints
 62
     0
 48
0.6
100
AcDbPoint
 10
9129.495971257238
 20
1181.170623620104
 30
0.0
  0
POINT
  5
62C
330
623
100
AcDbEntity
  8
Defpoints
 62
     0
 48
0.6
100
AcDbPoint
 10
9129.495971257238
 20
1232.491050715796
 30
0.0
  0
ENDBLK
  5
62E
330
623
100
AcDbEntity
  8
0
100
AcDbBlockEnd
  0
BLOCK
  5
63E
330
63D
100
AcDbEntity
  8
0
100
AcDbBlockBegin
  2
*D74
 70
     1
 10
0.0
 20
0.0
 30
0.0
  3
*D74
  1

  0
LINE
  5
63F
330
63D
100
AcDbEntity
  8
2上模
 62
   104
 48
0.6
370
     9
100
AcDbLine
 10
981.3566983681475
 20
3137.112420808638
 30
0.0
 11
981.3566983681475
 21
3203.50753791962
 31
0.0
  0
LINE
  5
640
330
63D
100
AcDbEntity
  8
2上模
 62
   104
 48
0.6
370
     9
100
AcDbLine
 10
1689.356698368148
 20
3137.112420808638
 30
0.0
 11
1689.356698368148
 21
3203.50753791962
 31
0.0
  0
LINE
  5
641
330
63D
100
AcDbEntity
  8
2上模
 62
   104
 48
0.6
370
     9
100
AcDbLine
 10
991.3566983681475
 20
3202.257537919618
 30
0.0
 11
1679.356698368147
 21
3202.257537919618
 31
0.0
  0
SOLID
  5
642
330
63D
100
AcDbEntity
  8
2上模
 62
   104
 48
0.6
100
AcDbTrace
 10
991.3566983681475
 20
3203.924204586285
 30
0.0
 11
991.3566983681475
 21
3200.590871252952
 31
0.0
 12
981.3566983681475
 22
3202.257537919618
 32
0.0
 13
981.3566983681475
 23
3202.257537919618
 33
0.0
  0
SOLID
  5
643
330
63D
100
AcDbEntity
  8
2上模
 62
   104
 48
0.6
100
AcDbTrace
 10
1679.356698368147
 20
3203.924204586285
 30
0.0
 11
1679.356698368147
 21
3200.590871252952
 31
0.0
 12
1689.356698368148
 22
3202.257537919618
 32
0.0
 13
1689.356698368148
 23
3202.257537919618
 33
0.0
  0
MTEXT
  5
644
330
63D
100
AcDbEntity
  8
2上模
 62
   200
 48
0.6
370
    25
100
AcDbMText
 10
1335.356698368147
 20
3210.671140860795
 30
0.0
 40
15.0
 41
0.0
 46
0.0
 71
     5
 72
     1
  1
\A1;708 [27 7/8”]
 73
     1
 44
1.0
  0
POINT
  5
645
330
63D
100
AcDbEntity
  8
Defpoints
 62
     0
 48
0.6
100
AcDbPoint
 10
981.3566983681475
 20
3135.112420808638
 30
0.0
  0
POINT
  5
646
330
63D
100
AcDbEntity
  8
Defpoints
 62
     0
 48
0.6
100
AcDbPoint
 10
1689.356698368148
 20
3135.112420808638
 30
0.0
  0
POINT
  5
647
330
63D
100
AcDbEntity
  8
Defpoints
 62
     0
 48
0.6
100
AcDbPoint
 10
1689.356698368148
 20
3202.257537919618
 30
0.0
  0
ENDBLK
  5
648
330
63D
100
AcDbEntity
  8
0
100
AcDbBlockEnd
  0
BLOCK
  5
64A
330
649
100
AcDbEntity
  8
0
100
AcDbBlockBegin
  2
*D75
 70
     1
 10
0.0
 20
0.0
 30
0.0
  3
*D75
  1

  0
LINE
  5
64B
330
649
100
AcDbEntity
  8
2上模
 62
   104
 48
0.6
370
     9
100
AcDbLine
 10
1681.356698368147
 20
3145.112420808638
 30
0.0
 11
1748.801150734474
 21
3145.112420808638
 31
0.0
  0
LINE
  5
64C
330
649
100
AcDbEntity
  8
2上模
 62
   104
 48
0.6
370
     9
100
AcDbLine
 10
1681.356698368147
 20
2717.112420808624
 30
0.0
 11
1748.801150734474
 21
2717.112420808624
 31
0.0
  0
LINE
  5
64D
330
649
100
AcDbEntity
  8
2上模
 62
   104
 48
0.6
370
     9
100
AcDbLine
 10
1747.551150734474
 20
3135.112420808638
 30
0.0
 11
1747.551150734474
 21
2727.112420808623
 31
0.0
  0
SOLID
  5
64E
330
649
100
AcDbEntity
  8
2上模
 62
   104
 48
0.6
100
AcDbTrace
 10
1745.884484067807
 20
3135.112420808638
 30
0.0
 11
1749.21781740114
 21
3135.112420808638
 31
0.0
 12
1747.551150734474
 22
3145.112420808638
 32
0.0
 13
1747.551150734474
 23
3145.112420808638
 33
0.0
  0
SOLID
  5
64F
330
649
100
AcDbEntity
  8
2上模
 62
   104
 48
0.6
100
AcDbTrace
 10
1745.884484067807
 20
2727.112420808623
 30
0.0
 11
1749.21781740114
 21
2727.112420808623
 31
0.0
 12
1747.551150734474
 22
2717.112420808624
 32
0.0
 13
1747.551150734474
 23
2717.112420808624
 33
0.0
  0
MTEXT
  5
650
330
649
100
AcDbEntity
  8
2上模
 62
   200
 48
0.6
370
    25
100
AcDbMText
 10
1739.137547793296
 20
2931.112420808631
 30
0.0
 40
15.0
 41
0.0
 46
0.0
 71
     5
 72
     1
  1
\A1;428 [16 7/8”]
 11
0.0000000000000001
 21
1.0
 31
0.0
 73
     1
 44
1.0
  0
POINT
  5
651
330
649
100
AcDbEntity
  8
Defpoints
 62
     0
 48
0.6
100
AcDbPoint
 10
1679.356698368147
 20
3145.112420808638
 30
0.0
  0
POINT
  5
652
330
649
100
AcDbEntity
  8
Defpoints
 62
     0
 48
0.6
100
AcDbPoint
 10
1679.356698368147
 20
2717.112420808624
 30
0.0
  0
POINT
  5
653
330
649
100
AcDbEntity
  8
Defpoints
 62
     0
 48
0.6
100
AcDbPoint
 10
1747.551150734474
 20
2717.112420808624
 30
0.0
  0
ENDBLK
  5
654
330
649
100
AcDbEntity
  8
0
100
AcDbBlockEnd
  0
BLOCK
  5
656
330
655
100
AcDbEntity
  8
0
100
AcDbBlockBegin
  2
*D76
 70
     1
 10
0.0
 20
0.0
 30
0.0
  3
*D76
  1

  0
LINE
  5
657
330
655
100
AcDbEntity
  8
2上模
 62
   104
 48
0.6
370
     9
100
AcDbLine
 10
1118.996025975206
 20
2804.793015338087
 30
0.0
 11
991.3566983681674
 21
2727.112420808638
 31
0.0
  0
MTEXT
  5
658
330
655
100
AcDbEntity
  8
2上模
 62
   200
 48
0.6
370
    25
100
AcDbMText
 10
1055.073450035594
 20
2775.739347909218
 30
0.0
 40
15.0
 41
0.0
 46
0.0
 71
     5
 72
     1
  1
\A1;R10 [R3/8”]
 11
0.8542369250803243
 21
0.5198839061072312
 31
0.0
 73
     1
 44
1.0
  0
SOLID
  5
659
330
655
100
AcDbEntity
  8
2上模
 62
   104
 48
0.6
100
AcDbTrace
 10
990.490225191322
 20
2728.536149017106
 30
0.0
 11
992.2231715450129
 21
2725.688692600171
 31
0.0
 12
982.814329117364
 22
2721.913581747566
 32
0.0
 13
982.814329117364
 23
2721.913581747566
 33
0.0
  0
POINT
  5
65A
330
655
100
AcDbEntity
  8
Defpoints
 62
     0
 48
0.6
100
AcDbPoint
 10
982.814329117364
 20
2721.913581747566
 30
0.0
  0
POINT
  5
65B
330
655
100
AcDbEntity
  8
Defpoints
 62
     0
 48
0.6
100
AcDbPoint
 10
991.3566983681544
 20
2727.112420808631
 30
0.0
  0
ENDBLK
  5
65C
330
655
100
AcDbEntity
  8
0
100
AcDbBlockEnd
  0
BLOCK
  5
681
330
677
100
AcDbEntity
  8
0
100
AcDbBlockBegin
  2
*D78
 70
     1
 10
0.0
 20
0.0
 30
0.0
  3
*D78
  1

  0
LINE
  5
678
330
677
100
AcDbEntity
  8
2上模
 62
   104
 48
0.6
370
     9
100
AcDbLine
 10
8155.026177170155
 20
1203.657741125691
 30
0.0
 11
8155.026177170155
 21
1270.052858236671
 31
0.0
  0
LINE
  5
679
330
677
100
AcDbEntity
  8
2上模
 62
   104
 48
0.6
370
     9
100
AcDbLine
 10
8863.026177170155
 20
1203.657741125691
 30
0.0
 11
8863.026177170155
 21
1270.052858236671
 31
0.0
  0
LINE
  5
67A
330
677
100
AcDbEntity
  8
2上模
 62
   104
 48
0.6
370
     9
100
AcDbLine
 10
8165.026177170155
 20
1268.802858236671
 30
0.0
 11
8853.026177170155
 21
1268.802858236671
 31
0.0
  0
SOLID
  5
67B
330
677
100
AcDbEntity
  8
2上模
 62
   104
 48
0.6
100
AcDbTrace
 10
8165.026177170155
 20
1270.469524903338
 30
0.0
 11
8165.026177170155
 21
1267.136191570004
 31
0.0
 12
8155.026177170155
 22
1268.802858236671
 32
0.0
 13
8155.026177170155
 23
1268.802858236671
 33
0.0
  0
SOLID
  5
67C
330
677
100
AcDbEntity
  8
2上模
 62
   104
 48
0.6
100
AcDbTrace
 10
8853.026177170155
 20
1270.469524903338
 30
0.0
 11
8853.026177170155
 21
1267.136191570004
 31
0.0
 12
8863.026177170155
 22
1268.802858236671
 32
0.0
 13
8863.026177170155
 23
1268.802858236671
 33
0.0
  0
MTEXT
  5
67D
330
677
100
AcDbEntity
  8
2上模
 62
   200
 48
0.6
370
    25
100
AcDbMText
 10
8509.026177170154
 20
1279.031429665242
 30
0.0
 40
15.0
 41
0.0
 46
0.0
 71
     5
 72
     1
  1
\A1;708 [27 7/8”]
 73
     1
 44
1.0
  0
POINT
  5
67E
330
677
100
AcDbEntity
  8
Defpoints
 62
     0
 48
0.6
100
AcDbPoint
 10
8155.026177170155
 20
1201.657741125691
 30
0.0
  0
POINT
  5
67F
330
677
100
AcDbEntity
  8
Defpoints
 62
     0
 48
0.6
100
AcDbPoint
 10
8863.026177170155
 20
1201.657741125691
 30
0.0
  0
POINT
  5
680
330
677
100
AcDbEntity
  8
Defpoints
 62
     0
 48
0.6
100
AcDbPoint
 10
8863.026177170155
 20
1268.802858236671
 30
0.0
  0
ENDBLK
  5
682
330
677
100
AcDbEntity
  8
0
100
AcDbBlockEnd
  0
BLOCK
  5
68D
330
683
100
AcDbEntity
  8
0
100
AcDbBlockBegin
  2
*D79
 70
     1
 10
0.0
 20
0.0
 30
0.0
  3
*D79
  1

  0
LINE
  5
684
330
683
100
AcDbEntity
  8
2上模
 62
   104
 48
0.6
370
     9
100
AcDbLine
 10
8855.026177170154
 20
1211.657741125691
 30
0.0
 11
8922.470629536482
 21
1211.657741125691
 31
0.0
  0
LINE
  5
685
330
683
100
AcDbEntity
  8
2上模
 62
   104
 48
0.6
370
     9
100
AcDbLine
 10
8855.026177170154
 20
783.6577411256772
 30
0.0
 11
8922.470629536482
 21
783.6577411256772
 31
0.0
  0
LINE
  5
686
330
683
100
AcDbEntity
  8
2上模
 62
   104
 48
0.6
370
     9
100
AcDbLine
 10
8921.220629536481
 20
1201.657741125691
 30
0.0
 11
8921.220629536481
 21
793.6577411256772
 31
0.0
  0
SOLID
  5
687
330
683
100
AcDbEntity
  8
2上模
 62
   104
 48
0.6
100
AcDbTrace
 10
8919.553962869816
 20
1201.657741125691
 30
0.0
 11
8922.887296203148
 21
1201.657741125691
 31
0.0
 12
8921.220629536481
 22
1211.657741125691
 32
0.0
 13
8921.220629536481
 23
1211.657741125691
 33
0.0
  0
SOLID
  5
688
330
683
100
AcDbEntity
  8
2上模
 62
   104
 48
0.6
100
AcDbTrace
 10
8919.553962869816
 20
793.6577411256772
 30
0.0
 11
8922.887296203148
 21
793.6577411256772
 31
0.0
 12
8921.220629536481
 22
783.6577411256772
 32
0.0
 13
8921.220629536481
 23
783.6577411256772
 33
0.0
  0
MTEXT
  5
689
330
683
100
AcDbEntity
  8
2上模
 62
   200
 48
0.6
370
    25
100
AcDbMText
 10
8910.992058107909
 20
997.6577411256855
 30
0.0
 40
15.0
 41
0.0
 46
0.0
 71
     5
 72
     1
  1
\A1;428 [16 7/8”]
 11
0.0000000000000001
 21
1.0
 31
0.0
 73
     1
 44
1.0
  0
POINT
  5
68A
330
683
100
AcDbEntity
  8
Defpoints
 62
     0
 48
0.6
100
AcDbPoint
 10
8853.026177170153
 20
1211.657741125691
 30
0.0
  0
POINT
  5
68B
330
683
100
AcDbEntity
  8
Defpoints
 62
     0
 48
0.6
100
AcDbPoint
 10
8853.026177170153
 20
783.6577411256772
 30
0.0
  0
POINT
  5
68C
330
683
100
AcDbEntity
  8
Defpoints
 62
     0
 48
0.6
100
AcDbPoint
 10
8921.220629536481
 20
783.6577411256772
 30
0.0
  0
ENDBLK
  5
68E
330
683
100
AcDbEntity
  8
0
100
AcDbBlockEnd
  0
BLOCK
  5
695
330
68F
100
AcDbEntity
  8
0
100
AcDbBlockBegin
  2
*D80
 70
     1
 10
0.0
 20
0.0
 30
0.0
  3
*D80
  1

  0
LINE
  5
697
330
68F
100
AcDbEntity
  8
2上模
 62
   104
 48
0.6
370
     9
100
AcDbLine
 10
8287.617341419217
 20
868.2660511305995
 30
0.0
 11
8165.026177170174
 21
793.6577411256912
 31
0.0
  0
MTEXT
  5
698
330
68F
100
AcDbEntity
  8
2上模
 62
   200
 48
0.6
370
    25
100
AcDbMText
 10
8227.79935593091
 20
843.8350813260626
 30
0.0
 40
15.0
 41
0.0
 46
0.0
 71
     5
 72
     1
  1
\A1;R10 [R3/8”]
 11
0.8542369250803025
 21
0.5198839061072669
 31
0.0
 73
     1
 44
1.0
  0
SOLID
  5
699
330
68F
100
AcDbEntity
  8
2上模
 62
   104
 48
0.6
100
AcDbTrace
 10
8164.159703993327
 20
795.081469334158
 30
0.0
 11
8165.89265034702
 21
792.2340129172243
 31
0.0
 12
8156.48380791937
 22
788.4589020646185
 32
0.0
 13
8156.48380791937
 23
788.4589020646185
 33
0.0
  0
POINT
  5
69A
330
68F
100
AcDbEntity
  8
Defpoints
 62
     0
 48
0.6
100
AcDbPoint
 10
8156.48380791937
 20
788.4589020646185
 30
0.0
  0
POINT
  5
69B
330
68F
100
AcDbEntity
  8
Defpoints
 62
     0
 48
0.6
100
AcDbPoint
 10
8165.026177170162
 20
793.6577411256844
 30
0.0
  0
ENDBLK
  5
696
330
68F
100
AcDbEntity
  8
0
100
AcDbBlockEnd
  0
BLOCK
  5
69D
330
69C
100
AcDbEntity
  8
0
100
AcDbBlockBegin
  2
*D81
 70
     1
 10
0.0
 20
0.0
 30
0.0
  3
*D81
  1

  0
LINE
  5
69E
330
69C
100
AcDbEntity
  8
2上模
 62
   104
 48
0.6
370
     9
100
AcDbLine
 10
2163.707610536275
 20
3118.977411558369
 30
0.0
 11
2163.707610536275
 21
3177.004986092097
 31
0.0
  0
LINE
  5
69F
330
69C
100
AcDbEntity
  8
2上模
 62
   104
 48
0.6
370
     9
100
AcDbLine
 10
2490.707610536159
 20
3118.977411558369
 30
0.0
 11
2490.707610536159
 21
3177.004986092097
 31
0.0
  0
LINE
  5
6A0
330
69C
100
AcDbEntity
  8
2上模
 62
   104
 48
0.6
370
     9
100
AcDbLine
 10
2173.707610536275
 20
3175.754986092097
 30
0.0
 11
2480.707610536159
 21
3175.754986092097
 31
0.0
  0
SOLID
  5
6A1
330
69C
100
AcDbEntity
  8
2上模
 62
   104
 48
0.6
100
AcDbTrace
 10
2173.707610536275
 20
3177.421652758763
 30
0.0
 11
2173.707610536275
 21
3174.08831942543
 31
0.0
 12
2163.707610536275
 22
3175.754986092097
 32
0.0
 13
2163.707610536275
 23
3175.754986092097
 33
0.0
  0
SOLID
  5
6A2
330
69C
100
AcDbEntity
  8
2上模
 62
   104
 48
0.6
100
AcDbTrace
 10
2480.707610536159
 20
3177.421652758763
 30
0.0
 11
2480.707610536159
 21
3174.08831942543
 31
0.0
 12
2490.707610536159
 22
3175.754986092097
 32
0.0
 13
2490.707610536159
 23
3175.754986092097
 33
0.0
  0
MTEXT
  5
6A3
330
69C
100
AcDbEntity
  8
2上模
 62
   200
 48
0.6
370
    25
100
AcDbMText
 10
2327.207610536217
 20
3184.168589033273
 30
0.0
 40
15.0
 41
0.0
 46
0.0
 71
     5
 72
     1
  1
\A1;327 [12 7/8”]
 73
     1
 44
1.0
  0
POINT
  5
6A4
330
69C
100
AcDbEntity
  8
Defpoints
 62
     0
 48
0.6
100
AcDbPoint
 10
2163.707610536275
 20
3116.977411558369
 30
0.0
  0
POINT
  5
6A5
330
69C
100
AcDbEntity
  8
Defpoints
 62
     0
 48
0.6
100
AcDbPoint
 10
2490.707610536159
 20
3116.977411558369
 30
0.0
  0
POINT
  5
6A6
330
69C
100
AcDbEntity
  8
Defpoints
 62
     0
 48
0.6
100
AcDbPoint
 10
2490.707610536159
 20
3175.754986092097
 30
0.0
  0
ENDBLK
  5
6A7
330
69C
100
AcDbEntity
  8
0
100
AcDbBlockEnd
  0
BLOCK
  5
6A9
330
6A8
100
AcDbEntity
  8
0
100
AcDbBlockBegin
  2
*D82
 70
     1
 10
0.0
 20
0.0
 30
0.0
  3
*D82
  1

  0
LINE
  5
6AA
330
6A8
100
AcDbEntity
  8
2上模
 62
   104
 48
0.6
370
     9
100
AcDbLine
 10
2482.707610536158
 20
3126.977411558384
 30
0.0
 11
2561.971570940655
 21
3126.977411558384
 31
0.0
  0
LINE
  5
6AB
330
6A8
100
AcDbEntity
  8
2上模
 62
   104
 48
0.6
370
     9
100
AcDbLine
 10
2482.707610536158
 20
2723.977411558384
 30
0.0
 11
2561.971570940654
 21
2723.977411558384
 31
0.0
  0
LINE
  5
6AC
330
6A8
100
AcDbEntity
  8
2上模
 62
   104
 48
0.6
370
     9
100
AcDbLine
 10
2560.721570940655
 20
3116.977411558384
 30
0.0
 11
2560.721570940655
 21
2733.977411558385
 31
0.0
  0
SOLID
  5
6AD
330
6A8
100
AcDbEntity
  8
2上模
 62
   104
 48
0.6
100
AcDbTrace
 10
2559.054904273989
 20
3116.977411558384
 30
0.0
 11
2562.388237607323
 21
3116.977411558384
 31
0.0
 12
2560.721570940655
 22
3126.977411558384
 32
0.0
 13
2560.721570940655
 23
3126.977411558384
 33
0.0
  0
SOLID
  5
6AE
330
6A8
100
AcDbEntity
  8
2上模
 62
   104
 48
0.6
100
AcDbTrace
 10
2559.054904273988
 20
2733.977411558385
 30
0.0
 11
2562.388237607321
 21
2733.977411558385
 31
0.0
 12
2560.721570940655
 22
2723.977411558384
 32
0.0
 13
2560.721570940655
 23
2723.977411558384
 33
0.0
  0
MTEXT
  5
6AF
330
6A8
100
AcDbEntity
  8
2上模
 62
   200
 48
0.6
370
    25
100
AcDbMText
 10
2552.307967999478
 20
2925.477411558384
 30
0.0
 40
15.0
 41
0.0
 46
0.0
 71
     5
 72
     1
  1
\A1;403 [15 7/8”]
 11
0.0000000000000001
 21
1.0
 31
0.0
 73
     1
 44
1.0
  0
POINT
  5
6B0
330
6A8
100
AcDbEntity
  8
Defpoints
 62
     0
 48
0.6
100
AcDbPoint
 10
2480.707610536159
 20
3126.977411558384
 30
0.0
  0
POINT
  5
6B1
330
6A8
100
AcDbEntity
  8
Defpoints
 62
     0
 48
0.6
100
AcDbPoint
 10
2480.707610536159
 20
2723.977411558384
 30
0.0
  0
POINT
  5
6B2
330
6A8
100
AcDbEntity
  8
Defpoints
 62
     0
 48
0.6
100
AcDbPoint
 10
2560.721570940655
 20
2723.977411558384
 30
0.0
  0
ENDBLK
  5
6B3
330
6A8
100
AcDbEntity
  8
0
100
AcDbBlockEnd
  0
BLOCK
  5
6B5
330
6B4
100
AcDbEntity
  8
0
100
AcDbBlockBegin
  2
*D83
 70
     1
 10
0.0
 20
0.0
 30
0.0
  3
*D83
  1

  0
LINE
  5
6B6
330
6B4
100
AcDbEntity
  8
2上模
 62
   104
 48
0.6
370
     9
100
AcDbLine
 10
2300.197474489047
 20
2813.515999901532
 30
0.0
 11
2173.707610536236
 21
2733.977411558357
 31
0.0
  0
MTEXT
  5
6B7
330
6B4
100
AcDbEntity
  8
2上模
 62
   200
 48
0.6
370
    25
100
AcDbMText
 10
2236.706544666879
 20
2783.530784609005
 30
0.0
 40
15.0
 41
0.0
 46
0.0
 71
     5
 72
     1
  1
\A1;R10 [R3/8”]
 11
0.8465440429891353
 21
0.5323186858260839
 31
0.0
 73
     1
 44
1.0
  0
SOLID
  5
6B8
330
6B4
100
AcDbEntity
  8
2上模
 62
   104
 48
0.6
100
AcDbTrace
 10
2172.820412726526
 20
2735.388318296673
 30
0.0
 11
2174.594808345947
 21
2732.566504820042
 31
0.0
 12
2165.242170106346
 22
2728.654224700096
 32
0.0
 13
2165.242170106346
 23
2728.654224700096
 33
0.0
  0
POINT
  5
6B9
330
6B4
100
AcDbEntity
  8
Defpoints
 62
     0
 48
0.6
100
AcDbPoint
 10
2165.242170106346
 20
2728.654224700096
 30
0.0
  0
POINT
  5
6BA
330
6B4
100
AcDbEntity
  8
Defpoints
 62
     0
 48
0.6
100
AcDbPoint
 10
2173.707610536268
 20
2733.977411558377
 30
0.0
  0
ENDBLK
  5
6BB
330
6B4
100
AcDbEntity
  8
0
100
AcDbBlockEnd
  0
BLOCK
  5
6E0
330
6D6
100
AcDbEntity
  8
0
100
AcDbBlockBegin
  2
*D85
 70
     1
 10
0.0
 20
0.0
 30
0.0
  3
*D85
  1

  0
LINE
  5
6D7
330
6D6
100
AcDbEntity
  8
2上模
 62
   104
 48
0.6
370
     9
100
AcDbLine
 10
9146.611623778307
 20
1242.909080241246
 30
0.0
 11
9146.611623778307
 21
1300.936654774974
 31
0.0
  0
LINE
  5
6D8
330
6D6
100
AcDbEntity
  8
2上模
 62
   104
 48
0.6
370
     9
100
AcDbLine
 10
9473.611623778189
 20
1242.909080241246
 30
0.0
 11
9473.611623778189
 21
1300.936654774974
 31
0.0
  0
LINE
  5
6D9
330
6D6
100
AcDbEntity
  8
2上模
 62
   104
 48
0.6
370
     9
100
AcDbLine
 10
9156.611623778307
 20
1299.686654774974
 30
0.0
 11
9463.61162377819
 21
1299.686654774974
 31
0.0
  0
SOLID
  5
6DA
330
6D6
100
AcDbEntity
  8
2上模
 62
   104
 48
0.6
100
AcDbTrace
 10
9156.611623778307
 20
1301.353321441641
 30
0.0
 11
9156.611623778307
 21
1298.019988108308
 31
0.0
 12
9146.611623778307
 22
1299.686654774974
 32
0.0
 13
9146.611623778307
 23
1299.686654774974
 33
0.0
  0
SOLID
  5
6DB
330
6D6
100
AcDbEntity
  8
2上模
 62
   104
 48
0.6
100
AcDbTrace
 10
9463.61162377819
 20
1301.353321441641
 30
0.0
 11
9463.61162377819
 21
1298.019988108308
 31
0.0
 12
9473.611623778189
 22
1299.686654774974
 32
0.0
 13
9473.611623778189
 23
1299.686654774974
 33
0.0
  0
MTEXT
  5
6DC
330
6D6
100
AcDbEntity
  8
2上模
 62
   200
 48
0.6
370
    25
100
AcDbMText
 10
9310.111623778247
 20
1309.915226203546
 30
0.0
 40
15.0
 41
0.0
 46
0.0
 71
     5
 72
     1
  1
\A1;327 [12 7/8”]
 73
     1
 44
1.0
  0
POINT
  5
6DD
330
6D6
100
AcDbEntity
  8
Defpoints
 62
     0
 48
0.6
100
AcDbPoint
 10
9146.611623778307
 20
1240.909080241246
 30
0.0
  0
POINT
  5
6DE
330
6D6
100
AcDbEntity
  8
Defpoints
 62
     0
 48
0.6
100
AcDbPoint
 10
9473.611623778189
 20
1240.909080241246
 30
0.0
  0
POINT
  5
6DF
330
6D6
100
AcDbEntity
  8
Defpoints
 62
     0
 48
0.6
100
AcDbPoint
 10
9473.611623778189
 20
1299.686654774974
 30
0.0
  0
ENDBLK
  5
6E1
330
6D6
100
AcDbEntity
  8
0
100
AcDbBlockEnd
  0
BLOCK
  5
6EC
330
6E2
100
AcDbEntity
  8
0
100
AcDbBlockBegin
  2
*D86
 70
     1
 10
0.0
 20
0.0
 30
0.0
  3
*D86
  1

  0
LINE
  5
6E3
330
6E2
100
AcDbEntity
  8
2上模
 62
   104
 48
0.6
370
     9
100
AcDbLine
 10
9465.61162377819
 20
1250.909080241261
 30
0.0
 11
9544.875584182687
 21
1250.909080241261
 31
0.0
  0
LINE
  5
6E4
330
6E2
100
AcDbEntity
  8
2上模
 62
   104
 48
0.6
370
     9
100
AcDbLine
 10
9465.61162377819
 20
847.9090802412613
 30
0.0
 11
9544.875584182687
 21
847.9090802412612
 31
0.0
  0
LINE
  5
6E5
330
6E2
100
AcDbEntity
  8
2上模
 62
   104
 48
0.6
370
     9
100
AcDbLine
 10
9543.625584182686
 20
1240.909080241261
 30
0.0
 11
9543.625584182686
 21
857.9090802412611
 31
0.0
  0
SOLID
  5
6E6
330
6E2
100
AcDbEntity
  8
2上模
 62
   104
 48
0.6
100
AcDbTrace
 10
9541.958917516019
 20
1240.909080241261
 30
0.0
 11
9545.292250849353
 21
1240.909080241261
 31
0.0
 12
9543.625584182686
 22
1250.909080241261
 32
0.0
 13
9543.625584182686
 23
1250.909080241261
 33
0.0
  0
SOLID
  5
6E7
330
6E2
100
AcDbEntity
  8
2上模
 62
   104
 48
0.6
100
AcDbTrace
 10
9541.958917516019
 20
857.9090802412611
 30
0.0
 11
9545.292250849353
 21
857.9090802412611
 31
0.0
 12
9543.625584182686
 22
847.9090802412612
 32
0.0
 13
9543.625584182686
 23
847.9090802412612
 33
0.0
  0
MTEXT
  5
6E8
330
6E2
100
AcDbEntity
  8
2上模
 62
   200
 48
0.6
370
    25
100
AcDbMText
 10
9533.397012754114
 20
1049.409080241262
 30
0.0
 40
15.0
 41
0.0
 46
0.0
 71
     5
 72
     1
  1
\A1;403 [15 7/8”]
 11
0.0000000000000001
 21
1.0
 31
0.0
 73
     1
 44
1.0
  0
POINT
  5
6E9
330
6E2
100
AcDbEntity
  8
Defpoints
 62
     0
 48
0.6
100
AcDbPoint
 10
9463.61162377819
 20
1250.909080241261
 30
0.0
  0
POINT
  5
6EA
330
6E2
100
AcDbEntity
  8
Defpoints
 62
     0
 48
0.6
100
AcDbPoint
 10
9463.61162377819
 20
847.9090802412613
 30
0.0
  0
POINT
  5
6EB
330
6E2
100
AcDbEntity
  8
Defpoints
 62
     0
 48
0.6
100
AcDbPoint
 10
9543.625584182686
 20
847.9090802412612
 30
0.0
  0
ENDBLK
  5
6ED
330
6E2
100
AcDbEntity
  8
0
100
AcDbBlockEnd
  0
BLOCK
  5
6F4
330
6EE
100
AcDbEntity
  8
0
100
AcDbBlockBegin
  2
*D87
 70
     1
 10
0.0
 20
0.0
 30
0.0
  3
*D87
  1

  0
LINE
  5
6F6
330
6EE
100
AcDbEntity
  8
2上模
 62
   104
 48
0.6
370
     9
100
AcDbLine
 10
9278.098785912312
 20
934.3018999976738
 30
0.0
 11
9156.611623778266
 21
857.9090802412347
 31
0.0
  0
MTEXT
  5
6F7
330
6EE
100
AcDbEntity
  8
2上模
 62
   200
 48
0.6
370
    25
100
AcDbMText
 10
9218.644416268874
 20
908.9989040531072
 30
0.0
 40
15.0
 41
0.0
 46
0.0
 71
     5
 72
     1
  1
\A1;R10 [R3/8”]
 11
0.8465440429890611
 21
0.5323186858262018
 31
0.0
 73
     1
 44
1.0
  0
SOLID
  5
6F8
330
6EE
100
AcDbEntity
  8
2上模
 62
   104
 48
0.6
100
AcDbTrace
 10
9155.724425968557
 20
859.3199869795503
 30
0.0
 11
9157.498821587978
 21
856.4981735029196
 31
0.0
 12
9148.146183348378
 22
852.5858933829722
 32
0.0
 13
9148.146183348378
 23
852.5858933829722
 33
0.0
  0
POINT
  5
6F9
330
6EE
100
AcDbEntity
  8
Defpoints
 62
     0
 48
0.6
100
AcDbPoint
 10
9148.146183348378
 20
852.5858933829722
 30
0.0
  0
POINT
  5
6FA
330
6EE
100
AcDbEntity
  8
Defpoints
 62
     0
 48
0.6
100
AcDbPoint
 10
9156.611623778299
 20
857.9090802412538
 30
0.0
  0
ENDBLK
  5
6F5
330
6EE
100
AcDbEntity
  8
0
100
AcDbBlockEnd
  0
BLOCK
  5
6FC
330
6FB
100
AcDbEntity
  8
0
100
AcDbBlockBegin
  2
*D88
 70
     1
 10
0.0
 20
0.0
 30
0.0
  3
*D88
  1

  0
LINE
  5
6FD
330
6FB
100
AcDbEntity
  8
2上模
 62
   104
 48
0.6
370
     9
100
AcDbLine
 10
2912.288009259059
 20
3137.112420808638
 30
0.0
 11
2912.288009259059
 21
3203.50753791962
 31
0.0
  0
LINE
  5
6FE
330
6FB
100
AcDbEntity
  8
2上模
 62
   104
 48
0.6
370
     9
100
AcDbLine
 10
3620.28800925906
 20
3137.112420808638
 30
0.0
 11
3620.28800925906
 21
3203.50753791962
 31
0.0
  0
LINE
  5
6FF
330
6FB
100
AcDbEntity
  8
2上模
 62
   104
 48
0.6
370
     9
100
AcDbLine
 10
2922.28800925906
 20
3202.257537919618
 30
0.0
 11
3610.28800925906
 21
3202.257537919618
 31
0.0
  0
SOLID
  5
700
330
6FB
100
AcDbEntity
  8
2上模
 62
   104
 48
0.6
100
AcDbTrace
 10
2922.28800925906
 20
3203.924204586285
 30
0.0
 11
2922.28800925906
 21
3200.590871252952
 31
0.0
 12
2912.288009259059
 22
3202.257537919618
 32
0.0
 13
2912.288009259059
 23
3202.257537919618
 33
0.0
  0
SOLID
  5
701
330
6FB
100
AcDbEntity
  8
2上模
 62
   104
 48
0.6
100
AcDbTrace
 10
3610.28800925906
 20
3203.924204586285
 30
0.0
 11
3610.28800925906
 21
3200.590871252952
 31
0.0
 12
3620.28800925906
 22
3202.257537919618
 32
0.0
 13
3620.28800925906
 23
3202.257537919618
 33
0.0
  0
MTEXT
  5
702
330
6FB
100
AcDbEntity
  8
2上模
 62
   200
 48
0.6
370
    25
100
AcDbMText
 10
3266.28800925906
 20
3210.671140860795
 30
0.0
 40
15.0
 41
0.0
 46
0.0
 71
     5
 72
     1
  1
\A1;708 [27 7/8”]
 73
     1
 44
1.0
  0
POINT
  5
703
330
6FB
100
AcDbEntity
  8
Defpoints
 62
     0
 48
0.6
100
AcDbPoint
 10
2912.288009259059
 20
3135.112420808638
 30
0.0
  0
POINT
  5
704
330
6FB
100
AcDbEntity
  8
Defpoints
 62
     0
 48
0.6
100
AcDbPoint
 10
3620.28800925906
 20
3135.112420808638
 30
0.0
  0
POINT
  5
705
330
6FB
100
AcDbEntity
  8
Defpoints
 62
     0
 48
0.6
100
AcDbPoint
 10
3620.28800925906
 20
3202.257537919618
 30
0.0
  0
ENDBLK
  5
706
330
6FB
100
AcDbEntity
  8
0
100
AcDbBlockEnd
  0
BLOCK
  5
708
330
707
100
AcDbEntity
  8
0
100
AcDbBlockBegin
  2
*D89
 70
     1
 10
0.0
 20
0.0
 30
0.0
  3
*D89
  1

  0
LINE
  5
709
330
707
100
AcDbEntity
  8
2上模
 62
   104
 48
0.6
370
     9
100
AcDbLine
 10
3612.288009259147
 20
3145.112420808638
 30
0.0
 11
3679.732461625473
 21
3145.112420808638
 31
0.0
  0
LINE
  5
70A
330
707
100
AcDbEntity
  8
2上模
 62
   104
 48
0.6
370
     9
100
AcDbLine
 10
3612.288009259147
 20
2717.112420808624
 30
0.0
 11
3679.732461625473
 21
2717.112420808624
 31
0.0
  0
LINE
  5
70B
330
707
100
AcDbEntity
  8
2上模
 62
   104
 48
0.6
370
     9
100
AcDbLine
 10
3678.482461625473
 20
3135.112420808638
 30
0.0
 11
3678.482461625473
 21
2727.112420808623
 31
0.0
  0
SOLID
  5
70C
330
707
100
AcDbEntity
  8
2上模
 62
   104
 48
0.6
100
AcDbTrace
 10
3676.815794958807
 20
3135.112420808638
 30
0.0
 11
3680.14912829214
 21
3135.112420808638
 31
0.0
 12
3678.482461625473
 22
3145.112420808638
 32
0.0
 13
3678.482461625473
 23
3145.112420808638
 33
0.0
  0
SOLID
  5
70D
330
707
100
AcDbEntity
  8
2上模
 62
   104
 48
0.6
100
AcDbTrace
 10
3676.815794958807
 20
2727.112420808623
 30
0.0
 11
3680.14912829214
 21
2727.112420808623
 31
0.0
 12
3678.482461625473
 22
2717.112420808624
 32
0.0
 13
3678.482461625473
 23
2717.112420808624
 33
0.0
  0
MTEXT
  5
70E
330
707
100
AcDbEntity
  8
2上模
 62
   200
 48
0.6
370
    25
100
AcDbMText
 10
3670.068858684297
 20
2931.112420808632
 30
0.0
 40
15.0
 41
0.0
 46
0.0
 71
     5
 72
     1
  1
\A1;428 [16 7/8”]
 11
0.0000000000000001
 21
1.0
 31
0.0
 73
     1
 44
1.0
  0
POINT
  5
70F
330
707
100
AcDbEntity
  8
Defpoints
 62
     0
 48
0.6
100
AcDbPoint
 10
3610.288009259147
 20
3145.112420808638
 30
0.0
  0
POINT
  5
710
330
707
100
AcDbEntity
  8
Defpoints
 62
     0
 48
0.6
100
AcDbPoint
 10
3610.288009259147
 20
2717.112420808624
 30
0.0
  0
POINT
  5
711
330
707
100
AcDbEntity
  8
Defpoints
 62
     0
 48
0.6
100
AcDbPoint
 10
3678.482461625473
 20
2717.112420808624
 30
0.0
  0
ENDBLK
  5
712
330
707
100
AcDbEntity
  8
0
100
AcDbBlockEnd
  0
BLOCK
  5
714
330
713
100
AcDbEntity
  8
0
100
AcDbBlockBegin
  2
*D90
 70
     1
 10
0.0
 20
0.0
 30
0.0
  3
*D90
  1

  0
LINE
  5
715
330
713
100
AcDbEntity
  8
2上模
 62
   104
 48
0.6
370
     9
100
AcDbLine
 10
3049.927336865778
 20
2804.793015338955
 30
0.0
 11
2922.288009259208
 21
2727.112420808734
 31
0.0
  0
MTEXT
  5
716
330
713
100
AcDbEntity
  8
2上模
 62
   200
 48
0.6
370
    25
100
AcDbMText
 10
2986.004760926342
 20
2775.739347909698
 30
0.0
 40
15.0
 41
0.0
 46
0.0
 71
     5
 72
     1
  1
\A1;R10 [R3/8”]
 11
0.8542369250771795
 21
0.5198839061123988
 31
0.0
 73
     1
 44
1.0
  0
SOLID
  5
717
330
713
100
AcDbEntity
  8
2上模
 62
   104
 48
0.6
100
AcDbTrace
 10
2921.421536082354
 20
2728.536149017196
 30
0.0
 11
2923.154482436063
 21
2725.688692600272
 31
0.0
 12
2913.745640008437
 22
2721.913581747611
 32
0.0
 13
2913.745640008437
 23
2721.913581747611
 33
0.0
  0
POINT
  5
718
330
713
100
AcDbEntity
  8
Defpoints
 62
     0
 48
0.6
100
AcDbPoint
 10
2913.745640008437
 20
2721.913581747611
 30
0.0
  0
POINT
  5
719
330
713
100
AcDbEntity
  8
Defpoints
 62
     0
 48
0.6
100
AcDbPoint
 10
2922.288009259111
 20
2727.112420808675
 30
0.0
  0
ENDBLK
  5
71A
330
713
100
AcDbEntity
  8
0
100
AcDbBlockEnd
  0
BLOCK
  5
73F
330
735
100
AcDbEntity
  8
0
100
AcDbBlockBegin
  2
*D92
 70
     1
 10
0.0
 20
0.0
 30
0.0
  3
*D92
  1

  0
LINE
  5
736
330
735
100
AcDbEntity
  8
2上模
 62
   104
 48
0.6
370
     9
100
AcDbLine
 10
8201.051931734438
 20
1248.671510805745
 30
0.0
 11
8201.051931734438
 21
1315.066627916725
 31
0.0
  0
LINE
  5
737
330
735
100
AcDbEntity
  8
2上模
 62
   104
 48
0.6
370
     9
100
AcDbLine
 10
8909.05193173444
 20
1248.671510805745
 30
0.0
 11
8909.05193173444
 21
1315.066627916725
 31
0.0
  0
LINE
  5
738
330
735
100
AcDbEntity
  8
2上模
 62
   104
 48
0.6
370
     9
100
AcDbLine
 10
8211.051931734438
 20
1313.816627916725
 30
0.0
 11
8899.05193173444
 21
1313.816627916725
 31
0.0
  0
SOLID
  5
739
330
735
100
AcDbEntity
  8
2上模
 62
   104
 48
0.6
100
AcDbTrace
 10
8211.051931734438
 20
1315.483294583392
 30
0.0
 11
8211.051931734438
 21
1312.149961250058
 31
0.0
 12
8201.051931734438
 22
1313.816627916725
 32
0.0
 13
8201.051931734438
 23
1313.816627916725
 33
0.0
  0
SOLID
  5
73A
330
735
100
AcDbEntity
  8
2上模
 62
   104
 48
0.6
100
AcDbTrace
 10
8899.05193173444
 20
1315.483294583392
 30
0.0
 11
8899.05193173444
 21
1312.149961250058
 31
0.0
 12
8909.05193173444
 22
1313.816627916725
 32
0.0
 13
8909.05193173444
 23
1313.816627916725
 33
0.0
  0
MTEXT
  5
73B
330
735
100
AcDbEntity
  8
2上模
 62
   200
 48
0.6
370
    25
100
AcDbMText
 10
8555.051931734441
 20
1324.045199345297
 30
0.0
 40
15.0
 41
0.0
 46
0.0
 71
     5
 72
     1
  1
\A1;708 [27 7/8”]
 73
     1
 44
1.0
  0
POINT
  5
73C
330
735
100
AcDbEntity
  8
Defpoints
 62
     0
 48
0.6
100
AcDbPoint
 10
8201.051931734438
 20
1246.671510805745
 30
0.0
  0
POINT
  5
73D
330
735
100
AcDbEntity
  8
Defpoints
 62
     0
 48
0.6
100
AcDbPoint
 10
8909.05193173444
 20
1246.671510805745
 30
0.0
  0
POINT
  5
73E
330
735
100
AcDbEntity
  8
Defpoints
 62
     0
 48
0.6
100
AcDbPoint
 10
8909.05193173444
 20
1313.816627916725
 30
0.0
  0
ENDBLK
  5
740
330
735
100
AcDbEntity
  8
0
100
AcDbBlockEnd
  0
BLOCK
  5
74B
330
741
100
AcDbEntity
  8
0
100
AcDbBlockBegin
  2
*D93
 70
     1
 10
0.0
 20
0.0
 30
0.0
  3
*D93
  1

  0
LINE
  5
742
330
741
100
AcDbEntity
  8
2上模
 62
   104
 48
0.6
370
     9
100
AcDbLine
 10
8901.051931734528
 20
1256.671510805745
 30
0.0
 11
8968.496384100854
 21
1256.671510805745
 31
0.0
  0
LINE
  5
743
330
741
100
AcDbEntity
  8
2上模
 62
   104
 48
0.6
370
     9
100
AcDbLine
 10
8901.051931734528
 20
828.6715108057316
 30
0.0
 11
8968.496384100854
 21
828.6715108057315
 31
0.0
  0
LINE
  5
744
330
741
100
AcDbEntity
  8
2上模
 62
   104
 48
0.6
370
     9
100
AcDbLine
 10
8967.246384100853
 20
1246.671510805745
 30
0.0
 11
8967.246384100853
 21
838.6715108057314
 31
0.0
  0
SOLID
  5
745
330
741
100
AcDbEntity
  8
2上模
 62
   104
 48
0.6
100
AcDbTrace
 10
8965.579717434188
 20
1246.671510805745
 30
0.0
 11
8968.91305076752
 21
1246.671510805745
 31
0.0
 12
8967.246384100853
 22
1256.671510805745
 32
0.0
 13
8967.246384100853
 23
1256.671510805745
 33
0.0
  0
SOLID
  5
746
330
741
100
AcDbEntity
  8
2上模
 62
   104
 48
0.6
100
AcDbTrace
 10
8965.579717434188
 20
838.6715108057314
 30
0.0
 11
8968.91305076752
 21
838.6715108057314
 31
0.0
 12
8967.246384100853
 22
828.6715108057315
 32
0.0
 13
8967.246384100853
 23
828.6715108057315
 33
0.0
  0
MTEXT
  5
747
330
741
100
AcDbEntity
  8
2上模
 62
   200
 48
0.6
370
    25
100
AcDbMText
 10
8957.017812672281
 20
1042.67151080574
 30
0.0
 40
15.0
 41
0.0
 46
0.0
 71
     5
 72
     1
  1
\A1;428 [16 7/8”]
 11
0.0000000000000001
 21
1.0
 31
0.0
 73
     1
 44
1.0
  0
POINT
  5
748
330
741
100
AcDbEntity
  8
Defpoints
 62
     0
 48
0.6
100
AcDbPoint
 10
8899.051931734527
 20
1256.671510805745
 30
0.0
  0
POINT
  5
749
330
741
100
AcDbEntity
  8
Defpoints
 62
     0
 48
0.6
100
AcDbPoint
 10
8899.051931734527
 20
828.6715108057316
 30
0.0
  0
POINT
  5
74A
330
741
100
AcDbEntity
  8
Defpoints
 62
     0
 48
0.6
100
AcDbPoint
 10
8967.246384100853
 20
828.6715108057315
 30
0.0
  0
ENDBLK
  5
74C
330
741
100
AcDbEntity
  8
0
100
AcDbBlockEnd
  0
BLOCK
  5
753
330
74D
100
AcDbEntity
  8
0
100
AcDbBlockBegin
  2
*D94
 70
     1
 10
0.0
 20
0.0
 30
0.0
  3
*D94
  1

  0
LINE
  5
755
330
74D
100
AcDbEntity
  8
2上模
 62
   104
 48
0.6
370
     9
100
AcDbLine
 10
8333.643095983186
 20
913.2798208114886
 30
0.0
 11
8211.051931734591
 21
838.6715108058419
 31
0.0
  0
MTEXT
  5
756
330
74D
100
AcDbEntity
  8
2上模
 62
   200
 48
0.6
370
    25
100
AcDbMText
 10
8273.825110495026
 20
888.8488510065926
 30
0.0
 40
15.0
 41
0.0
 46
0.0
 71
     5
 72
     1
  1
\A1;R10 [R3/8”]
 11
0.8542369250771722
 21
0.5198839061124107
 31
0.0
 73
     1
 44
1.0
  0
SOLID
  5
757
330
74D
100
AcDbEntity
  8
2上模
 62
   104
 48
0.6
100
AcDbTrace
 10
8210.185458557736
 20
840.0952390143038
 30
0.0
 11
8211.918404911441
 21
837.2477825973806
 31
0.0
 12
8202.509562483816
 22
833.4726717447178
 32
0.0
 13
8202.509562483816
 23
833.4726717447178
 33
0.0
  0
POINT
  5
758
330
74D
100
AcDbEntity
  8
Defpoints
 62
     0
 48
0.6
100
AcDbPoint
 10
8202.509562483816
 20
833.4726717447178
 30
0.0
  0
POINT
  5
759
330
74D
100
AcDbEntity
  8
Defpoints
 62
     0
 48
0.6
100
AcDbPoint
 10
8211.051931734493
 20
838.6715108057828
 30
0.0
  0
ENDBLK
  5
754
330
74D
100
AcDbEntity
  8
0
100
AcDbBlockEnd
  0
BLOCK
  5
75B
330
75A
100
AcDbEntity
  8
0
100
AcDbBlockBegin
  2
*D95
 70
     1
 10
0.0
 20
0.0
 30
0.0
  3
*D95
  1

  0
LINE
  5
75C
330
75A
100
AcDbEntity
  8
2上模
 62
   104
 48
0.6
370
     9
100
AcDbLine
 10
972.2570652722742
 20
2490.984589567915
 30
0.0
 11
972.2570652722742
 21
2557.379706678924
 31
0.0
  0
LINE
  5
75D
330
75A
100
AcDbEntity
  8
2上模
 62
   104
 48
0.6
370
     9
100
AcDbLine
 10
1629.257065272273
 20
2490.984589567915
 30
0.0
 11
1629.257065272273
 21
2557.379706678924
 31
0.0
  0
LINE
  5
75E
330
75A
100
AcDbEntity
  8
2上模
 62
   104
 48
0.6
370
     9
100
AcDbLine
 10
982.2570652722744
 20
2556.129706678925
 30
0.0
 11
1619.257065272274
 21
2556.129706678925
 31
0.0
  0
SOLID
  5
75F
330
75A
100
AcDbEntity
  8
2上模
 62
   104
 48
0.6
100
AcDbTrace
 10
982.2570652722744
 20
2557.796373345591
 30
0.0
 11
982.2570652722744
 21
2554.463040012258
 31
0.0
 12
972.2570652722742
 22
2556.129706678925
 32
0.0
 13
972.2570652722742
 23
2556.129706678925
 33
0.0
  0
SOLID
  5
760
330
75A
100
AcDbEntity
  8
2上模
 62
   104
 48
0.6
100
AcDbTrace
 10
1619.257065272274
 20
2557.796373345591
 30
0.0
 11
1619.257065272274
 21
2554.463040012258
 31
0.0
 12
1629.257065272273
 22
2556.129706678925
 32
0.0
 13
1629.257065272273
 23
2556.129706678925
 33
0.0
  0
MTEXT
  5
761
330
75A
100
AcDbEntity
  8
2上模
 62
   200
 48
0.6
370
    25
100
AcDbMText
 10
1300.757065272274
 20
2564.543309620101
 30
0.0
 40
15.0
 41
0.0
 46
0.0
 71
     5
 72
     1
  1
\A1;657 [25 7/8”]
 73
     1
 44
1.0
  0
POINT
  5
762
330
75A
100
AcDbEntity
  8
Defpoints
 62
     0
 48
0.6
100
AcDbPoint
 10
972.2570652722742
 20
2488.984589567915
 30
0.0
  0
POINT
  5
763
330
75A
100
AcDbEntity
  8
Defpoints
 62
     0
 48
0.6
100
AcDbPoint
 10
1629.257065272273
 20
2488.984589567915
 30
0.0
  0
POINT
  5
764
330
75A
100
AcDbEntity
  8
Defpoints
 62
     0
 48
0.6
100
AcDbPoint
 10
1629.257065272273
 20
2556.129706678925
 30
0.0
  0
ENDBLK
  5
765
330
75A
100
AcDbEntity
  8
0
100
AcDbBlockEnd
  0
BLOCK
  5
767
330
766
100
AcDbEntity
  8
0
100
AcDbBlockBegin
  2
*D96
 70
     1
 10
0.0
 20
0.0
 30
0.0
  3
*D96
  1

  0
LINE
  5
768
330
766
100
AcDbEntity
  8
2上模
 62
   104
 48
0.6
370
     9
100
AcDbLine
 10
1621.257065272274
 20
2498.984589567931
 30
0.0
 11
1688.701517638571
 21
2498.984589567931
 31
0.0
  0
LINE
  5
769
330
766
100
AcDbEntity
  8
2上模
 62
   104
 48
0.6
370
     9
100
AcDbLine
 10
1621.257065272274
 20
2070.984589567915
 30
0.0
 11
1688.701517638571
 21
2070.984589567915
 31
0.0
  0
LINE
  5
76A
330
766
100
AcDbEntity
  8
2上模
 62
   104
 48
0.6
370
     9
100
AcDbLine
 10
1687.45151763857
 20
2488.98458956793
 30
0.0
 11
1687.45151763857
 21
2080.984589567915
 31
0.0
  0
SOLID
  5
76B
330
766
100
AcDbEntity
  8
2上模
 62
   104
 48
0.6
100
AcDbTrace
 10
1685.784850971904
 20
2488.98458956793
 30
0.0
 11
1689.118184305238
 21
2488.98458956793
 31
0.0
 12
1687.45151763857
 22
2498.984589567931
 32
0.0
 13
1687.45151763857
 23
2498.984589567931
 33
0.0
  0
SOLID
  5
76C
330
766
100
AcDbEntity
  8
2上模
 62
   104
 48
0.6
100
AcDbTrace
 10
1685.784850971904
 20
2080.984589567915
 30
0.0
 11
1689.118184305238
 21
2080.984589567915
 31
0.0
 12
1687.45151763857
 22
2070.984589567915
 32
0.0
 13
1687.45151763857
 23
2070.984589567915
 33
0.0
  0
MTEXT
  5
76D
330
766
100
AcDbEntity
  8
2上模
 62
   200
 48
0.6
370
    25
100
AcDbMText
 10
1679.037914697394
 20
2284.984589567923
 30
0.0
 40
15.0
 41
0.0
 46
0.0
 71
     5
 72
     1
  1
\A1;428 [16 7/8”]
 11
0.0000000000000001
 21
1.0
 31
0.0
 73
     1
 44
1.0
  0
POINT
  5
76E
330
766
100
AcDbEntity
  8
Defpoints
 62
     0
 48
0.6
100
AcDbPoint
 10
1619.257065272274
 20
2498.984589567931
 30
0.0
  0
POINT
  5
76F
330
766
100
AcDbEntity
  8
Defpoints
 62
     0
 48
0.6
100
AcDbPoint
 10
1619.257065272274
 20
2070.984589567915
 30
0.0
  0
POINT
  5
770
330
766
100
AcDbEntity
  8
Defpoints
 62
     0
 48
0.6
100
AcDbPoint
 10
1687.45151763857
 20
2070.984589567915
 30
0.0
  0
ENDBLK
  5
771
330
766
100
AcDbEntity
  8
0
100
AcDbBlockEnd
  0
BLOCK
  5
773
330
772
100
AcDbEntity
  8
0
100
AcDbBlockBegin
  2
*D97
 70
     1
 10
0.0
 20
0.0
 30
0.0
  3
*D97
  1

  0
LINE
  5
774
330
772
100
AcDbEntity
  8
2上模
 62
   104
 48
0.6
370
     9
100
AcDbLine
 10
1109.896392879535
 20
2158.665184097015
 30
0.0
 11
982.25706527228
 21
2080.984589567921
 31
0.0
  0
MTEXT
  5
775
330
772
100
AcDbEntity
  8
2上模
 62
   200
 48
0.6
370
    25
100
AcDbMText
 10
1045.973816939842
 20
2129.611516668322
 30
0.0
 40
15.0
 41
0.0
 46
0.0
 71
     5
 72
     1
  1
\A1;R10 [R3/8”]
 11
0.8542369250817714
 21
0.5198839061048535
 31
0.0
 73
     1
 44
1.0
  0
SOLID
  5
776
330
772
100
AcDbEntity
  8
2上模
 62
   104
 48
0.6
100
AcDbTrace
 10
981.3905920954383
 20
2082.408317776391
 30
0.0
 11
983.1235384491213
 21
2079.560861359452
 31
0.0
 12
973.7146960214623
 22
2075.785750506873
 32
0.0
 13
973.7146960214623
 23
2075.785750506873
 33
0.0
  0
POINT
  5
777
330
772
100
AcDbEntity
  8
Defpoints
 62
     0
 48
0.6
100
AcDbPoint
 10
973.7146960214623
 20
2075.785750506873
 30
0.0
  0
POINT
  5
778
330
772
100
AcDbEntity
  8
Defpoints
 62
     0
 48
0.6
100
AcDbPoint
 10
982.2570652722813
 20
2080.984589567922
 30
0.0
  0
ENDBLK
  5
779
330
772
100
AcDbEntity
  8
0
100
AcDbBlockEnd
  0
BLOCK
  5
79E
330
794
100
AcDbEntity
  8
0
100
AcDbBlockBegin
  2
*D99
 70
     1
 10
0.0
 20
0.0
 30
0.0
  3
*D99
  1

  0
LINE
  5
795
330
794
100
AcDbEntity
  8
2上模
 62
   104
 48
0.6
370
     9
100
AcDbLine
 10
9168.395088435897
 20
1276.520461647106
 30
0.0
 11
9168.395088435897
 21
1342.915578758116
 31
0.0
  0
LINE
  5
796
330
794
100
AcDbEntity
  8
2上模
 62
   104
 48
0.6
370
     9
100
AcDbLine
 10
9825.395088435897
 20
1276.520461647106
 30
0.0
 11
9825.395088435897
 21
1342.915578758116
 31
0.0
  0
LINE
  5
797
330
794
100
AcDbEntity
  8
2上模
 62
   104
 48
0.6
370
     9
100
AcDbLine
 10
9178.395088435896
 20
1341.665578758116
 30
0.0
 11
9815.395088435897
 21
1341.665578758116
 31
0.0
  0
SOLID
  5
798
330
794
100
AcDbEntity
  8
2上模
 62
   104
 48
0.6
100
AcDbTrace
 10
9178.395088435896
 20
1343.332245424783
 30
0.0
 11
9178.395088435896
 21
1339.998912091449
 31
0.0
 12
9168.395088435897
 22
1341.665578758116
 32
0.0
 13
9168.395088435897
 23
1341.665578758116
 33
0.0
  0
SOLID
  5
799
330
794
100
AcDbEntity
  8
2上模
 62
   104
 48
0.6
100
AcDbTrace
 10
9815.395088435897
 20
1343.332245424783
 30
0.0
 11
9815.395088435897
 21
1339.998912091449
 31
0.0
 12
9825.395088435897
 22
1341.665578758116
 32
0.0
 13
9825.395088435897
 23
1341.665578758116
 33
0.0
  0
MTEXT
  5
79A
330
794
100
AcDbEntity
  8
2上模
 62
   200
 48
0.6
370
    25
100
AcDbMText
 10
9496.895088435897
 20
1351.894150186687
 30
0.0
 40
15.0
 41
0.0
 46
0.0
 71
     5
 72
     1
  1
\A1;657 [25 7/8”]
 73
     1
 44
1.0
  0
POINT
  5
79B
330
794
100
AcDbEntity
  8
Defpoints
 62
     0
 48
0.6
100
AcDbPoint
 10
9168.395088435897
 20
1274.520461647106
 30
0.0
  0
POINT
  5
79C
330
794
100
AcDbEntity
  8
Defpoints
 62
     0
 48
0.6
100
AcDbPoint
 10
9825.395088435897
 20
1274.520461647106
 30
0.0
  0
POINT
  5
79D
330
794
100
AcDbEntity
  8
Defpoints
 62
     0
 48
0.6
100
AcDbPoint
 10
9825.395088435897
 20
1341.665578758116
 30
0.0
  0
ENDBLK
  5
79F
330
794
100
AcDbEntity
  8
0
100
AcDbBlockEnd
  0
BLOCK
  5
7AA
330
7A0
100
AcDbEntity
  8
0
100
AcDbBlockBegin
  2
*D100
 70
     1
 10
0.0
 20
0.0
 30
0.0
  3
*D100
  1

  0
LINE
  5
7A1
330
7A0
100
AcDbEntity
  8
2上模
 62
   104
 48
0.6
370
     9
100
AcDbLine
 10
9817.395088435898
 20
1284.520461647121
 30
0.0
 11
9884.839540802193
 21
1284.520461647121
 31
0.0
  0
LINE
  5
7A2
330
7A0
100
AcDbEntity
  8
2上模
 62
   104
 48
0.6
370
     9
100
AcDbLine
 10
9817.395088435898
 20
856.5204616471064
 30
0.0
 11
9884.839540802193
 21
856.5204616471064
 31
0.0
  0
LINE
  5
7A3
330
7A0
100
AcDbEntity
  8
2上模
 62
   104
 48
0.6
370
     9
100
AcDbLine
 10
9883.589540802194
 20
1274.520461647121
 30
0.0
 11
9883.589540802194
 21
866.5204616471063
 31
0.0
  0
SOLID
  5
7A4
330
7A0
100
AcDbEntity
  8
2上模
 62
   104
 48
0.6
100
AcDbTrace
 10
9881.922874135527
 20
1274.520461647121
 30
0.0
 11
9885.256207468859
 21
1274.520461647121
 31
0.0
 12
9883.589540802194
 22
1284.520461647121
 32
0.0
 13
9883.589540802194
 23
1284.520461647121
 33
0.0
  0
SOLID
  5
7A5
330
7A0
100
AcDbEntity
  8
2上模
 62
   104
 48
0.6
100
AcDbTrace
 10
9881.922874135527
 20
866.5204616471063
 30
0.0
 11
9885.256207468859
 21
866.5204616471063
 31
0.0
 12
9883.589540802194
 22
856.5204616471064
 32
0.0
 13
9883.589540802194
 23
856.5204616471064
 33
0.0
  0
MTEXT
  5
7A6
330
7A0
100
AcDbEntity
  8
2上模
 62
   200
 48
0.6
370
    25
100
AcDbMText
 10
9873.360969373621
 20
1070.520461647115
 30
0.0
 40
15.0
 41
0.0
 46
0.0
 71
     5
 72
     1
  1
\A1;428 [16 7/8”]
 11
0.0000000000000001
 21
1.0
 31
0.0
 73
     1
 44
1.0
  0
POINT
  5
7A7
330
7A0
100
AcDbEntity
  8
Defpoints
 62
     0
 48
0.6
100
AcDbPoint
 10
9815.395088435897
 20
1284.520461647121
 30
0.0
  0
POINT
  5
7A8
330
7A0
100
AcDbEntity
  8
Defpoints
 62
     0
 48
0.6
100
AcDbPoint
 10
9815.395088435897
 20
856.5204616471064
 30
0.0
  0
POINT
  5
7A9
330
7A0
100
AcDbEntity
  8
Defpoints
 62
     0
 48
0.6
100
AcDbPoint
 10
9883.589540802194
 20
856.5204616471064
 30
0.0
  0
ENDBLK
  5
7AB
330
7A0
100
AcDbEntity
  8
0
100
AcDbBlockEnd
  0
BLOCK
  5
7B2
330
7AC
100
AcDbEntity
  8
0
100
AcDbBlockBegin
  2
*D101
 70
     1
 10
0.0
 20
0.0
 30
0.0
  3
*D101
  1

  0
LINE
  5
7B4
330
7AC
100
AcDbEntity
  8
2上模
 62
   104
 48
0.6
370
     9
100
AcDbLine
 10
9300.986252685154
 20
941.1287716516753
 30
0.0
 11
9178.395088435904
 21
866.5204616471138
 31
0.0
  0
MTEXT
  5
7B5
330
7AC
100
AcDbEntity
  8
2上模
 62
   200
 48
0.6
370
    25
100
AcDbMText
 10
9241.16826719678
 20
916.6978018473074
 30
0.0
 40
15.0
 41
0.0
 46
0.0
 71
     5
 72
     1
  1
\A1;R10 [R3/8”]
 11
0.8542369250817626
 21
0.5198839061048679
 31
0.0
 73
     1
 44
1.0
  0
SOLID
  5
7B6
330
7AC
100
AcDbEntity
  8
2上模
 62
   104
 48
0.6
100
AcDbTrace
 10
9177.528615259063
 20
867.9441898555829
 30
0.0
 11
9179.261561612745
 21
865.0967334386441
 31
0.0
 12
9169.852719185085
 22
861.3216225860652
 32
0.0
 13
9169.852719185085
 23
861.3216225860652
 33
0.0
  0
POINT
  5
7B7
330
7AC
100
AcDbEntity
  8
Defpoints
 62
     0
 48
0.6
100
AcDbPoint
 10
9169.852719185085
 20
861.3216225860652
 30
0.0
  0
POINT
  5
7B8
330
7AC
100
AcDbEntity
  8
Defpoints
 62
     0
 48
0.6
100
AcDbPoint
 10
9178.395088435904
 20
866.5204616471141
 30
0.0
  0
ENDBLK
  5
7B3
330
7AC
100
AcDbEntity
  8
0
100
AcDbBlockEnd
  0
BLOCK
  5
7BA
330
7B9
100
AcDbEntity
  8
0
100
AcDbBlockBegin
  2
*D102
 70
     1
 10
0.0
 20
0.0
 30
0.0
  3
*D102
  1

  0
LINE
  5
7BB
330
7B9
100
AcDbEntity
  8
2上模
 62
   104
 48
0.6
370
     9
100
AcDbLine
 10
1905.053511567962
 20
2490.984589567915
 30
0.0
 11
1905.053511567962
 21
2557.379706678924
 31
0.0
  0
LINE
  5
7BC
330
7B9
100
AcDbEntity
  8
2上模
 62
   104
 48
0.6
370
     9
100
AcDbLine
 10
2486.053511567963
 20
2490.984589567915
 30
0.0
 11
2486.053511567963
 21
2557.379706678924
 31
0.0
  0
LINE
  5
7BD
330
7B9
100
AcDbEntity
  8
2上模
 62
   104
 48
0.6
370
     9
100
AcDbLine
 10
1915.053511567962
 20
2556.129706678925
 30
0.0
 11
2476.053511567962
 21
2556.129706678925
 31
0.0
  0
SOLID
  5
7BE
330
7B9
100
AcDbEntity
  8
2上模
 62
   104
 48
0.6
100
AcDbTrace
 10
1915.053511567962
 20
2557.796373345591
 30
0.0
 11
1915.053511567962
 21
2554.463040012258
 31
0.0
 12
1905.053511567962
 22
2556.129706678925
 32
0.0
 13
1905.053511567962
 23
2556.129706678925
 33
0.0
  0
SOLID
  5
7BF
330
7B9
100
AcDbEntity
  8
2上模
 62
   104
 48
0.6
100
AcDbTrace
 10
2476.053511567962
 20
2557.796373345591
 30
0.0
 11
2476.053511567962
 21
2554.463040012258
 31
0.0
 12
2486.053511567963
 22
2556.129706678925
 32
0.0
 13
2486.053511567963
 23
2556.129706678925
 33
0.0
  0
MTEXT
  5
7C0
330
7B9
100
AcDbEntity
  8
2上模
 62
   200
 48
0.6
370
    25
100
AcDbMText
 10
2195.553511567962
 20
2564.543309620101
 30
0.0
 40
15.0
 41
0.0
 46
0.0
 71
     5
 72
     1
  1
\A1;581 [22 7/8”]
 73
     1
 44
1.0
  0
POINT
  5
7C1
330
7B9
100
AcDbEntity
  8
Defpoints
 62
     0
 48
0.6
100
AcDbPoint
 10
1905.053511567962
 20
2488.984589567915
 30
0.0
  0
POINT
  5
7C2
330
7B9
100
AcDbEntity
  8
Defpoints
 62
     0
 48
0.6
100
AcDbPoint
 10
2486.053511567963
 20
2488.984589567915
 30
0.0
  0
POINT
  5
7C3
330
7B9
100
AcDbEntity
  8
Defpoints
 62
     0
 48
0.6
100
AcDbPoint
 10
2486.053511567963
 20
2556.129706678925
 30
0.0
  0
ENDBLK
  5
7C4
330
7B9
100
AcDbEntity
  8
0
100
AcDbBlockEnd
  0
BLOCK
  5
7C6
330
7C5
100
AcDbEntity
  8
0
100
AcDbBlockBegin
  2
*D103
 70
     1
 10
0.0
 20
0.0
 30
0.0
  3
*D103
  1

  0
LINE
  5
7C7
330
7C5
100
AcDbEntity
  8
2上模
 62
   104
 48
0.6
370
     9
100
AcDbLine
 10
2478.053511567962
 20
2498.984589567931
 30
0.0
 11
2545.49796393426
 21
2498.984589567931
 31
0.0
  0
LINE
  5
7C8
330
7C5
100
AcDbEntity
  8
2上模
 62
   104
 48
0.6
370
     9
100
AcDbLine
 10
2478.053511567962
 20
2070.984589567915
 30
0.0
 11
2545.49796393426
 21
2070.984589567915
 31
0.0
  0
LINE
  5
7C9
330
7C5
100
AcDbEntity
  8
2上模
 62
   104
 48
0.6
370
     9
100
AcDbLine
 10
2544.247963934259
 20
2488.98458956793
 30
0.0
 11
2544.247963934259
 21
2080.984589567915
 31
0.0
  0
SOLID
  5
7CA
330
7C5
100
AcDbEntity
  8
2上模
 62
   104
 48
0.6
100
AcDbTrace
 10
2542.581297267593
 20
2488.98458956793
 30
0.0
 11
2545.914630600926
 21
2488.98458956793
 31
0.0
 12
2544.247963934259
 22
2498.984589567931
 32
0.0
 13
2544.247963934259
 23
2498.984589567931
 33
0.0
  0
SOLID
  5
7CB
330
7C5
100
AcDbEntity
  8
2上模
 62
   104
 48
0.6
100
AcDbTrace
 10
2542.581297267593
 20
2080.984589567915
 30
0.0
 11
2545.914630600926
 21
2080.984589567915
 31
0.0
 12
2544.247963934259
 22
2070.984589567915
 32
0.0
 13
2544.247963934259
 23
2070.984589567915
 33
0.0
  0
MTEXT
  5
7CC
330
7C5
100
AcDbEntity
  8
2上模
 62
   200
 48
0.6
370
    25
100
AcDbMText
 10
2535.834360993082
 20
2284.984589567923
 30
0.0
 40
15.0
 41
0.0
 46
0.0
 71
     5
 72
     1
  1
\A1;428 [16 7/8”]
 11
0.0000000000000001
 21
1.0
 31
0.0
 73
     1
 44
1.0
  0
POINT
  5
7CD
330
7C5
100
AcDbEntity
  8
Defpoints
 62
     0
 48
0.6
100
AcDbPoint
 10
2476.053511567962
 20
2498.984589567931
 30
0.0
  0
POINT
  5
7CE
330
7C5
100
AcDbEntity
  8
Defpoints
 62
     0
 48
0.6
100
AcDbPoint
 10
2476.053511567962
 20
2070.984589567915
 30
0.0
  0
POINT
  5
7CF
330
7C5
100
AcDbEntity
  8
Defpoints
 62
     0
 48
0.6
100
AcDbPoint
 10
2544.247963934259
 20
2070.984589567915
 30
0.0
  0
ENDBLK
  5
7D0
330
7C5
100
AcDbEntity
  8
0
100
AcDbBlockEnd
  0
BLOCK
  5
7D2
330
7D1
100
AcDbEntity
  8
0
100
AcDbBlockBegin
  2
*D104
 70
     1
 10
0.0
 20
0.0
 30
0.0
  3
*D104
  1

  0
LINE
  5
7D3
330
7D1
100
AcDbEntity
  8
2上模
 62
   104
 48
0.6
370
     9
100
AcDbLine
 10
2042.692839175332
 20
2158.665184096911
 30
0.0
 11
1915.053511568002
 21
2080.984589567942
 31
0.0
  0
MTEXT
  5
7D4
330
7D1
100
AcDbEntity
  8
2上模
 62
   200
 48
0.6
370
    25
100
AcDbMText
 10
1978.770263235611
 20
2129.61151666828
 30
0.0
 40
15.0
 41
0.0
 46
0.0
 71
     5
 72
     1
  1
\A1;R10 [R3/8”]
 11
0.8542369250822769
 21
0.519883906104023
 31
0.0
 73
     1
 44
1.0
  0
SOLID
  5
7D5
330
7D1
100
AcDbEntity
  8
2上模
 62
   104
 48
0.6
100
AcDbTrace
 10
1914.187038391162
 20
2082.408317776412
 30
0.0
 11
1915.919984744842
 21
2079.560861359471
 31
0.0
 12
1906.511142317179
 22
2075.785750506902
 32
0.0
 13
1906.511142317179
 23
2075.785750506902
 33
0.0
  0
POINT
  5
7D6
330
7D1
100
AcDbEntity
  8
Defpoints
 62
     0
 48
0.6
100
AcDbPoint
 10
1906.511142317179
 20
2075.785750506902
 30
0.0
  0
POINT
  5
7D7
330
7D1
100
AcDbEntity
  8
Defpoints
 62
     0
 48
0.6
100
AcDbPoint
 10
1915.053511567969
 20
2080.984589567922
 30
0.0
  0
ENDBLK
  5
7D8
330
7D1
100
AcDbEntity
  8
0
100
AcDbBlockEnd
  0
BLOCK
  5
7FD
330
7F3
100
AcDbEntity
  8
0
100
AcDbBlockBegin
  2
*D106
 70
     1
 10
0.0
 20
0.0
 30
0.0
  3
*D106
  1

  0
LINE
  5
7F4
330
7F3
100
AcDbEntity
  8
2上模
 62
   104
 48
0.6
370
     9
100
AcDbLine
 10
10039.34840000356
 20
1422.103689717642
 30
0.0
 11
10039.34840000356
 21
1488.498806828652
 31
0.0
  0
LINE
  5
7F5
330
7F3
100
AcDbEntity
  8
2上模
 62
   104
 48
0.6
370
     9
100
AcDbLine
 10
10620.34840000356
 20
1422.103689717642
 30
0.0
 11
10620.34840000356
 21
1488.498806828652
 31
0.0
  0
LINE
  5
7F6
330
7F3
100
AcDbEntity
  8
2上模
 62
   104
 48
0.6
370
     9
100
AcDbLine
 10
10049.34840000356
 20
1487.248806828652
 30
0.0
 11
10610.34840000356
 21
1487.248806828652
 31
0.0
  0
SOLID
  5
7F7
330
7F3
100
AcDbEntity
  8
2上模
 62
   104
 48
0.6
100
AcDbTrace
 10
10049.34840000356
 20
1488.915473495319
 30
0.0
 11
10049.34840000356
 21
1485.582140161985
 31
0.0
 12
10039.34840000356
 22
1487.248806828652
 32
0.0
 13
10039.34840000356
 23
1487.248806828652
 33
0.0
  0
SOLID
  5
7F8
330
7F3
100
AcDbEntity
  8
2上模
 62
   104
 48
0.6
100
AcDbTrace
 10
10610.34840000356
 20
1488.915473495319
 30
0.0
 11
10610.34840000356
 21
1485.582140161985
 31
0.0
 12
10620.34840000356
 22
1487.248806828652
 32
0.0
 13
10620.34840000356
 23
1487.248806828652
 33
0.0
  0
MTEXT
  5
7F9
330
7F3
100
AcDbEntity
  8
2上模
 62
   200
 48
0.6
370
    25
100
AcDbMText
 10
10329.84840000356
 20
1497.477378257224
 30
0.0
 40
15.0
 41
0.0
 46
0.0
 71
     5
 72
     1
  1
\A1;581 [22 7/8”]
 73
     1
 44
1.0
  0
POINT
  5
7FA
330
7F3
100
AcDbEntity
  8
Defpoints
 62
     0
 48
0.6
100
AcDbPoint
 10
10039.34840000356
 20
1420.103689717642
 30
0.0
  0
POINT
  5
7FB
330
7F3
100
AcDbEntity
  8
Defpoints
 62
     0
 48
0.6
100
AcDbPoint
 10
10620.34840000356
 20
1420.103689717642
 30
0.0
  0
POINT
  5
7FC
330
7F3
100
AcDbEntity
  8
Defpoints
 62
     0
 48
0.6
100
AcDbPoint
 10
10620.34840000356
 20
1487.248806828652
 30
0.0
  0
ENDBLK
  5
7FE
330
7F3
100
AcDbEntity
  8
0
100
AcDbBlockEnd
  0
BLOCK
  5
809
330
7FF
100
AcDbEntity
  8
0
100
AcDbBlockBegin
  2
*D107
 70
     1
 10
0.0
 20
0.0
 30
0.0
  3
*D107
  1

  0
LINE
  5
800
330
7FF
100
AcDbEntity
  8
2上模
 62
   104
 48
0.6
370
     9
100
AcDbLine
 10
10612.34840000356
 20
1430.103689717657
 30
0.0
 11
10679.79285236986
 21
1430.103689717657
 31
0.0
  0
LINE
  5
801
330
7FF
100
AcDbEntity
  8
2上模
 62
   104
 48
0.6
370
     9
100
AcDbLine
 10
10612.34840000356
 20
1002.103689717642
 30
0.0
 11
10679.79285236986
 21
1002.103689717642
 31
0.0
  0
LINE
  5
802
330
7FF
100
AcDbEntity
  8
2上模
 62
   104
 48
0.6
370
     9
100
AcDbLine
 10
10678.54285236986
 20
1420.103689717657
 30
0.0
 11
10678.54285236986
 21
1012.103689717642
 31
0.0
  0
SOLID
  5
803
330
7FF
100
AcDbEntity
  8
2上模
 62
   104
 48
0.6
100
AcDbTrace
 10
10676.87618570319
 20
1420.103689717657
 30
0.0
 11
10680.20951903652
 21
1420.103689717657
 31
0.0
 12
10678.54285236986
 22
1430.103689717657
 32
0.0
 13
10678.54285236986
 23
1430.103689717657
 33
0.0
  0
SOLID
  5
804
330
7FF
100
AcDbEntity
  8
2上模
 62
   104
 48
0.6
100
AcDbTrace
 10
10676.87618570319
 20
1012.103689717642
 30
0.0
 11
10680.20951903652
 21
1012.103689717642
 31
0.0
 12
10678.54285236986
 22
1002.103689717642
 32
0.0
 13
10678.54285236986
 23
1002.103689717642
 33
0.0
  0
MTEXT
  5
805
330
7FF
100
AcDbEntity
  8
2上模
 62
   200
 48
0.6
370
    25
100
AcDbMText
 10
10668.31428094128
 20
1216.103689717651
 30
0.0
 40
15.0
 41
0.0
 46
0.0
 71
     5
 72
     1
  1
\A1;428 [16 7/8”]
 11
0.0000000000000001
 21
1.0
 31
0.0
 73
     1
 44
1.0
  0
POINT
  5
806
330
7FF
100
AcDbEntity
  8
Defpoints
 62
     0
 48
0.6
100
AcDbPoint
 10
10610.34840000356
 20
1430.103689717657
 30
0.0
  0
POINT
  5
807
330
7FF
100
AcDbEntity
  8
Defpoints
 62
     0
 48
0.6
100
AcDbPoint
 10
10610.34840000356
 20
1002.103689717642
 30
0.0
  0
POINT
  5
808
330
7FF
100
AcDbEntity
  8
Defpoints
 62
     0
 48
0.6
100
AcDbPoint
 10
10678.54285236986
 20
1002.103689717642
 30
0.0
  0
ENDBLK
  5
80A
330
7FF
100
AcDbEntity
  8
0
100
AcDbBlockEnd
  0
BLOCK
  5
811
330
80B
100
AcDbEntity
  8
0
100
AcDbBlockBegin
  2
*D108
 70
     1
 10
0.0
 20
0.0
 30
0.0
  3
*D108
  1

  0
LINE
  5
813
330
80B
100
AcDbEntity
  8
2上模
 62
   104
 48
0.6
370
     9
100
AcDbLine
 10
10171.93956425291
 20
1086.711999722121
 30
0.0
 11
10049.3484000036
 21
1012.10368971767
 31
0.0
  0
MTEXT
  5
814
330
80B
100
AcDbEntity
  8
2上模
 62
   200
 48
0.6
370
    25
100
AcDbMText
 10
10112.12157876452
 20
1062.281029917807
 30
0.0
 40
15.0
 41
0.0
 46
0.0
 71
     5
 72
     1
  1
\A1;R10 [R3/8”]
 11
0.8542369250822284
 21
0.5198839061041029
 31
0.0
 73
     1
 44
1.0
  0
SOLID
  5
815
330
80B
100
AcDbEntity
  8
2上模
 62
   104
 48
0.6
100
AcDbTrace
 10
10048.48192682676
 20
1013.527417926141
 30
0.0
 11
10050.21487318044
 21
1010.679961509199
 31
0.0
 12
10040.80603075278
 22
1006.904850656629
 32
0.0
 13
10040.80603075278
 23
1006.904850656629
 33
0.0
  0
POINT
  5
816
330
80B
100
AcDbEntity
  8
Defpoints
 62
     0
 48
0.6
100
AcDbPoint
 10
10040.80603075278
 20
1006.904850656629
 30
0.0
  0
POINT
  5
817
330
80B
100
AcDbEntity
  8
Defpoints
 62
     0
 48
0.6
100
AcDbPoint
 10
10049.34840000356
 20
1012.103689717649
 30
0.0
  0
ENDBLK
  5
812
330
80B
100
AcDbEntity
  8
0
100
AcDbBlockEnd
  0
BLOCK
  5
819
330
818
100
AcDbEntity
  8
0
100
AcDbBlockBegin
  2
*D109
 70
     1
 10
0.0
 20
0.0
 30
0.0
  3
*D109
  1

  0
LINE
  5
81A
330
818
100
AcDbEntity
  8
2上模
 62
   104
 48
0.6
370
     9
100
AcDbLine
 10
2852.827038137965
 20
2490.984589567915
 30
0.0
 11
2852.827038137965
 21
2557.379706678924
 31
0.0
  0
LINE
  5
81B
330
818
100
AcDbEntity
  8
2上模
 62
   104
 48
0.6
370
     9
100
AcDbLine
 10
3636.827038137965
 20
2490.984589567915
 30
0.0
 11
3636.827038137965
 21
2557.379706678924
 31
0.0
  0
LINE
  5
81C
330
818
100
AcDbEntity
  8
2上模
 62
   104
 48
0.6
370
     9
100
AcDbLine
 10
2862.827038137965
 20
2556.129706678925
 30
0.0
 11
3626.827038137965
 21
2556.129706678925
 31
0.0
  0
SOLID
  5
81D
330
818
100
AcDbEntity
  8
2上模
 62
   104
 48
0.6
100
AcDbTrace
 10
2862.827038137965
 20
2557.796373345591
 30
0.0
 11
2862.827038137965
 21
2554.463040012258
 31
0.0
 12
2852.827038137965
 22
2556.129706678925
 32
0.0
 13
2852.827038137965
 23
2556.129706678925
 33
0.0
  0
SOLID
  5
81E
330
818
100
AcDbEntity
  8
2上模
 62
   104
 48
0.6
100
AcDbTrace
 10
3626.827038137965
 20
2557.796373345591
 30
0.0
 11
3626.827038137965
 21
2554.463040012258
 31
0.0
 12
3636.827038137965
 22
2556.129706678925
 32
0.0
 13
3636.827038137965
 23
2556.129706678925
 33
0.0
  0
MTEXT
  5
81F
330
818
100
AcDbEntity
  8
2上模
 62
   200
 48
0.6
370
    25
100
AcDbMText
 10
3244.827038137965
 20
2564.543309620101
 30
0.0
 40
15.0
 41
0.0
 46
0.0
 71
     5
 72
     1
  1
\A1;784 [30 7/8”]
 73
     1
 44
1.0
  0
POINT
  5
820
330
818
100
AcDbEntity
  8
Defpoints
 62
     0
 48
0.6
100
AcDbPoint
 10
2852.827038137965
 20
2488.984589567915
 30
0.0
  0
POINT
  5
821
330
818
100
AcDbEntity
  8
Defpoints
 62
     0
 48
0.6
100
AcDbPoint
 10
3636.827038137965
 20
2488.984589567915
 30
0.0
  0
POINT
  5
822
330
818
100
AcDbEntity
  8
Defpoints
 62
     0
 48
0.6
100
AcDbPoint
 10
3636.827038137965
 20
2556.129706678925
 30
0.0
  0
ENDBLK
  5
823
330
818
100
AcDbEntity
  8
0
100
AcDbBlockEnd
  0
BLOCK
  5
825
330
824
100
AcDbEntity
  8
0
100
AcDbBlockBegin
  2
*D110
 70
     1
 10
0.0
 20
0.0
 30
0.0
  3
*D110
  1

  0
LINE
  5
826
330
824
100
AcDbEntity
  8
2上模
 62
   104
 48
0.6
370
     9
100
AcDbLine
 10
3628.827038137965
 20
2498.984589567931
 30
0.0
 11
3696.27149050438
 21
2498.984589567931
 31
0.0
  0
LINE
  5
827
330
824
100
AcDbEntity
  8
2上模
 62
   104
 48
0.6
370
     9
100
AcDbLine
 10
3628.827038137965
 20
2070.984589567915
 30
0.0
 11
3696.27149050438
 21
2070.984589567915
 31
0.0
  0
LINE
  5
828
330
824
100
AcDbEntity
  8
2上模
 62
   104
 48
0.6
370
     9
100
AcDbLine
 10
3695.021490504379
 20
2488.98458956793
 30
0.0
 11
3695.021490504379
 21
2080.984589567915
 31
0.0
  0
SOLID
  5
829
330
824
100
AcDbEntity
  8
2上模
 62
   104
 48
0.6
100
AcDbTrace
 10
3693.354823837712
 20
2488.98458956793
 30
0.0
 11
3696.688157171045
 21
2488.98458956793
 31
0.0
 12
3695.021490504379
 22
2498.984589567931
 32
0.0
 13
3695.021490504379
 23
2498.984589567931
 33
0.0
  0
SOLID
  5
82A
330
824
100
AcDbEntity
  8
2上模
 62
   104
 48
0.6
100
AcDbTrace
 10
3693.354823837712
 20
2080.984589567915
 30
0.0
 11
3696.688157171045
 21
2080.984589567915
 31
0.0
 12
3695.021490504379
 22
2070.984589567915
 32
0.0
 13
3695.021490504379
 23
2070.984589567915
 33
0.0
  0
MTEXT
  5
82B
330
824
100
AcDbEntity
  8
2上模
 62
   200
 48
0.6
370
    25
100
AcDbMText
 10
3686.607887563202
 20
2284.984589567923
 30
0.0
 40
15.0
 41
0.0
 46
0.0
 71
     5
 72
     1
  1
\A1;428 [16 7/8”]
 11
0.0000000000000001
 21
1.0
 31
0.0
 73
     1
 44
1.0
  0
POINT
  5
82C
330
824
100
AcDbEntity
  8
Defpoints
 62
     0
 48
0.6
100
AcDbPoint
 10
3626.827038137965
 20
2498.984589567931
 30
0.0
  0
POINT
  5
82D
330
824
100
AcDbEntity
  8
Defpoints
 62
     0
 48
0.6
100
AcDbPoint
 10
3626.827038137965
 20
2070.984589567915
 30
0.0
  0
POINT
  5
82E
330
824
100
AcDbEntity
  8
Defpoints
 62
     0
 48
0.6
100
AcDbPoint
 10
3695.021490504379
 20
2070.984589567915
 30
0.0
  0
ENDBLK
  5
82F
330
824
100
AcDbEntity
  8
0
100
AcDbBlockEnd
  0
BLOCK
  5
831
330
830
100
AcDbEntity
  8
0
100
AcDbBlockBegin
  2
*D111
 70
     1
 10
0.0
 20
0.0
 30
0.0
  3
*D111
  1

  0
LINE
  5
832
330
830
100
AcDbEntity
  8
2上模
 62
   104
 48
0.6
370
     9
100
AcDbLine
 10
2990.466365745252
 20
2158.665184097222
 30
0.0
 11
2862.827038138081
 21
2080.984589567988
 31
0.0
  0
MTEXT
  5
833
330
830
100
AcDbEntity
  8
2上模
 62
   200
 48
0.6
370
    25
100
AcDbMText
 10
2926.54378980559
 20
2129.611516668459
 30
0.0
 40
15.0
 41
0.0
 46
0.0
 71
     5
 72
     1
  1
\A1;R10 [R3/8”]
 11
0.854236925081202
 21
0.5198839061057889
 31
0.0
 73
     1
 44
1.0
  0
SOLID
  5
834
330
830
100
AcDbEntity
  8
2上模
 62
   104
 48
0.6
100
AcDbTrace
 10
2861.960564961238
 20
2082.408317776457
 30
0.0
 11
2863.693511314924
 21
2079.56086135952
 31
0.0
 12
2854.284668887269
 22
2075.785750506931
 32
0.0
 13
2854.284668887269
 23
2075.785750506931
 33
0.0
  0
POINT
  5
835
330
830
100
AcDbEntity
  8
Defpoints
 62
     0
 48
0.6
100
AcDbPoint
 10
2854.284668887269
 20
2075.785750506931
 30
0.0
  0
POINT
  5
836
330
830
100
AcDbEntity
  8
Defpoints
 62
     0
 48
0.6
100
AcDbPoint
 10
2862.827038137973
 20
2080.984589567922
 30
0.0
  0
ENDBLK
  5
837
330
830
100
AcDbEntity
  8
0
100
AcDbBlockEnd
  0
BLOCK
  5
85C
330
852
100
AcDbEntity
  8
0
100
AcDbBlockBegin
  2
*D113
 70
     1
 10
0.0
 20
0.0
 30
0.0
  3
*D113
  1

  0
LINE
  5
853
330
852
100
AcDbEntity
  8
2上模
 62
   104
 48
0.6
370
     9
100
AcDbLine
 10
11009.27040953764
 20
1460.470625227307
 30
0.0
 11
11009.27040953764
 21
1526.865742338317
 31
0.0
  0
LINE
  5
854
330
852
100
AcDbEntity
  8
2上模
 62
   104
 48
0.6
370
     9
100
AcDbLine
 10
11793.27040953764
 20
1460.470625227307
 30
0.0
 11
11793.27040953764
 21
1526.865742338317
 31
0.0
  0
LINE
  5
855
330
852
100
AcDbEntity
  8
2上模
 62
   104
 48
0.6
370
     9
100
AcDbLine
 10
11019.27040953764
 20
1525.615742338317
 30
0.0
 11
11783.27040953764
 21
1525.615742338317
 31
0.0
  0
SOLID
  5
856
330
852
100
AcDbEntity
  8
2上模
 62
   104
 48
0.6
100
AcDbTrace
 10
11019.27040953764
 20
1527.282409004983
 30
0.0
 11
11019.27040953764
 21
1523.94907567165
 31
0.0
 12
11009.27040953764
 22
1525.615742338317
 32
0.0
 13
11009.27040953764
 23
1525.615742338317
 33
0.0
  0
SOLID
  5
857
330
852
100
AcDbEntity
  8
2上模
 62
   104
 48
0.6
100
AcDbTrace
 10
11783.27040953764
 20
1527.282409004983
 30
0.0
 11
11783.27040953764
 21
1523.94907567165
 31
0.0
 12
11793.27040953764
 22
1525.615742338317
 32
0.0
 13
11793.27040953764
 23
1525.615742338317
 33
0.0
  0
MTEXT
  5
858
330
852
100
AcDbEntity
  8
2上模
 62
   200
 48
0.6
370
    25
100
AcDbMText
 10
11401.27040953764
 20
1535.844313766888
 30
0.0
 40
15.0
 41
0.0
 46
0.0
 71
     5
 72
     1
  1
\A1;784 [30 7/8”]
 73
     1
 44
1.0
  0
POINT
  5
859
330
852
100
AcDbEntity
  8
Defpoints
 62
     0
 48
0.6
100
AcDbPoint
 10
11009.27040953764
 20
1458.470625227307
 30
0.0
  0
POINT
  5
85A
330
852
100
AcDbEntity
  8
Defpoints
 62
     0
 48
0.6
100
AcDbPoint
 10
11793.27040953764
 20
1458.470625227307
 30
0.0
  0
POINT
  5
85B
330
852
100
AcDbEntity
  8
Defpoints
 62
     0
 48
0.6
100
AcDbPoint
 10
11793.27040953764
 20
1525.615742338317
 30
0.0
  0
ENDBLK
  5
85D
330
852
100
AcDbEntity
  8
0
100
AcDbBlockEnd
  0
BLOCK
  5
868
330
85E
100
AcDbEntity
  8
0
100
AcDbBlockBegin
  2
*D114
 70
     1
 10
0.0
 20
0.0
 30
0.0
  3
*D114
  1

  0
LINE
  5
85F
330
85E
100
AcDbEntity
  8
2上模
 62
   104
 48
0.6
370
     9
100
AcDbLine
 10
11785.27040953764
 20
1468.470625227322
 30
0.0
 11
11852.71486190405
 21
1468.470625227322
 31
0.0
  0
LINE
  5
860
330
85E
100
AcDbEntity
  8
2上模
 62
   104
 48
0.6
370
     9
100
AcDbLine
 10
11785.27040953764
 20
1040.470625227307
 30
0.0
 11
11852.71486190405
 21
1040.470625227307
 31
0.0
  0
LINE
  5
861
330
85E
100
AcDbEntity
  8
2上模
 62
   104
 48
0.6
370
     9
100
AcDbLine
 10
11851.46486190405
 20
1458.470625227322
 30
0.0
 11
11851.46486190405
 21
1050.470625227307
 31
0.0
  0
SOLID
  5
862
330
85E
100
AcDbEntity
  8
2上模
 62
   104
 48
0.6
100
AcDbTrace
 10
11849.79819523738
 20
1458.470625227322
 30
0.0
 11
11853.13152857072
 21
1458.470625227322
 31
0.0
 12
11851.46486190405
 22
1468.470625227322
 32
0.0
 13
11851.46486190405
 23
1468.470625227322
 33
0.0
  0
SOLID
  5
863
330
85E
100
AcDbEntity
  8
2上模
 62
   104
 48
0.6
100
AcDbTrace
 10
11849.79819523738
 20
1050.470625227307
 30
0.0
 11
11853.13152857072
 21
1050.470625227307
 31
0.0
 12
11851.46486190405
 22
1040.470625227307
 32
0.0
 13
11851.46486190405
 23
1040.470625227307
 33
0.0
  0
MTEXT
  5
864
330
85E
100
AcDbEntity
  8
2上模
 62
   200
 48
0.6
370
    25
100
AcDbMText
 10
11841.23629047548
 20
1254.470625227316
 30
0.0
 40
15.0
 41
0.0
 46
0.0
 71
     5
 72
     1
  1
\A1;428 [16 7/8”]
 11
0.0000000000000001
 21
1.0
 31
0.0
 73
     1
 44
1.0
  0
POINT
  5
865
330
85E
100
AcDbEntity
  8
Defpoints
 62
     0
 48
0.6
100
AcDbPoint
 10
11783.27040953764
 20
1468.470625227322
 30
0.0
  0
POINT
  5
866
330
85E
100
AcDbEntity
  8
Defpoints
 62
     0
 48
0.6
100
AcDbPoint
 10
11783.27040953764
 20
1040.470625227307
 30
0.0
  0
POINT
  5
867
330
85E
100
AcDbEntity
  8
Defpoints
 62
     0
 48
0.6
100
AcDbPoint
 10
11851.46486190405
 20
1040.470625227307
 30
0.0
  0
ENDBLK
  5
869
330
85E
100
AcDbEntity
  8
0
100
AcDbBlockEnd
  0
BLOCK
  5
870
330
86A
100
AcDbEntity
  8
0
100
AcDbBlockBegin
  2
*D115
 70
     1
 10
0.0
 20
0.0
 30
0.0
  3
*D115
  1

  0
LINE
  5
872
330
86A
100
AcDbEntity
  8
2上模
 62
   104
 48
0.6
370
     9
100
AcDbLine
 10
11141.86157378693
 20
1125.078935232061
 30
0.0
 11
11019.27040953775
 21
1050.47062522738
 31
0.0
  0
MTEXT
  5
873
330
86A
100
AcDbEntity
  8
2上模
 62
   200
 48
0.6
370
    25
100
AcDbMText
 10
11082.04358829858
 20
1100.647965427636
 30
0.0
 40
15.0
 41
0.0
 46
0.0
 71
     5
 72
     1
  1
\A1;R10 [R3/8”]
 11
0.8542369250812594
 21
0.519883906105695
 31
0.0
 73
     1
 44
1.0
  0
SOLID
  5
874
330
86A
100
AcDbEntity
  8
2上模
 62
   104
 48
0.6
100
AcDbTrace
 10
11018.40393636091
 20
1051.894353435848
 30
0.0
 11
11020.1368827146
 21
1049.04689701891
 31
0.0
 12
11010.72804028694
 22
1045.271786166323
 32
0.0
 13
11010.72804028694
 23
1045.271786166323
 33
0.0
  0
POINT
  5
875
330
86A
100
AcDbEntity
  8
Defpoints
 62
     0
 48
0.6
100
AcDbPoint
 10
11010.72804028694
 20
1045.271786166323
 30
0.0
  0
POINT
  5
876
330
86A
100
AcDbEntity
  8
Defpoints
 62
     0
 48
0.6
100
AcDbPoint
 10
11019.27040953764
 20
1050.470625227314
 30
0.0
  0
ENDBLK
  5
871
330
86A
100
AcDbEntity
  8
0
100
AcDbBlockEnd
  0
ENDSEC
  0
SECTION
  2
ENTITIES
  0
LWPOLYLINE
  5
847
102
{ACAD_REACTORS
330
84A
330
84D
330
850
102
}
330
1F
100
AcDbEntity
  8
2上模
 48
0.6
370
    25
100
AcDbPolyline
 90
        8
 70
     1
 43
0.0
 10
11019.27040953764
 20
1468.470625227322
 10
11783.27040953764
 20
1468.470625227322
 42
-0.4142135623730951
 10
11793.27040953764
 20
1458.470625227307
 10
11793.27040953764
 20
1050.470625227321
 42
-0.4142135623730951
 10
11783.27040953764
 20
1040.470625227307
 10
11019.27040953764
 20
1040.470625227307
 42
-0.4142135623730951
 10
11009.27040953764
 20
1050.470625227321
 10
11009.27040953764
 20
1458.470625227307
 42
-0.4142135623730951
  0
DIMENSION
  5
848
102
{ACAD_XDICTIONARY
360
849
102
}
102
{ACAD_REACTORS
330
84A
102
}
330
1F
100
AcDbEntity
  8
2上模
 48
0.6
370
    25
100
AcDbDimension
  2
*D113
 10
11793.27040953764
 20
1525.615742338317
 30
0.0
 11
11401.27040953764
 21
1535.844313766888
 31
0.0
 70
    32
 71
     5
 42
784.0
 73
     0
 74
     0
 75
     0
  3
usally
100
AcDbAlignedDimension
 13
11009.27040953764
 23
1458.470625227307
 33
0.0
 14
11793.27040953764
 24
1458.470625227307
 34
0.0
100
AcDbRotatedDimension
1001
ACAD
1000
DSTYLE
1002
{
1070
     4
1000
”
1070
    41
1040
10.0
1070
    50
1040
1.570796326794896
1070
   140
1040
15.0
1070
   143
1040
0.03937007874
1070
   170
1070
     1
1070
   171
1070
     3
1070
   273
1070
     7
1070
   274
1070
     3
1070
   345
1005
15
1070
   346
1005
15
1070
   347
1005
15
1002
}
  0
DIMENSION
  5
84B
102
{ACAD_XDICTIONARY
360
84C
102
}
102
{ACAD_REACTORS
330
84D
102
}
330
1F
100
AcDbEntity
  8
2上模
 48
0.6
370
    25
100
AcDbDimension
  2
*D114
 10
11851.46486190405
 20
1040.470625227307
 30
0.0
 11
11841.23629047548
 21
1254.470625227316
 31
0.0
 70
    32
 71
     5
 42
428.000000000015
 73
     0
 74
     0
 75
     0
  3
usally
100
AcDbAlignedDimension
 13
11783.27040953764
 23
1468.470625227322
 33
0.0
 14
11783.27040953764
 24
1040.470625227307
 34
0.0
 50
90.0
100
AcDbRotatedDimension
1001
ACAD
1000
DSTYLE
1002
{
1070
     4
1000
”
1070
    41
1040
10.0
1070
    50
1040
1.570796326794896
1070
   140
1040
15.0
1070
   143
1040
0.03937007874
1070
   170
1070
     1
1070
   171
1070
     3
1070
   273
1070
     7
1070
   274
1070
     3
1070
   345
1005
15
1070
   346
1005
15
1070
   347
1005
15
1002
}
  0
DIMENSION
  5
84E
102
{ACAD_XDICTIONARY
360
84F
102
}
102
{ACAD_REACTORS
330
850
102
}
330
1F
100
AcDbEntity
  8
2上模
 48
0.6
370
    25
100
AcDbDimension
  2
*D115
 10
11019.27040953764
 20
1050.470625227314
 30
0.0
 11
11087.36125796675
 21
1091.910342022519
 31
0.0
 70
   164
 71
     5
 42
9.999999999874489
 73
     0
 74
     0
 75
     0
  3
usally
100
AcDbRadialDimension
 15
11010.72804028694
 25
1045.271786166323
 35
0.0
 40
0.0
1001
ACAD
1000
DSTYLE
1002
{
1070
     4
1000
”
1070
    41
1040
10.0
1070
    50
1040
1.570796326794896
1070
   140
1040
15.0
1070
   143
1040
0.03937007874
1070
   170
1070
     1
1070
   171
1070
     3
1070
   273
1070
     7
1070
   274
1070
     3
1070
   279
1070
     1
1070
   288
1070
     1
1070
   345
1005
15
1070
   346
1005
15
1070
   347
1005
15
1002
}
  0
MTEXT
  5
851
330
1F
100
AcDbEntity
  8
2上模
 48
0.6
370
    25
100
AcDbMText
 10
11161.66384526244
 20
1283.823906093318
 30
0.0
 40
50.0
 41
528.0839866846799
 46
0.0
 71
     1
 72
     5
  1
Paris U33
 73
     1
 44
1.0
  0
ENDSEC
  0
SECTION
  2
OBJECTS
  0
DICTIONARY
  5
C
330
0
100
AcDbDictionary
281
     1
  3
ACAD_COLOR
350
6B
  3
ACAD_GROUP
350
D
  3
ACAD_LAYOUT
350
1A
  3
ACAD_MATERIAL
350
6A
  3
ACAD_MLINESTYLE
350
17
  3
ACAD_PLOTSETTINGS
350
19
  3
ACAD_PLOTSTYLENAME
350
E
  3
ACAD_TABLESTYLE
350
7E
  3
ACAD_VISUALSTYLE
350
F0
  3
AcDbVariableDictionary
350
5E
  0
DICTIONARY
  5
14E
330
2
100
AcDbDictionary
280
     1
281
     1
  3
ACAD_LAYERSTATES
360
14F
  0
DICTIONARY
  5
849
330
848
100
AcDbDictionary
280
     1
281
     1
  3
ACAD_DIMASSOC
360
84A
  0
DICTIONARY
  5
84C
330
84B
100
AcDbDictionary
280
     1
281
     1
  3
ACAD_DIMASSOC
360
84D
  0
DICTIONARY
  5
84F
330
84E
100
AcDbDictionary
280
     1
281
     1
  3
ACAD_DIMASSOC
360
850
  0
DICTIONARY
  5
6B
102
{ACAD_REACTORS
330
C
102
}
330
C
100
AcDbDictionary
281
     1
  0
DICTIONARY
  5
D
102
{ACAD_REACTORS
330
C
102
}
330
C
100
AcDbDictionary
281
     1
  0
DICTIONARY
  5
1A
102
{ACAD_REACTORS
330
C
102
}
330
C
100
AcDbDictionary
281
     1
  3
Model
350
22
  3
布局1
350
D3
  3
布局2
350
D7
  0
DICTIONARY
  5
6A
102
{ACAD_REACTORS
330
C
102
}
330
C
100
AcDbDictionary
281
     1
  3
ByBlock
350
EE
  3
ByLayer
350
ED
  3
Global
350
EF
  0
DICTIONARY
  5
17
102
{ACAD_REACTORS
330
C
102
}
330
C
100
AcDbDictionary
281
     1
  3
Standard
350
18
  0
DICTIONARY
  5
19
102
{ACAD_REACTORS
330
C
102
}
330
C
100
AcDbDictionary
281
     1
  0
ACDBDICTIONARYWDFLT
  5
E
102
{ACAD_REACTORS
330
C
102
}
330
C
100
AcDbDictionary
281
     1
  3
Normal
350
F
100
AcDbDictionaryWithDefault
340
F
  0
DICTIONARY
  5
7E
102
{ACAD_REACTORS
330
C
102
}
330
C
100
AcDbDictionary
281
     1
  3
Standard
350
7F
  0
DICTIONARY
  5
F0
102
{ACAD_REACTORS
330
C
102
}
330
C
100
AcDbDictionary
281
     1
  3
2dWireframe
350
F6
  3
3D Hidden
350
F8
  3
3dWireframe
350
F7
  3
Basic
350
F5
  3
Brighten
350
FC
  3
ColorChange
350
100
  3
Conceptual
350
F9
  3
Dim
350
FB
  3
Facepattern
350
FF
  3
Flat
350
F1
  3
FlatWithEdges
350
F2
  3
Gouraud
350
F3
  3
GouraudWithEdges
350
F4
  3
Linepattern
350
FE
  3
Realistic
350
FA
  3
Thicken
350
FD
  0
DICTIONARY
  5
5E
102
{ACAD_REACTORS
330
C
102
}
330
C
100
AcDbDictionary
281
     1
  3
CTABLESTYLE
350
84
  3
DIMASSOC
350
5F
  3
HIDETEXT
350
63
  0
DICTIONARY
  5
14F
102
{ACAD_REACTORS
330
14E
102
}
330
14E
100
AcDbDictionary
281
     1
  0
DIMASSOC
  5
84A
102
{ACAD_REACTORS
330
849
102
}
330
849
100
AcDbDimAssoc
330
848
 90
        3
 70
     0
 71
     0
  1
AcDbOsnapPointRef
 72
     1
331
847
 73
     2
 91
        7
 40
1.0
 10
0.0
 20
0.0
 30
2.000000000000000E+50
 75
     0
  1
AcDbOsnapPointRef
 72
     1
331
847
 73
     2
 91
        2
 40
0.0
 10
0.0
 20
0.0
 30
2.000000000000000E+50
 75
     0
  0
DIMASSOC
  5
84D
102
{ACAD_REACTORS
330
84C
102
}
330
84C
100
AcDbDimAssoc
330
84B
 90
        3
 70
     0
 71
     0
  1
AcDbOsnapPointRef
 72
    13
331
847
 73
     2
 91
        2
 40
1.570796326794896
 10
0.0
 20
0.0
 30
2.000000000000000E+50
 75
     0
  1
AcDbOsnapPointRef
 72
     1
331
847
 73
     2
 91
        4
 40
4.712388980384688
 10
0.0
 20
0.0
 30
2.000000000000000E+50
 75
     0
  0
DIMASSOC
  5
850
102
{ACAD_REACTORS
330
84F
102
}
330
84F
100
AcDbDimAssoc
330
84E
 90
        2
 70
     0
 71
     0
  1
AcDbOsnapPointRef
 72
     3
331
847
 73
     2
 91
        6
 40
0.0
 10
0.0
 20
0.0
 30
0.0
 75
     0
  0
LAYOUT
  5
22
102
{ACAD_REACTORS
330
1A
102
}
330
1A
100
AcDbPlotSettings
  1

  2
none_device
  4
ISO_A4_(210.00_x_297.00_MM)
  6

 40
7.5
 41
20.0
 42
7.5
 43
20.0
 44
210.0
 45
297.0
 46
11.54999923706054
 47
-13.65000009536743
 48
0.0
 49
0.0
140
0.0
141
0.0
142
1.0
143
8.704084754739808
 70
 11952
 72
     1
 73
     0
 74
     0
  7

 75
     0
147
0.1148885871608098
 76
     0
 77
     2
 78
   300
148
0.0
149
0.0
100
AcDbLayout
  1
Model
 70
     1
 71
     0
 10
0.0
 20
0.0
 11
12.0
 21
9.0
 12
0.0
 22
0.0
 32
0.0
 14
0.0
 24
0.0
 34
0.0
 15
0.0
 25
0.0
 35
0.0
146
0.0
 13
0.0
 23
0.0
 33
0.0
 16
1.0
 26
0.0
 36
0.0
 17
0.0
 27
1.0
 37
0.0
 76
     0
330
1F
331
EB
1001
ACAD_PSEXT
1000
None
1000
None
1000
Not applicable
1000
The layout will not be plotted unless a new plotter configuration name is selected.
1070
     0
  0
LAYOUT
  5
D3
102
{ACAD_REACTORS
330
1A
102
}
330
1A
100
AcDbPlotSettings
  1

  2
C:\Documents and Settings\basas\Application Data\Autodesk\AutoCAD 2005\R16.1\enu\plotters\Default Windows System Printer.pc3
  4

  6

 40
0.0
 41
0.0
 42
0.0
 43
0.0
 44
0.0
 45
0.0
 46
0.0
 47
0.0
 48
0.0
 49
0.0
140
0.0
141
0.0
142
1.0
143
1.0
 70
   688
 72
     0
 73
     0
 74
     5
  7

 75
    16
147
1.0
 76
     0
 77
     2
 78
   300
148
0.0
149
0.0
100
AcDbLayout
  1
布局1
 70
     1
 71
     1
 10
0.0
 20
0.0
 11
12.0
 21
9.0
 12
0.0
 22
0.0
 32
0.0
 14
0.0
 24
0.0
 34
0.0
 15
0.0
 25
0.0
 35
0.0
146
0.0
 13
0.0
 23
0.0
 33
0.0
 16
1.0
 26
0.0
 36
0.0
 17
0.0
 27
1.0
 37
0.0
 76
     0
330
D2
  0
LAYOUT
  5
D7
102
{ACAD_REACTORS
330
1A
102
}
330
1A
100
AcDbPlotSettings
  1

  2
C:\Documents and Settings\basas\Application Data\Autodesk\AutoCAD 2005\R16.1\enu\plotters\Default Windows System Printer.pc3
  4

  6

 40
0.0
 41
0.0
 42
0.0
 43
0.0
 44
0.0
 45
0.0
 46
0.0
 47
0.0
 48
0.0
 49
0.0
140
0.0
141
0.0
142
1.0
143
1.0
 70
   688
 72
     0
 73
     0
 74
     5
  7

 75
    16
147
1.0
 76
     0
 77
     2
 78
   300
148
0.0
149
0.0
100
AcDbLayout
  1
布局2
 70
     1
 71
     2
 10
0.0
 20
0.0
 11
12.0
 21
9.0
 12
0.0
 22
0.0
 32
0.0
 14
0.0
 24
0.0
 34
0.0
 15
0.0
 25
0.0
 35
0.0
146
0.0
 13
0.0
 23
0.0
 33
0.0
 16
1.0
 26
0.0
 36
0.0
 17
0.0
 27
1.0
 37
0.0
 76
     0
330
D6
  0
MATERIAL
  5
EE
102
{ACAD_REACTORS
330
6A
102
}
330
6A
100
AcDbMaterial
  1
ByBlock
  0
MATERIAL
  5
ED
102
{ACAD_REACTORS
330
6A
102
}
330
6A
100
AcDbMaterial
  1
ByLayer
  0
MATERIAL
  5
EF
102
{ACAD_REACTORS
330
6A
102
}
330
6A
100
AcDbMaterial
  1
Global
  0
MLINESTYLE
  5
18
102
{ACAD_REACTORS
330
17
102
}
330
17
100
AcDbMlineStyle
  2
STANDARD
 70
     0
  3

 62
   256
 51
90.0
 52
90.0
 71
     2
 49
0.5
 62
   256
  6
BYLAYER
 49
-0.5
 62
   256
  6
BYLAYER
  0
ACDBPLACEHOLDER
  5
F
102
{ACAD_REACTORS
330
E
102
}
330
E
  0
TABLESTYLE
  5
7F
102
{ACAD_REACTORS
330
7E
102
}
330
7E
100
AcDbTableStyle
  3
Standard
 70
     0
 71
     0
 40
1.5
 41
1.5
280
     0
281
     0
  7
Standard
140
4.5
170
     2
 62
     0
 63
     7
283
     0
 90
      512
 91
        0
  1

274
    -2
284
     1
 64
     0
275
    -2
285
     1
 65
     0
276
    -2
286
     1
 66
     0
277
    -2
287
     1
 67
     0
278
    -2
288
     1
 68
     0
279
    -2
289
     1
 69
     0
  7
Standard
140
6.0
170
     5
 62
     0
 63
     7
283
     0
 90
      512
 91
        0
  1

274
    -2
284
     1
 64
     0
275
    -2
285
     1
 65
     0
276
    -2
286
     1
 66
     0
277
    -2
287
     1
 67
     0
278
    -2
288
     1
 68
     0
279
    -2
289
     1
 69
     0
  7
Standard
140
4.5
170
     5
 62
     0
 63
     7
283
     0
 90
      512
 91
        0
  1

274
    -2
284
     1
 64
     0
275
    -2
285
     1
 65
     0
276
    -2
286
     1
 66
     0
277
    -2
287
     1
 67
     0
278
    -2
288
     1
 68
     0
279
    -2
289
     1
 69
     0
  0
VISUALSTYLE
  5
F6
102
{ACAD_REACTORS
330
F0
102
}
330
F0
100
AcDbVisualStyle
  2
2dWireframe
 70
     4
 71
     0
 72
     2
 73
     1
 90
        0
 40
-0.6
 41
-30.0
 62
     5
 63
     7
421
 16777215
 74
     1
 91
        4
 64
     7
 65
   257
 75
     1
175
     1
 42
1.0
 92
        0
 66
   257
 43
1.0
 76
     1
 77
     6
 78
     2
 67
     7
 79
     5
170
     0
171
     0
290
     0
174
     0
 93
        1
 44
0.0
173
     0
291
     0
 45
0.0
  0
VISUALSTYLE
  5
F8
102
{ACAD_REACTORS
330
F0
102
}
330
F0
100
AcDbVisualStyle
  2
3D Hidden
 70
     6
 71
     1
 72
     2
 73
     2
 90
        0
 40
-0.6
 41
-30.0
 62
     5
 63
     7
421
 16777215
 74
     2
 91
        2
 64
     7
 65
   257
 75
     2
175
     1
 42
40.0
 92
        0
 66
   257
 43
1.0
 76
     1
 77
     6
 78
     2
 67
     7
 79
     3
170
     0
171
     0
290
     0
174
     0
 93
        1
 44
0.0
173
     0
291
     0
 45
0.0
  0
VISUALSTYLE
  5
F7
102
{ACAD_REACTORS
330
F0
102
}
330
F0
100
AcDbVisualStyle
  2
3dWireframe
 70
     5
 71
     0
 72
     2
 73
     1
 90
        0
 40
-0.6
 41
-30.0
 62
     5
 63
     7
421
 16777215
 74
     1
 91
        4
 64
     7
 65
   257
 75
     1
175
     1
 42
1.0
 92
        0
 66
   257
 43
1.0
 76
     1
 77
     6
 78
     2
 67
     7
 79
     5
170
     0
171
     0
290
     0
174
     0
 93
        1
 44
0.0
173
     0
291
     0
 45
0.0
  0
VISUALSTYLE
  5
F5
102
{ACAD_REACTORS
330
F0
102
}
330
F0
100
AcDbVisualStyle
  2
Basic
 70
     7
 71
     1
 72
     0
 73
     1
 90
        0
 40
-0.6
 41
-30.0
 62
     5
 63
     7
421
 16777215
 74
     0
 91
        4
 64
     7
 65
   257
 75
     1
175
     1
 42
1.0
 92
        8
 66
     7
 43
1.0
 76
     1
 77
     6
 78
     2
 67
     7
 79
     5
170
     0
171
     0
290
     0
174
     0
 93
        1
 44
0.0
173
     0
291
     1
 45
0.0
  0
VISUALSTYLE
  5
FC
102
{ACAD_REACTORS
330
F0
102
}
330
F0
100
AcDbVisualStyle
  2
Brighten
 70
    12
 71
     2
 72
     2
 73
     1
 90
        0
 40
-0.6
 41
-30.0
 62
     5
 63
     7
421
 16777215
 74
     1
 91
        4
 64
     7
 65
   257
 75
     1
175
     1
 42
1.0
 92
        8
 66
     7
 43
1.0
 76
     1
 77
     6
 78
     2
 67
     7
 79
     5
170
     0
171
     0
290
     0
174
     0
 93
        1
 44
50.0
173
     0
291
     1
 45
0.0
  0
VISUALSTYLE
  5
100
102
{ACAD_REACTORS
330
F0
102
}
330
F0
100
AcDbVisualStyle
  2
ColorChange
 70
    16
 71
     2
 72
     2
 73
     3
 90
        0
 40
-0.6
 41
-30.0
 62
     5
 63
     8
421
  8421504
 74
     1
 91
        4
 64
     7
 65
   257
 75
     1
175
     1
 42
1.0
 92
        8
 66
     8
424
  8421504
 43
1.0
 76
     1
 77
     6
 78
     2
 67
     7
 79
     5
170
     0
171
     0
290
     0
174
     0
 93
        1
 44
0.0
173
     0
291
     1
 45
0.0
  0
VISUALSTYLE
  5
F9
102
{ACAD_REACTORS
330
F0
102
}
330
F0
100
AcDbVisualStyle
  2
Conceptual
 70
     9
 71
     3
 72
     2
 73
     1
 90
        0
 40
-0.6
 41
-30.0
 62
     5
 63
     7
421
 16777215
 74
     2
 91
        2
 64
     7
 65
   257
 75
     1
175
     1
 42
40.0
 92
        8
 66
     7
 43
1.0
 76
     1
 77
     6
 78
     2
 67
     7
 79
     3
170
     0
171
     0
290
     0
174
     0
 93
        1
 44
0.0
173
     0
291
     0
 45
0.0
  0
VISUALSTYLE
  5
FB
102
{ACAD_REACTORS
330
F0
102
}
330
F0
100
AcDbVisualStyle
  2
Dim
 70
    11
 71
     2
 72
     2
 73
     1
 90
        0
 40
-0.6
 41
-30.0
 62
     5
 63
     7
421
 16777215
 74
     1
 91
        4
 64
     7
 65
   257
 75
     1
175
     1
 42
1.0
 92
        8
 66
     7
 43
1.0
 76
     1
 77
     6
 78
     2
 67
     7
 79
     5
170
     0
171
     0
290
     0
174
     0
 93
        1
 44
-50.0
173
     0
291
     1
 45
0.0
  0
VISUALSTYLE
  5
FF
102
{ACAD_REACTORS
330
F0
102
}
330
F0
100
AcDbVisualStyle
  2
Facepattern
 70
    15
 71
     2
 72
     2
 73
     1
 90
        0
 40
-0.6
 41
-30.0
 62
     5
 63
     7
421
 16777215
 74
     1
 91
        4
 64
     7
 65
   257
 75
     1
175
     1
 42
1.0
 92
        8
 66
     7
 43
1.0
 76
     1
 77
     6
 78
     2
 67
     7
 79
     5
170
     0
171
     0
290
     0
174
     0
 93
        1
 44
0.0
173
     0
291
     1
 45
0.0
  0
VISUALSTYLE
  5
F1
102
{ACAD_REACTORS
330
F0
102
}
330
F0
100
AcDbVisualStyle
  2
Flat
 70
     0
 71
     2
 72
     1
 73
     1
 90
        2
 40
-0.6
 41
30.0
 62
     5
 63
     7
421
 16777215
 74
     0
 91
        4
 64
     7
 65
   257
 75
     1
175
     1
 42
1.0
 92
        8
 66
     7
 43
1.0
 76
     1
 77
     6
 78
     2
 67
     7
 79
     5
170
     0
171
     0
290
     0
174
     0
 93
        1
 44
0.0
173
     0
291
     1
 45
0.0
  0
VISUALSTYLE
  5
F2
102
{ACAD_REACTORS
330
F0
102
}
330
F0
100
AcDbVisualStyle
  2
FlatWithEdges
 70
     1
 71
     2
 72
     1
 73
     1
 90
        2
 40
-0.6
 41
30.0
 62
     5
 63
     7
421
 16777215
 74
     1
 91
        4
 64
     7
 65
   257
 75
     1
175
     1
 42
1.0
 92
        0
 66
   257
 43
1.0
 76
     1
 77
     6
 78
     2
 67
     7
 79
     5
170
     0
171
     0
290
     0
174
     0
 93
        1
 44
0.0
173
     0
291
     1
 45
0.0
  0
VISUALSTYLE
  5
F3
102
{ACAD_REACTORS
330
F0
102
}
330
F0
100
AcDbVisualStyle
  2
Gouraud
 70
     2
 71
     2
 72
     2
 73
     1
 90
        2
 40
-0.6
 41
30.0
 62
     5
 63
     7
421
 16777215
 74
     0
 91
        4
 64
     7
 65
   257
 75
     1
175
     1
 42
1.0
 92
        0
 66
     7
 43
1.0
 76
     1
 77
     6
 78
     2
 67
     7
 79
     5
170
     0
171
     0
290
     0
174
     0
 93
        1
 44
0.0
173
     0
291
     1
 45
0.0
  0
VISUALSTYLE
  5
F4
102
{ACAD_REACTORS
330
F0
102
}
330
F0
100
AcDbVisualStyle
  2
GouraudWithEdges
 70
     3
 71
     2
 72
     2
 73
     1
 90
        2
 40
-0.6
 41
30.0
 62
     5
 63
     7
421
 16777215
 74
     1
 91
        4
 64
     7
 65
   257
 75
     1
175
     1
 42
1.0
 92
        0
 66
   257
 43
1.0
 76
     1
 77
     6
 78
     2
 67
     7
 79
     5
170
     0
171
     0
290
     0
174
     0
 93
        1
 44
0.0
173
     0
291
     1
 45
0.0
  0
VISUALSTYLE
  5
FE
102
{ACAD_REACTORS
330
F0
102
}
330
F0
100
AcDbVisualStyle
  2
Linepattern
 70
    14
 71
     2
 72
     2
 73
     1
 90
        0
 40
-0.6
 41
-30.0
 62
     5
 63
     7
421
 16777215
 74
     1
 91
        4
 64
     7
 65
   257
 75
     7
175
     7
 42
1.0
 92
        8
 66
     7
 43
1.0
 76
     1
 77
     6
 78
     2
 67
     7
 79
     5
170
     0
171
     0
290
     0
174
     0
 93
        1
 44
0.0
173
     0
291
     1
 45
0.0
  0
VISUALSTYLE
  5
FA
102
{ACAD_REACTORS
330
F0
102
}
330
F0
100
AcDbVisualStyle
  2
Realistic
 70
     8
 71
     2
 72
     2
 73
     1
 90
        0
 40
-0.6
 41
-30.0
 62
     5
 63
     7
421
 16777215
 74
     1
 91
        0
 64
     7
 65
   257
 75
     1
175
     1
 42
1.0
 92
        8
 66
     8
424
  7895160
 43
1.0
 76
     1
 77
     6
 78
     2
 67
     7
 79
     5
170
     0
171
     0
290
     0
174
     0
 93
       13
 44
0.0
173
     0
291
     0
 45
0.0
  0
VISUALSTYLE
  5
FD
102
{ACAD_REACTORS
330
F0
102
}
330
F0
100
AcDbVisualStyle
  2
Thicken
 70
    13
 71
     2
 72
     2
 73
     1
 90
        0
 40
-0.6
 41
-30.0
 62
     5
 63
     7
421
 16777215
 74
     1
 91
        4
 64
     7
 65
   257
 75
     1
175
     1
 42
1.0
 92
       12
 66
     7
 43
1.0
 76
     1
 77
     6
 78
     2
 67
     7
 79
     5
170
     0
171
     0
290
     0
174
     0
 93
        1
 44
0.0
173
     0
291
     1
 45
0.0
  0
DICTIONARYVAR
  5
84
102
{ACAD_REACTORS
330
5E
102
}
330
5E
100
DictionaryVariables
280
     0
  1
STANDARD
  0
DICTIONARYVAR
  5
5F
102
{ACAD_REACTORS
330
5E
102
}
330
5E
100
DictionaryVariables
280
     0
  1
2
  0
DICTIONARYVAR
  5
63
102
{ACAD_REACTORS
330
5E
102
}
330
5E
100
DictionaryVariables
280
     0
  1
1
  0
ENDSEC
  0
EOF
