  0
SECTION
  2
HEADER
  9
$ACADVER
  1
AC1021
  9
$ACADMAINTVER
 70
     1
  9
$DWGCODEPAGE
  3
ANSI_936
  9
$LASTSAVEDBY
  1
Administrator
  9
$INSBASE
 10
0.0
 20
0.0
 30
0.0
  9
$EXTMIN
 10
4166.94032862888
 20
702.7200447219374
 30
-0.0000000349181948
  9
$EXTMAX
 10
5017.405910334616
 20
1174.79865900106
 30
0.0000000814935746
  9
$LIMMIN
 10
0.0
 20
0.0
  9
$LIMMAX
 10
420.0
 20
297.0
  9
$ORTHOMODE
 70
     0
  9
$REGENMODE
 70
     1
  9
$FILLMODE
 70
     1
  9
$QTEXTMODE
 70
     0
  9
$MIRRTEXT
 70
     0
  9
$LTSCALE
 40
1.0
  9
$ATTMODE
 70
     1
  9
$TEXTSIZE
 40
2.5
  9
$TRACEWID
 40
1.0
  9
$TEXTSTYLE
  7
Standard
  9
$CLAYER
  8
0
  9
$CELTYPE
  6
ByLayer
  9
$CECOLOR
 62
   256
  9
$CELTSCALE
 40
1.0
  9
$DISPSILH
 70
     0
  9
$DIMSCALE
 40
1.0
  9
$DIMASZ
 40
2.5
  9
$DIMEXO
 40
0.625
  9
$DIMDLI
 40
3.75
  9
$DIMRND
 40
0.0
  9
$DIMDLE
 40
0.0
  9
$DIMEXE
 40
1.25
  9
$DIMTP
 40
0.0
  9
$DIMTM
 40
0.0
  9
$DIMTXT
 40
2.5
  9
$DIMCEN
 40
2.5
  9
$DIMTSZ
 40
0.0
  9
$DIMTOL
 70
     0
  9
$DIMLIM
 70
     0
  9
$DIMTIH
 70
     0
  9
$DIMTOH
 70
     0
  9
$DIMSE1
 70
     0
  9
$DIMSE2
 70
     0
  9
$DIMTAD
 70
     1
  9
$DIMZIN
 70
     8
  9
$DIMBLK
  1

  9
$DIMASO
 70
     1
  9
$DIMSHO
 70
     1
  9
$DIMPOST
  1

  9
$DIMAPOST
  1

  9
$DIMALT
 70
     0
  9
$DIMALTD
 70
     3
  9
$DIMALTF
 40
0.03937007874016
  9
$DIMLFAC
 40
1.0
  9
$DIMTOFL
 70
     1
  9
$DIMTVP
 40
0.0
  9
$DIMTIX
 70
     0
  9
$DIMSOXD
 70
     0
  9
$DIMSAH
 70
     0
  9
$DIMBLK1
  1

  9
$DIMBLK2
  1

  9
$DIMSTYLE
  2
ISO-25
  9
$DIMCLRD
 70
     0
  9
$DIMCLRE
 70
     0
  9
$DIMCLRT
 70
     0
  9
$DIMTFAC
 40
1.0
  9
$DIMGAP
 40
0.625
  9
$DIMJUST
 70
     0
  9
$DIMSD1
 70
     0
  9
$DIMSD2
 70
     0
  9
$DIMTOLJ
 70
     0
  9
$DIMTZIN
 70
     8
  9
$DIMALTZ
 70
     0
  9
$DIMALTTZ
 70
     0
  9
$DIMUPT
 70
     0
  9
$DIMDEC
 70
     2
  9
$DIMTDEC
 70
     2
  9
$DIMALTU
 70
     2
  9
$DIMALTTD
 70
     3
  9
$DIMTXSTY
  7
Standard
  9
$DIMAUNIT
 70
     0
  9
$DIMADEC
 70
     0
  9
$DIMALTRND
 40
0.0
  9
$DIMAZIN
 70
     0
  9
$DIMDSEP
 70
    44
  9
$DIMATFIT
 70
     3
  9
$DIMFRAC
 70
     0
  9
$DIMLDRBLK
  1

  9
$DIMLUNIT
 70
     2
  9
$DIMLWD
 70
    -2
  9
$DIMLWE
 70
    -2
  9
$DIMTMOVE
 70
     0
  9
$DIMFXL
 40
1.0
  9
$DIMFXLON
 70
     0
  9
$DIMJOGANG
 40
0.7853981633974483
  9
$DIMTFILL
 70
     0
  9
$DIMTFILLCLR
 70
     0
  9
$DIMARCSYM
 70
     0
  9
$DIMLTYPE
  6

  9
$DIMLTEX1
  6

  9
$DIMLTEX2
  6

  9
$LUNITS
 70
     2
  9
$LUPREC
 70
     4
  9
$SKETCHINC
 40
1.0
  9
$FILLETRAD
 40
0.0
  9
$AUNITS
 70
     0
  9
$AUPREC
 70
     0
  9
$MENU
  1
.
  9
$ELEVATION
 40
0.0
  9
$PELEVATION
 40
0.0
  9
$THICKNESS
 40
0.0
  9
$LIMCHECK
 70
     0
  9
$CHAMFERA
 40
0.0
  9
$CHAMFERB
 40
0.0
  9
$CHAMFERC
 40
0.0
  9
$CHAMFERD
 40
0.0
  9
$SKPOLY
 70
     0
  9
$TDCREATE
 40
2458664.574196528
  9
$TDUCREATE
 40
2458664.240863194
  9
$TDUPDATE
 40
2458664.588106794
  9
$TDUUPDATE
 40
2458664.254773461
  9
$TDINDWG
 40
0.0138482870
  9
$TDUSRTIMER
 40
0.0138482639
  9
$USRTIMER
 70
     1
  9
$ANGBASE
 50
0.0
  9
$ANGDIR
 70
     0
  9
$PDMODE
 70
     0
  9
$PDSIZE
 40
0.0
  9
$PLINEWID
 40
0.0
  9
$SPLFRAME
 70
     0
  9
$SPLINETYPE
 70
     6
  9
$SPLINESEGS
 70
     8
  9
$HANDSEED
  5
457
  9
$SURFTAB1
 70
     6
  9
$SURFTAB2
 70
     6
  9
$SURFTYPE
 70
     6
  9
$SURFU
 70
     6
  9
$SURFV
 70
     6
  9
$UCSBASE
  2

  9
$UCSNAME
  2

  9
$UCSORG
 10
0.0
 20
0.0
 30
0.0
  9
$UCSXDIR
 10
1.0
 20
0.0
 30
0.0
  9
$UCSYDIR
 10
0.0
 20
1.0
 30
0.0
  9
$UCSORTHOREF
  2

  9
$UCSORTHOVIEW
 70
     0
  9
$UCSORGTOP
 10
0.0
 20
0.0
 30
0.0
  9
$UCSORGBOTTOM
 10
0.0
 20
0.0
 30
0.0
  9
$UCSORGLEFT
 10
0.0
 20
0.0
 30
0.0
  9
$UCSORGRIGHT
 10
0.0
 20
0.0
 30
0.0
  9
$UCSORGFRONT
 10
0.0
 20
0.0
 30
0.0
  9
$UCSORGBACK
 10
0.0
 20
0.0
 30
0.0
  9
$PUCSBASE
  2

  9
$PUCSNAME
  2

  9
$PUCSORG
 10
0.0
 20
0.0
 30
0.0
  9
$PUCSXDIR
 10
1.0
 20
0.0
 30
0.0
  9
$PUCSYDIR
 10
0.0
 20
1.0
 30
0.0
  9
$PUCSORTHOREF
  2

  9
$PUCSORTHOVIEW
 70
     0
  9
$PUCSORGTOP
 10
0.0
 20
0.0
 30
0.0
  9
$PUCSORGBOTTOM
 10
0.0
 20
0.0
 30
0.0
  9
$PUCSORGLEFT
 10
0.0
 20
0.0
 30
0.0
  9
$PUCSORGRIGHT
 10
0.0
 20
0.0
 30
0.0
  9
$PUCSORGFRONT
 10
0.0
 20
0.0
 30
0.0
  9
$PUCSORGBACK
 10
0.0
 20
0.0
 30
0.0
  9
$USERI1
 70
     0
  9
$USERI2
 70
     0
  9
$USERI3
 70
     0
  9
$USERI4
 70
     0
  9
$USERI5
 70
     0
  9
$USERR1
 40
0.0
  9
$USERR2
 40
0.0
  9
$USERR3
 40
0.0
  9
$USERR4
 40
0.0
  9
$USERR5
 40
0.0
  9
$WORLDVIEW
 70
     1
  9
$SHADEDGE
 70
     3
  9
$SHADEDIF
 70
    70
  9
$TILEMODE
 70
     1
  9
$MAXACTVP
 70
    64
  9
$PINSBASE
 10
0.0
 20
0.0
 30
0.0
  9
$PLIMCHECK
 70
     0
  9
$PEXTMIN
 10
0.0
 20
0.0
 30
0.0
  9
$PEXTMAX
 10
0.0
 20
0.0
 30
0.0
  9
$PLIMMIN
 10
0.0
 20
0.0
  9
$PLIMMAX
 10
12.0
 20
9.0
  9
$UNITMODE
 70
     0
  9
$VISRETAIN
 70
     1
  9
$PLINEGEN
 70
     0
  9
$PSLTSCALE
 70
     1
  9
$TREEDEPTH
 70
  3020
  9
$CMLSTYLE
  2
Standard
  9
$CMLJUST
 70
     0
  9
$CMLSCALE
 40
20.0
  9
$PROXYGRAPHICS
 70
     1
  9
$MEASUREMENT
 70
     1
  9
$CELWEIGHT
370
    -1
  9
$ENDCAPS
280
     0
  9
$JOINSTYLE
280
     0
  9
$LWDISPLAY
290
     0
  9
$INSUNITS
 70
     4
  9
$HYPERLINKBASE
  1

  9
$STYLESHEET
  1

  9
$XEDIT
290
     1
  9
$CEPSNTYPE
380
     0
  9
$PSTYLEMODE
290
     1
  9
$FINGERPRINTGUID
  2
{3280A54A-0D4D-4235-9E87-8FDE41611644}
  9
$VERSIONGUID
  2
{5F780DF9-71A9-4717-99B3-4C88EDBCC2C3}
  9
$EXTNAMES
290
     1
  9
$PSVPSCALE
 40
0.0
  9
$OLESTARTUP
290
     0
  9
$SORTENTS
280
   127
  9
$INDEXCTL
280
     0
  9
$HIDETEXT
280
     1
  9
$XCLIPFRAME
290
     0
  9
$HALOGAP
280
     0
  9
$OBSCOLOR
 70
   257
  9
$OBSLTYPE
280
     0
  9
$INTERSECTIONDISPLAY
280
     0
  9
$INTERSECTIONCOLOR
 70
   257
  9
$DIMASSOC
280
     2
  9
$PROJECTNAME
  1

  9
$CAMERADISPLAY
290
     0
  9
$LENSLENGTH
 40
50.0
  9
$CAMERAHEIGHT
 40
0.0
  9
$STEPSPERSEC
 40
2.0
  9
$STEPSIZE
 40
6.0
  9
$3DDWFPREC
 40
2.0
  9
$PSOLWIDTH
 40
5.0
  9
$PSOLHEIGHT
 40
80.0
  9
$LOFTANG1
 40
1.570796326794896
  9
$LOFTANG2
 40
1.570796326794896
  9
$LOFTMAG1
 40
0.0
  9
$LOFTMAG2
 40
0.0
  9
$LOFTPARAM
 70
     7
  9
$LOFTNORMALS
280
     1
  9
$LATITUDE
 40
37.795
  9
$LONGITUDE
 40
-122.394
  9
$NORTHDIRECTION
 40
0.0
  9
$TIMEZONE
 70
 -8000
  9
$LIGHTGLYPHDISPLAY
280
     1
  9
$TILEMODELIGHTSYNCH
280
     1
  9
$CMATERIAL
347
ED
  9
$SOLIDHIST
280
     1
  9
$SHOWHIST
280
     1
  9
$DWFFRAME
280
     2
  9
$DGNFRAME
280
     0
  9
$REALWORLDSCALE
290
     1
  9
$INTERFERECOLOR
 62
     1
  9
$INTERFEREOBJVS
345
FA
  9
$INTERFEREVPVS
346
F7
  9
$CSHADOW
280
     0
  9
$SHADOWPLANELOCATION
 40
0.0
  0
ENDSEC
  0
SECTION
  2
CLASSES
  0
CLASS
  1
ACDBDICTIONARYWDFLT
  2
AcDbDictionaryWithDefault
  3
ObjectDBX Classes
 90
        0
 91
        1
280
     0
281
     0
  0
CLASS
  1
DICTIONARYVAR
  2
AcDbDictionaryVar
  3
ObjectDBX Classes
 90
        0
 91
        3
280
     0
281
     0
  0
CLASS
  1
TABLESTYLE
  2
AcDbTableStyle
  3
ObjectDBX Classes
 90
     4095
 91
        1
280
     0
281
     0
  0
CLASS
  1
MATERIAL
  2
AcDbMaterial
  3
ObjectDBX Classes
 90
     1024
 91
        3
280
     0
281
     0
  0
CLASS
  1
VISUALSTYLE
  2
AcDbVisualStyle
  3
ObjectDBX Classes
 90
     4095
 91
       16
280
     0
281
     0
  0
CLASS
  1
DIMASSOC
  2
AcDbDimAssoc
  3
"AcDbDimAssoc|Product Desc:     AcDim ARX App For Dimension|Company:          Autodesk, Inc.|WEB Address:      www.autodesk.com"
 90
        0
 91
       39
280
     0
281
     0
  0
ENDSEC
  0
SECTION
  2
TABLES
  0
TABLE
  2
VPORT
  5
8
330
0
100
AcDbSymbolTable
 70
     1
  0
VPORT
  5
EB
330
8
100
AcDbSymbolTableRecord
100
AcDbViewportTableRecord
  2
*Active
 70
     0
 10
0.0
 20
0.0
 11
1.0
 21
1.0
 12
4592.173119481748
 22
938.7593518614989
 13
0.0
 23
0.0
 14
10.0
 24
10.0
 15
10.0
 25
10.0
 16
0.0
 26
0.0
 36
1.0
 17
0.0
 27
0.0
 37
0.0
 40
476.5674759045981
 41
2.153968253968253
 42
50.0
 43
0.0
 44
0.0
 50
0.0
 51
0.0
 71
     0
 72
  1000
 73
     1
 74
     3
 75
     0
 76
     0
 77
     0
 78
     0
281
     0
 65
     1
110
0.0
120
0.0
130
0.0
111
1.0
121
0.0
131
0.0
112
0.0
122
1.0
132
0.0
 79
     0
146
0.0
348
F6
 60
     2
 61
     5
292
     1
282
     1
141
0.0
142
0.0
 63
   250
421
  3355443
  0
ENDTAB
  0
TABLE
  2
LTYPE
  5
5
330
0
100
AcDbSymbolTable
 70
     1
  0
LTYPE
  5
14
330
5
100
AcDbSymbolTableRecord
100
AcDbLinetypeTableRecord
  2
ByBlock
 70
     0
  3

 72
    65
 73
     0
 40
0.0
  0
LTYPE
  5
15
330
5
100
AcDbSymbolTableRecord
100
AcDbLinetypeTableRecord
  2
ByLayer
 70
     0
  3

 72
    65
 73
     0
 40
0.0
  0
LTYPE
  5
16
330
5
100
AcDbSymbolTableRecord
100
AcDbLinetypeTableRecord
  2
Continuous
 70
     0
  3
Solid line
 72
    65
 73
     0
 40
0.0
  0
ENDTAB
  0
TABLE
  2
LAYER
  5
2
102
{ACAD_XDICTIONARY
360
14E
102
}
330
0
100
AcDbSymbolTable
 70
    11
  0
LAYER
  5
10
330
2
100
AcDbSymbolTableRecord
100
AcDbLayerTableRecord
  2
0
 70
     0
 62
     7
  6
Continuous
370
    -3
390
F
347
EF
  0
LAYER
  5
123
330
2
100
AcDbSymbolTableRecord
100
AcDbLayerTableRecord
  2
layer2
 70
     0
 62
     1
  6
Continuous
370
    -3
390
F
347
EF
  0
LAYER
  5
124
330
2
100
AcDbSymbolTableRecord
100
AcDbLayerTableRecord
  2
layer3
 70
     0
 62
     2
  6
Continuous
370
    -3
390
F
347
EF
  0
LAYER
  5
125
330
2
100
AcDbSymbolTableRecord
100
AcDbLayerTableRecord
  2
layer4
 70
     0
 62
     3
  6
Continuous
370
    -3
390
F
347
EF
  0
LAYER
  5
126
330
2
100
AcDbSymbolTableRecord
100
AcDbLayerTableRecord
  2
layer5
 70
     0
 62
     5
  6
Continuous
370
    -3
390
F
347
EF
  0
LAYER
  5
127
330
2
100
AcDbSymbolTableRecord
100
AcDbLayerTableRecord
  2
layer6
 70
     0
 62
   140
  6
Continuous
370
    -3
390
F
347
EF
  0
LAYER
  5
128
330
2
100
AcDbSymbolTableRecord
100
AcDbLayerTableRecord
  2
layer7
 70
     0
 62
    30
  6
Continuous
370
    -3
390
F
347
EF
  0
LAYER
  5
129
330
2
100
AcDbSymbolTableRecord
100
AcDbLayerTableRecord
  2
layer8
 70
     0
 62
    60
  6
Continuous
370
    -3
390
F
347
EF
  0
LAYER
  5
12A
330
2
100
AcDbSymbolTableRecord
100
AcDbLayerTableRecord
  2
layer9
 70
     0
 62
   210
  6
Continuous
370
    -3
390
F
347
EF
  0
LAYER
  5
14B
330
2
100
AcDbSymbolTableRecord
100
AcDbLayerTableRecord
  2
Defpoints
 70
     0
 62
    24
  6
Continuous
290
     0
370
    -3
390
F
347
EF
  0
LAYER
  5
14C
330
2
100
AcDbSymbolTableRecord
100
AcDbLayerTableRecord
  2
2上模
 70
     0
 62
     1
  6
Continuous
370
    40
390
F
347
EF
  0
ENDTAB
  0
TABLE
  2
STYLE
  5
3
330
0
100
AcDbSymbolTable
 70
     1
  0
STYLE
  5
11
330
3
100
AcDbSymbolTableRecord
100
AcDbTextStyleTableRecord
  2
Standard
 70
     0
 40
0.0
 41
1.0
 50
0.0
 71
     0
 42
2.5
  3
simfang.ttf
  4

1001
ACAD
1000
FangSong
1071
    34353
  0
ENDTAB
  0
TABLE
  2
VIEW
  5
6
330
0
100
AcDbSymbolTable
 70
     0
  0
ENDTAB
  0
TABLE
  2
UCS
  5
7
330
0
100
AcDbSymbolTable
 70
     0
  0
ENDTAB
  0
TABLE
  2
APPID
  5
9
330
0
100
AcDbSymbolTable
 70
     2
  0
APPID
  5
12
330
9
100
AcDbSymbolTableRecord
100
AcDbRegAppTableRecord
  2
ACAD
 70
     0
  0
APPID
  5
9E
330
9
100
AcDbSymbolTableRecord
100
AcDbRegAppTableRecord
  2
ACAD_PSEXT
 70
     0
  0
ENDTAB
  0
TABLE
  2
DIMSTYLE
  5
A
330
0
100
AcDbSymbolTable
 70
     2
100
AcDbDimStyleTable
 71
     1
340
27
  0
DIMSTYLE
105
27
330
A
100
AcDbSymbolTableRecord
100
AcDbDimStyleTableRecord
  2
ISO-25
 70
     0
 41
2.5
 42
0.625
 43
3.75
 44
1.25
 73
     0
 74
     0
 77
     1
 78
     8
140
2.5
141
2.5
143
0.03937007874016
147
0.625
171
     3
172
     1
271
     2
272
     2
274
     3
278
    44
283
     0
284
     8
340
11
  0
DIMSTYLE
105
14D
102
{ACAD_REACTORS
330
428
330
42C
330
42F
102
}
330
A
100
AcDbSymbolTableRecord
100
AcDbDimStyleTableRecord
  2
usally
 70
     0
 41
22.0
 42
2.0
 43
5.0
 44
1.25
 73
     0
 74
     0
 77
     1
 78
     9
 79
     2
140
25.4
141
0.0
147
0.5
172
     1
176
   104
177
   104
178
   200
179
     2
271
     2
272
     2
340
11
371
     9
372
     9
  0
ENDTAB
  0
TABLE
  2
BLOCK_RECORD
  5
1
330
0
100
AcDbSymbolTable
 70
    55
  0
BLOCK_RECORD
  5
1F
330
1
100
AcDbSymbolTableRecord
100
AcDbBlockTableRecord
  2
*Model_Space
340
22
 70
     0
280
     1
281
     0
  0
BLOCK_RECORD
  5
D2
330
1
100
AcDbSymbolTableRecord
100
AcDbBlockTableRecord
  2
*Paper_Space
340
D3
 70
     0
280
     1
281
     0
  0
BLOCK_RECORD
  5
D6
330
1
100
AcDbSymbolTableRecord
100
AcDbBlockTableRecord
  2
*Paper_Space0
340
D7
 70
     0
280
     1
281
     0
  0
BLOCK_RECORD
  5
1D8
330
1
100
AcDbSymbolTableRecord
100
AcDbBlockTableRecord
  2
*D10
340
0
 70
     0
280
     1
281
     0
  0
BLOCK_RECORD
  5
1E4
330
1
100
AcDbSymbolTableRecord
100
AcDbBlockTableRecord
  2
*D11
340
0
 70
     0
280
     1
281
     0
  0
BLOCK_RECORD
  5
1F0
330
1
100
AcDbSymbolTableRecord
100
AcDbBlockTableRecord
  2
*D12
340
0
 70
     0
280
     1
281
     0
  0
BLOCK_RECORD
  5
20B
330
1
100
AcDbSymbolTableRecord
100
AcDbBlockTableRecord
  2
*D13
340
0
 70
     0
280
     1
281
     0
  0
BLOCK_RECORD
  5
217
330
1
100
AcDbSymbolTableRecord
100
AcDbBlockTableRecord
  2
*D14
340
0
 70
     0
280
     1
281
     0
  0
BLOCK_RECORD
  5
223
330
1
100
AcDbSymbolTableRecord
100
AcDbBlockTableRecord
  2
*D15
340
0
 70
     0
280
     1
281
     0
  0
BLOCK_RECORD
  5
245
330
1
100
AcDbSymbolTableRecord
100
AcDbBlockTableRecord
  2
*D17
340
0
 70
     0
280
     1
281
     0
  0
BLOCK_RECORD
  5
251
330
1
100
AcDbSymbolTableRecord
100
AcDbBlockTableRecord
  2
*D18
340
0
 70
     0
280
     1
281
     0
  0
BLOCK_RECORD
  5
25D
330
1
100
AcDbSymbolTableRecord
100
AcDbBlockTableRecord
  2
*D19
340
0
 70
     0
280
     1
281
     0
  0
BLOCK_RECORD
  5
27C
330
1
100
AcDbSymbolTableRecord
100
AcDbBlockTableRecord
  2
*D20
340
0
 70
     0
280
     1
281
     0
  0
BLOCK_RECORD
  5
284
330
1
100
AcDbSymbolTableRecord
100
AcDbBlockTableRecord
  2
*D21
340
0
 70
     0
280
     1
281
     0
  0
BLOCK_RECORD
  5
290
330
1
100
AcDbSymbolTableRecord
100
AcDbBlockTableRecord
  2
*D22
340
0
 70
     0
280
     1
281
     0
  0
BLOCK_RECORD
  5
2B6
330
1
100
AcDbSymbolTableRecord
100
AcDbBlockTableRecord
  2
*D24
340
0
 70
     0
280
     1
281
     0
  0
BLOCK_RECORD
  5
2BE
330
1
100
AcDbSymbolTableRecord
100
AcDbBlockTableRecord
  2
*D25
340
0
 70
     0
280
     1
281
     0
  0
BLOCK_RECORD
  5
2CA
330
1
100
AcDbSymbolTableRecord
100
AcDbBlockTableRecord
  2
*D26
340
0
 70
     0
280
     1
281
     0
  0
BLOCK_RECORD
  5
2DB
330
1
100
AcDbSymbolTableRecord
100
AcDbBlockTableRecord
  2
*D27
340
0
 70
     0
280
     1
281
     0
  0
BLOCK_RECORD
  5
2E3
330
1
100
AcDbSymbolTableRecord
100
AcDbBlockTableRecord
  2
*D28
340
0
 70
     0
280
     1
281
     0
  0
BLOCK_RECORD
  5
2EF
330
1
100
AcDbSymbolTableRecord
100
AcDbBlockTableRecord
  2
*D29
340
0
 70
     0
280
     1
281
     0
  0
BLOCK_RECORD
  5
315
330
1
100
AcDbSymbolTableRecord
100
AcDbBlockTableRecord
  2
*D31
340
0
 70
     0
280
     1
281
     0
  0
BLOCK_RECORD
  5
31D
330
1
100
AcDbSymbolTableRecord
100
AcDbBlockTableRecord
  2
*D32
340
0
 70
     0
280
     1
281
     0
  0
BLOCK_RECORD
  5
329
330
1
100
AcDbSymbolTableRecord
100
AcDbBlockTableRecord
  2
*D33
340
0
 70
     0
280
     1
281
     0
  0
BLOCK_RECORD
  5
33A
330
1
100
AcDbSymbolTableRecord
100
AcDbBlockTableRecord
  2
*D34
340
0
 70
     0
280
     1
281
     0
  0
BLOCK_RECORD
  5
342
330
1
100
AcDbSymbolTableRecord
100
AcDbBlockTableRecord
  2
*D35
340
0
 70
     0
280
     1
281
     0
  0
BLOCK_RECORD
  5
34E
330
1
100
AcDbSymbolTableRecord
100
AcDbBlockTableRecord
  2
*D36
340
0
 70
     0
280
     1
281
     0
  0
BLOCK_RECORD
  5
374
330
1
100
AcDbSymbolTableRecord
100
AcDbBlockTableRecord
  2
*D38
340
0
 70
     0
280
     1
281
     0
  0
BLOCK_RECORD
  5
37C
330
1
100
AcDbSymbolTableRecord
100
AcDbBlockTableRecord
  2
*D39
340
0
 70
     0
280
     1
281
     0
  0
BLOCK_RECORD
  5
388
330
1
100
AcDbSymbolTableRecord
100
AcDbBlockTableRecord
  2
*D40
340
0
 70
     0
280
     1
281
     0
  0
BLOCK_RECORD
  5
399
330
1
100
AcDbSymbolTableRecord
100
AcDbBlockTableRecord
  2
*D41
340
0
 70
     0
280
     1
281
     0
  0
BLOCK_RECORD
  5
3A1
330
1
100
AcDbSymbolTableRecord
100
AcDbBlockTableRecord
  2
*D42
340
0
 70
     0
280
     1
281
     0
  0
BLOCK_RECORD
  5
3AD
330
1
100
AcDbSymbolTableRecord
100
AcDbBlockTableRecord
  2
*D43
340
0
 70
     0
280
     1
281
     0
  0
BLOCK_RECORD
  5
3D3
330
1
100
AcDbSymbolTableRecord
100
AcDbBlockTableRecord
  2
*D45
340
0
 70
     0
280
     1
281
     0
  0
BLOCK_RECORD
  5
3DB
330
1
100
AcDbSymbolTableRecord
100
AcDbBlockTableRecord
  2
*D46
340
0
 70
     0
280
     1
281
     0
  0
BLOCK_RECORD
  5
3E7
330
1
100
AcDbSymbolTableRecord
100
AcDbBlockTableRecord
  2
*D47
340
0
 70
     0
280
     1
281
     0
  0
BLOCK_RECORD
  5
3F8
330
1
100
AcDbSymbolTableRecord
100
AcDbBlockTableRecord
  2
*D48
340
0
 70
     0
280
     1
281
     0
  0
BLOCK_RECORD
  5
400
330
1
100
AcDbSymbolTableRecord
100
AcDbBlockTableRecord
  2
*D49
340
0
 70
     0
280
     1
281
     0
  0
BLOCK_RECORD
  5
40C
330
1
100
AcDbSymbolTableRecord
100
AcDbBlockTableRecord
  2
*D50
340
0
 70
     0
280
     1
281
     0
  0
BLOCK_RECORD
  5
432
330
1
100
AcDbSymbolTableRecord
100
AcDbBlockTableRecord
  2
*D52
340
0
 70
     0
280
     1
281
     0
  0
BLOCK_RECORD
  5
43A
330
1
100
AcDbSymbolTableRecord
100
AcDbBlockTableRecord
  2
*D53
340
0
 70
     0
280
     1
281
     0
  0
BLOCK_RECORD
  5
446
330
1
100
AcDbSymbolTableRecord
100
AcDbBlockTableRecord
  2
*D54
340
0
 70
     0
280
     1
281
     0
  0
ENDTAB
  0
ENDSEC
  0
SECTION
  2
BLOCKS
  0
BLOCK
  5
20
330
1F
100
AcDbEntity
  8
0
100
AcDbBlockBegin
  2
*Model_Space
 70
     0
 10
0.0
 20
0.0
 30
0.0
  3
*Model_Space
  1

  0
ENDBLK
  5
21
330
1F
100
AcDbEntity
  8
0
100
AcDbBlockEnd
  0
BLOCK
  5
D4
330
D2
100
AcDbEntity
 67
     1
  8
0
100
AcDbBlockBegin
  2
*Paper_Space
 70
     0
 10
0.0
 20
0.0
 30
0.0
  3
*Paper_Space
  1

  0
ENDBLK
  5
D5
330
D2
100
AcDbEntity
 67
     1
  8
0
100
AcDbBlockEnd
  0
BLOCK
  5
D8
330
D6
100
AcDbEntity
 67
     1
  8
0
100
AcDbBlockBegin
  2
*Paper_Space0
 70
     0
 10
0.0
 20
0.0
 30
0.0
  3
*Paper_Space0
  1

  0
ENDBLK
  5
D9
330
D6
100
AcDbEntity
 67
     1
  8
0
100
AcDbBlockEnd
  0
BLOCK
  5
1E2
330
1D8
100
AcDbEntity
  8
0
100
AcDbBlockBegin
  2
*D10
 70
     1
 10
0.0
 20
0.0
 30
0.0
  3
*D10
  1

  0
LINE
  5
1F8
330
1D8
100
AcDbEntity
  8
2上模
 62
   104
 48
0.6
370
     9
100
AcDbLine
 10
888.2640862738069
 20
906.6877521627512
 30
0.0
 11
888.2640862738069
 21
1005.38395801542
 31
0.0
  0
LINE
  5
1F9
330
1D8
100
AcDbEntity
  8
2上模
 62
   104
 48
0.6
370
     9
100
AcDbLine
 10
1214.264086273691
 20
906.6877521627793
 30
0.0
 11
1214.264086273691
 21
1005.38395801542
 31
0.0
  0
LINE
  5
1FA
330
1D8
100
AcDbEntity
  8
2上模
 62
   104
 48
0.6
370
     9
100
AcDbLine
 10
898.2640862738069
 20
1004.13395801542
 30
0.0
 11
1204.264086273691
 21
1004.13395801542
 31
0.0
  0
SOLID
  5
1FB
330
1D8
100
AcDbEntity
  8
2上模
 62
   104
 48
0.6
100
AcDbTrace
 10
898.2640862738069
 20
1005.800624682086
 30
0.0
 11
898.2640862738069
 21
1002.467291348753
 31
0.0
 12
888.2640862738069
 22
1004.13395801542
 32
0.0
 13
888.2640862738069
 23
1004.13395801542
 33
0.0
  0
SOLID
  5
1FC
330
1D8
100
AcDbEntity
  8
2上模
 62
   104
 48
0.6
100
AcDbTrace
 10
1204.264086273691
 20
1005.800624682086
 30
0.0
 11
1204.264086273691
 21
1002.467291348753
 31
0.0
 12
1214.264086273691
 22
1004.13395801542
 32
0.0
 13
1214.264086273691
 23
1004.13395801542
 33
0.0
  0
MTEXT
  5
1FD
330
1D8
100
AcDbEntity
  8
2上模
 62
   200
 48
0.6
370
    25
100
AcDbMText
 10
1051.264086273749
 20
1014.148243729706
 30
0.0
 40
15.0
 41
0.0
 46
0.0
 71
     5
 72
     1
  1
\A1;326 [12.83”]
 73
     1
 44
1.0
  0
POINT
  5
1FE
330
1D8
100
AcDbEntity
  8
Defpoints
 62
     0
 48
0.6
100
AcDbPoint
 10
888.2640862738069
 20
904.6877521627511
 30
0.0
  0
POINT
  5
1FF
330
1D8
100
AcDbEntity
  8
Defpoints
 62
     0
 48
0.6
100
AcDbPoint
 10
1214.264086273691
 20
904.6877521627793
 30
0.0
  0
POINT
  5
200
330
1D8
100
AcDbEntity
  8
Defpoints
 62
     0
 48
0.6
100
AcDbPoint
 10
1214.264086273691
 20
1004.13395801542
 30
0.0
  0
ENDBLK
  5
1E3
330
1D8
100
AcDbEntity
  8
0
100
AcDbBlockEnd
  0
BLOCK
  5
1EE
330
1E4
100
AcDbEntity
  8
0
100
AcDbBlockBegin
  2
*D11
 70
     1
 10
0.0
 20
0.0
 30
0.0
  3
*D11
  1

  0
LINE
  5
1E5
330
1E4
100
AcDbEntity
  8
2上模
 62
   104
 48
0.6
370
     9
100
AcDbLine
 10
1167.125891999675
 20
948.490322358155
 30
0.0
 11
1306.782590593312
 21
948.4903223581548
 31
0.0
  0
LINE
  5
1E6
330
1E4
100
AcDbEntity
  8
2上模
 62
   104
 48
0.6
370
     9
100
AcDbLine
 10
1167.125891999675
 20
546.4903223581541
 30
0.0
 11
1306.782590593312
 21
546.490322358154
 31
0.0
  0
LINE
  5
1E7
330
1E4
100
AcDbEntity
  8
2上模
 62
   104
 48
0.6
370
     9
100
AcDbLine
 10
1305.532590593312
 20
938.4903223581549
 30
0.0
 11
1305.532590593312
 21
556.490322358154
 31
0.0
  0
SOLID
  5
1E8
330
1E4
100
AcDbEntity
  8
2上模
 62
   104
 48
0.6
100
AcDbTrace
 10
1303.865923926645
 20
938.4903223581549
 30
0.0
 11
1307.199257259978
 21
938.4903223581549
 31
0.0
 12
1305.532590593312
 22
948.4903223581548
 32
0.0
 13
1305.532590593312
 23
948.4903223581548
 33
0.0
  0
SOLID
  5
1E9
330
1E4
100
AcDbEntity
  8
2上模
 62
   104
 48
0.6
100
AcDbTrace
 10
1303.865923926645
 20
556.490322358154
 30
0.0
 11
1307.199257259978
 21
556.490322358154
 31
0.0
 12
1305.532590593312
 22
546.490322358154
 32
0.0
 13
1305.532590593312
 23
546.490322358154
 33
0.0
  0
MTEXT
  5
1EA
330
1E4
100
AcDbEntity
  8
2上模
 62
   200
 48
0.6
370
    25
100
AcDbMText
 10
1295.518304879026
 20
747.4903223581547
 30
0.0
 40
15.0
 41
0.0
 46
0.0
 71
     5
 72
     1
  1
\A1;402 [15.83”]
 11
0.0000000000000001
 21
1.0
 31
0.0
 73
     1
 44
1.0
  0
POINT
  5
1EB
330
1E4
100
AcDbEntity
  8
Defpoints
 62
     0
 48
0.6
100
AcDbPoint
 10
1165.125891999675
 20
948.490322358155
 30
0.0
  0
POINT
  5
1EC
330
1E4
100
AcDbEntity
  8
Defpoints
 62
     0
 48
0.6
100
AcDbPoint
 10
1165.125891999675
 20
546.4903223581541
 30
0.0
  0
POINT
  5
1ED
330
1E4
100
AcDbEntity
  8
Defpoints
 62
     0
 48
0.6
100
AcDbPoint
 10
1305.532590593312
 20
546.490322358154
 30
0.0
  0
ENDBLK
  5
1EF
330
1E4
100
AcDbEntity
  8
0
100
AcDbBlockEnd
  0
BLOCK
  5
1F6
330
1F0
100
AcDbEntity
  8
0
100
AcDbBlockBegin
  2
*D12
 70
     1
 10
0.0
 20
0.0
 30
0.0
  3
*D12
  1

  0
LINE
  5
201
330
1F0
100
AcDbEntity
  8
2上模
 62
   104
 48
0.6
370
     9
100
AcDbLine
 10
1002.641467921747
 20
664.559764348143
 30
0.0
 11
898.2640862738907
 21
556.4903223582407
 31
0.0
  0
MTEXT
  5
202
330
1F0
100
AcDbEntity
  8
2上模
 62
   200
 48
0.6
370
    25
100
AcDbMText
 10
947.3046207800109
 20
621.6805214576598
 30
0.0
 40
15.0
 41
0.0
 46
0.0
 71
     5
 72
     1
  1
\A1;R10 [R0.39”]
 11
0.6947132477969116
 21
0.7192868018638095
 31
0.0
 73
     1
 44
1.0
  0
SOLID
  5
203
330
1F0
100
AcDbEntity
  8
2上模
 62
   104
 48
0.6
100
AcDbTrace
 10
897.065274937451
 20
557.6481777712356
 30
0.0
 11
899.4628976103303
 21
555.3324669452459
 31
0.0
 12
891.3169537959216
 22
549.2974543396026
 32
0.0
 13
891.3169537959216
 23
549.2974543396026
 33
0.0
  0
POINT
  5
204
330
1F0
100
AcDbEntity
  8
Defpoints
 62
     0
 48
0.6
100
AcDbPoint
 10
891.3169537959216
 20
549.2974543396026
 30
0.0
  0
POINT
  5
205
330
1F0
100
AcDbEntity
  8
Defpoints
 62
     0
 48
0.6
100
AcDbPoint
 10
898.2640862738074
 20
556.4903223581545
 30
0.0
  0
ENDBLK
  5
1F7
330
1F0
100
AcDbEntity
  8
0
100
AcDbBlockEnd
  0
BLOCK
  5
20C
330
20B
100
AcDbEntity
  8
0
100
AcDbBlockBegin
  2
*D13
 70
     1
 10
0.0
 20
0.0
 30
0.0
  3
*D13
  1

  0
LINE
  5
20D
330
20B
100
AcDbEntity
  8
2上模
 62
   104
 48
0.6
370
     9
100
AcDbLine
 10
1899.462340239052
 20
7976.867858247247
 30
0.0
 11
1899.462340239052
 21
8056.453320490367
 31
0.0
  0
LINE
  5
20E
330
20B
100
AcDbEntity
  8
2上模
 62
   104
 48
0.6
370
     9
100
AcDbLine
 10
2606.462340238965
 20
7976.867858247306
 30
0.0
 11
2606.462340238965
 21
8056.453320490367
 31
0.0
  0
LINE
  5
20F
330
20B
100
AcDbEntity
  8
2上模
 62
   104
 48
0.6
370
     9
100
AcDbLine
 10
1909.462340239052
 20
8055.203320490369
 30
0.0
 11
2596.462340238965
 21
8055.203320490369
 31
0.0
  0
SOLID
  5
210
330
20B
100
AcDbEntity
  8
2上模
 62
   104
 48
0.6
100
AcDbTrace
 10
1909.462340239052
 20
8056.869987157035
 30
0.0
 11
1909.462340239052
 21
8053.536653823703
 31
0.0
 12
1899.462340239052
 22
8055.203320490369
 32
0.0
 13
1899.462340239052
 23
8055.203320490369
 33
0.0
  0
SOLID
  5
211
330
20B
100
AcDbEntity
  8
2上模
 62
   104
 48
0.6
100
AcDbTrace
 10
2596.462340238965
 20
8056.869987157035
 30
0.0
 11
2596.462340238965
 21
8053.536653823703
 31
0.0
 12
2606.462340238965
 22
8055.203320490369
 32
0.0
 13
2606.462340238965
 23
8055.203320490369
 33
0.0
  0
MTEXT
  5
212
330
20B
100
AcDbEntity
  8
2上模
 62
   200
 48
0.6
370
    25
100
AcDbMText
 10
2252.962340239009
 20
8063.616923431546
 30
0.0
 40
15.0
 41
0.0
 46
0.0
 71
     5
 72
     1
  1
\A1;707 [27.83”]
 73
     1
 44
1.0
  0
POINT
  5
213
330
20B
100
AcDbEntity
  8
Defpoints
 62
     0
 48
0.6
100
AcDbPoint
 10
1899.462340239052
 20
7974.867858247249
 30
0.0
  0
POINT
  5
214
330
20B
100
AcDbEntity
  8
Defpoints
 62
     0
 48
0.6
100
AcDbPoint
 10
2606.462340238965
 20
7974.867858247306
 30
0.0
  0
POINT
  5
215
330
20B
100
AcDbEntity
  8
Defpoints
 62
     0
 48
0.6
100
AcDbPoint
 10
2606.462340238965
 20
8055.203320490369
 30
0.0
  0
ENDBLK
  5
216
330
20B
100
AcDbEntity
  8
0
100
AcDbBlockEnd
  0
BLOCK
  5
218
330
217
100
AcDbEntity
  8
0
100
AcDbBlockBegin
  2
*D14
 70
     1
 10
0.0
 20
0.0
 30
0.0
  3
*D14
  1

  0
LINE
  5
219
330
217
100
AcDbEntity
  8
2上模
 62
   104
 48
0.6
370
     9
100
AcDbLine
 10
2581.643912251948
 20
7998.3605895965
 30
0.0
 11
2666.09790506883
 21
7998.3605895965
 31
0.0
  0
LINE
  5
21A
330
217
100
AcDbEntity
  8
2上模
 62
   104
 48
0.6
370
     9
100
AcDbLine
 10
2581.643912251948
 20
7596.360589596499
 30
0.0
 11
2666.09790506883
 21
7596.360589596499
 31
0.0
  0
LINE
  5
21B
330
217
100
AcDbEntity
  8
2上模
 62
   104
 48
0.6
370
     9
100
AcDbLine
 10
2664.84790506883
 20
7988.360589596499
 30
0.0
 11
2664.84790506883
 21
7606.3605895965
 31
0.0
  0
SOLID
  5
21C
330
217
100
AcDbEntity
  8
2上模
 62
   104
 48
0.6
100
AcDbTrace
 10
2663.181238402164
 20
7988.360589596499
 30
0.0
 11
2666.514571735496
 21
7988.360589596499
 31
0.0
 12
2664.84790506883
 22
7998.3605895965
 32
0.0
 13
2664.84790506883
 23
7998.3605895965
 33
0.0
  0
SOLID
  5
21D
330
217
100
AcDbEntity
  8
2上模
 62
   104
 48
0.6
100
AcDbTrace
 10
2663.181238402164
 20
7606.3605895965
 30
0.0
 11
2666.514571735496
 21
7606.3605895965
 31
0.0
 12
2664.84790506883
 22
7596.360589596499
 32
0.0
 13
2664.84790506883
 23
7596.360589596499
 33
0.0
  0
MTEXT
  5
21E
330
217
100
AcDbEntity
  8
2上模
 62
   200
 48
0.6
370
    25
100
AcDbMText
 10
2656.434302127652
 20
7797.3605895965
 30
0.0
 40
15.0
 41
0.0
 46
0.0
 71
     5
 72
     1
  1
\A1;402 [15.83”]
 11
0.0000000000000001
 21
1.0
 31
0.0
 73
     1
 44
1.0
  0
POINT
  5
21F
330
217
100
AcDbEntity
  8
Defpoints
 62
     0
 48
0.6
100
AcDbPoint
 10
2579.643912251949
 20
7998.3605895965
 30
0.0
  0
POINT
  5
220
330
217
100
AcDbEntity
  8
Defpoints
 62
     0
 48
0.6
100
AcDbPoint
 10
2579.643912251949
 20
7596.360589596499
 30
0.0
  0
POINT
  5
221
330
217
100
AcDbEntity
  8
Defpoints
 62
     0
 48
0.6
100
AcDbPoint
 10
2664.84790506883
 20
7596.360589596499
 30
0.0
  0
ENDBLK
  5
222
330
217
100
AcDbEntity
  8
0
100
AcDbBlockEnd
  0
BLOCK
  5
224
330
223
100
AcDbEntity
  8
0
100
AcDbBlockBegin
  2
*D15
 70
     1
 10
0.0
 20
0.0
 30
0.0
  3
*D15
  1

  0
LINE
  5
225
330
223
100
AcDbEntity
  8
2上模
 62
   104
 48
0.6
370
     9
100
AcDbLine
 10
2029.293478669165
 20
7699.741083112009
 30
0.0
 11
1909.462340239043
 21
7606.36058959649
 31
0.0
  0
MTEXT
  5
226
330
223
100
AcDbEntity
  8
2上模
 62
   200
 48
0.6
370
    25
100
AcDbMText
 10
1968.150212073888
 20
7662.760701111001
 30
0.0
 40
15.0
 41
0.0
 46
0.0
 71
     5
 72
     1
  1
\A1;R10 [R0.39”]
 11
0.7887824803492887
 21
0.6146724320270302
 31
0.0
 73
     1
 44
1.0
  0
SOLID
  5
227
330
223
100
AcDbEntity
  8
2上模
 62
   104
 48
0.6
100
AcDbTrace
 10
1908.437886185664
 20
7607.67522706374
 30
0.0
 11
1910.486794292421
 21
7605.045952129241
 31
0.0
 12
1901.574515435549
 22
7600.213865276221
 32
0.0
 13
1901.574515435549
 23
7600.213865276221
 33
0.0
  0
POINT
  5
228
330
223
100
AcDbEntity
  8
Defpoints
 62
     0
 48
0.6
100
AcDbPoint
 10
1901.574515435549
 20
7600.213865276221
 30
0.0
  0
POINT
  5
229
330
223
100
AcDbEntity
  8
Defpoints
 62
     0
 48
0.6
100
AcDbPoint
 10
1909.462340239053
 20
7606.3605895965
 30
0.0
  0
ENDBLK
  5
22A
330
223
100
AcDbEntity
  8
0
100
AcDbBlockEnd
  0
BLOCK
  5
24F
330
245
100
AcDbEntity
  8
0
100
AcDbBlockBegin
  2
*D17
 70
     1
 10
0.0
 20
0.0
 30
0.0
  3
*D17
  1

  0
LINE
  5
265
330
245
100
AcDbEntity
  8
2上模
 62
   104
 48
0.6
370
     9
100
AcDbLine
 10
1542.68790635818
 20
963.2722777469764
 30
0.0
 11
1542.68790635818
 21
1042.857739990096
 31
0.0
  0
LINE
  5
266
330
245
100
AcDbEntity
  8
2上模
 62
   104
 48
0.6
370
     9
100
AcDbLine
 10
2249.687906358093
 20
963.2722777470338
 30
0.0
 11
2249.687906358093
 21
1042.857739990096
 31
0.0
  0
LINE
  5
267
330
245
100
AcDbEntity
  8
2上模
 62
   104
 48
0.6
370
     9
100
AcDbLine
 10
1552.68790635818
 20
1041.607739990096
 30
0.0
 11
2239.687906358093
 21
1041.607739990096
 31
0.0
  0
SOLID
  5
268
330
245
100
AcDbEntity
  8
2上模
 62
   104
 48
0.6
100
AcDbTrace
 10
1552.68790635818
 20
1043.274406656763
 30
0.0
 11
1552.68790635818
 21
1039.941073323429
 31
0.0
 12
1542.68790635818
 22
1041.607739990096
 32
0.0
 13
1542.68790635818
 23
1041.607739990096
 33
0.0
  0
SOLID
  5
269
330
245
100
AcDbEntity
  8
2上模
 62
   104
 48
0.6
100
AcDbTrace
 10
2239.687906358093
 20
1043.274406656763
 30
0.0
 11
2239.687906358093
 21
1039.941073323429
 31
0.0
 12
2249.687906358093
 22
1041.607739990096
 32
0.0
 13
2249.687906358093
 23
1041.607739990096
 33
0.0
  0
MTEXT
  5
26A
330
245
100
AcDbEntity
  8
2上模
 62
   200
 48
0.6
370
    25
100
AcDbMText
 10
1896.187906358137
 20
1051.622025704382
 30
0.0
 40
15.0
 41
0.0
 46
0.0
 71
     5
 72
     1
  1
\A1;707 [27.83”]
 73
     1
 44
1.0
  0
POINT
  5
26B
330
245
100
AcDbEntity
  8
Defpoints
 62
     0
 48
0.6
100
AcDbPoint
 10
1542.68790635818
 20
961.2722777469764
 30
0.0
  0
POINT
  5
26C
330
245
100
AcDbEntity
  8
Defpoints
 62
     0
 48
0.6
100
AcDbPoint
 10
2249.687906358093
 20
961.2722777470336
 30
0.0
  0
POINT
  5
26D
330
245
100
AcDbEntity
  8
Defpoints
 62
     0
 48
0.6
100
AcDbPoint
 10
2249.687906358093
 20
1041.607739990096
 30
0.0
  0
ENDBLK
  5
250
330
245
100
AcDbEntity
  8
0
100
AcDbBlockEnd
  0
BLOCK
  5
25B
330
251
100
AcDbEntity
  8
0
100
AcDbBlockBegin
  2
*D18
 70
     1
 10
0.0
 20
0.0
 30
0.0
  3
*D18
  1

  0
LINE
  5
26E
330
251
100
AcDbEntity
  8
2上模
 62
   104
 48
0.6
370
     9
100
AcDbLine
 10
2224.869478371076
 20
984.7650090962289
 30
0.0
 11
2309.323471187957
 21
984.7650090962289
 31
0.0
  0
LINE
  5
26F
330
251
100
AcDbEntity
  8
2上模
 62
   104
 48
0.6
370
     9
100
AcDbLine
 10
2224.869478371076
 20
582.7650090962281
 30
0.0
 11
2309.323471187957
 21
582.765009096228
 31
0.0
  0
LINE
  5
270
330
251
100
AcDbEntity
  8
2上模
 62
   104
 48
0.6
370
     9
100
AcDbLine
 10
2308.073471187957
 20
974.765009096229
 30
0.0
 11
2308.073471187957
 21
592.765009096228
 31
0.0
  0
SOLID
  5
271
330
251
100
AcDbEntity
  8
2上模
 62
   104
 48
0.6
100
AcDbTrace
 10
2306.406804521291
 20
974.765009096229
 30
0.0
 11
2309.740137854624
 21
974.765009096229
 31
0.0
 12
2308.073471187957
 22
984.7650090962289
 32
0.0
 13
2308.073471187957
 23
984.7650090962289
 33
0.0
  0
SOLID
  5
272
330
251
100
AcDbEntity
  8
2上模
 62
   104
 48
0.6
100
AcDbTrace
 10
2306.406804521291
 20
592.765009096228
 30
0.0
 11
2309.740137854624
 21
592.765009096228
 31
0.0
 12
2308.073471187957
 22
582.765009096228
 32
0.0
 13
2308.073471187957
 23
582.765009096228
 33
0.0
  0
MTEXT
  5
273
330
251
100
AcDbEntity
  8
2上模
 62
   200
 48
0.6
370
    25
100
AcDbMText
 10
2298.059185473672
 20
783.7650090962289
 30
0.0
 40
15.0
 41
0.0
 46
0.0
 71
     5
 72
     1
  1
\A1;402 [15.83”]
 11
0.0000000000000001
 21
1.0
 31
0.0
 73
     1
 44
1.0
  0
POINT
  5
274
330
251
100
AcDbEntity
  8
Defpoints
 62
     0
 48
0.6
100
AcDbPoint
 10
2222.869478371076
 20
984.7650090962289
 30
0.0
  0
POINT
  5
275
330
251
100
AcDbEntity
  8
Defpoints
 62
     0
 48
0.6
100
AcDbPoint
 10
2222.869478371076
 20
582.7650090962281
 30
0.0
  0
POINT
  5
276
330
251
100
AcDbEntity
  8
Defpoints
 62
     0
 48
0.6
100
AcDbPoint
 10
2308.073471187957
 20
582.765009096228
 30
0.0
  0
ENDBLK
  5
25C
330
251
100
AcDbEntity
  8
0
100
AcDbBlockEnd
  0
BLOCK
  5
263
330
25D
100
AcDbEntity
  8
0
100
AcDbBlockBegin
  2
*D19
 70
     1
 10
0.0
 20
0.0
 30
0.0
  3
*D19
  1

  0
LINE
  5
277
330
25D
100
AcDbEntity
  8
2上模
 62
   104
 48
0.6
370
     9
100
AcDbLine
 10
1671.19874554203
 20
685.1166365188515
 30
0.0
 11
1552.687906358169
 21
592.7650090962195
 31
0.0
  0
MTEXT
  5
278
330
25D
100
AcDbEntity
  8
2上模
 62
   200
 48
0.6
370
    25
100
AcDbMText
 10
1610.391882619961
 20
650.4277111387588
 30
0.0
 40
15.0
 41
0.0
 46
0.0
 71
     5
 72
     1
  1
\A1;R10 [R0.39”]
 11
0.7887824803492526
 21
0.6146724320270765
 31
0.0
 73
     1
 44
1.0
  0
SOLID
  5
279
330
25D
100
AcDbEntity
  8
2上模
 62
   104
 48
0.6
100
AcDbTrace
 10
1551.66345230479
 20
594.0796465634683
 30
0.0
 11
1553.712360411547
 21
591.4503716289708
 31
0.0
 12
1544.800081554677
 22
586.6182847759489
 32
0.0
 13
1544.800081554677
 23
586.6182847759489
 33
0.0
  0
POINT
  5
27A
330
25D
100
AcDbEntity
  8
Defpoints
 62
     0
 48
0.6
100
AcDbPoint
 10
1544.800081554677
 20
586.6182847759489
 30
0.0
  0
POINT
  5
27B
330
25D
100
AcDbEntity
  8
Defpoints
 62
     0
 48
0.6
100
AcDbPoint
 10
1552.687906358181
 20
592.7650090962286
 30
0.0
  0
ENDBLK
  5
264
330
25D
100
AcDbEntity
  8
0
100
AcDbBlockEnd
  0
BLOCK
  5
27D
330
27C
100
AcDbEntity
  8
0
100
AcDbBlockBegin
  2
*D20
 70
     1
 10
0.0
 20
0.0
 30
0.0
  3
*D20
  1

  0
LINE
  5
27E
330
27C
100
AcDbEntity
  8
2上模
 62
   104
 48
0.6
370
     9
100
AcDbLine
 10
3246.654587414559
 20
7697.963857423309
 30
0.0
 11
3125.459457025141
 21
7606.360589596485
 31
0.0
  0
MTEXT
  5
27F
330
27C
100
AcDbEntity
  8
2上模
 62
   200
 48
0.6
370
    25
100
AcDbMText
 10
3184.972643412143
 20
7661.88913653784
 30
0.0
 40
15.0
 41
0.0
 46
0.0
 71
     5
 72
     1
  1
\A1;R10 [R0.39”]
 11
0.7977608892580627
 21
0.6029739327451768
 31
0.0
 73
     1
 44
1.0
  0
SOLID
  5
280
330
27C
100
AcDbEntity
  8
2上模
 62
   104
 48
0.6
100
AcDbTrace
 10
3124.454500470565
 20
7607.690191078582
 30
0.0
 11
3126.464413579717
 21
7605.030988114387
 31
0.0
 12
3117.481848132561
 22
7600.330850269033
 32
0.0
 13
3117.481848132561
 23
7600.330850269033
 33
0.0
  0
POINT
  5
281
330
27C
100
AcDbEntity
  8
Defpoints
 62
     0
 48
0.6
100
AcDbPoint
 10
3117.481848132561
 20
7600.330850269033
 30
0.0
  0
POINT
  5
282
330
27C
100
AcDbEntity
  8
Defpoints
 62
     0
 48
0.6
100
AcDbPoint
 10
3125.45945702516
 20
7606.3605895965
 30
0.0
  0
ENDBLK
  5
283
330
27C
100
AcDbEntity
  8
0
100
AcDbBlockEnd
  0
BLOCK
  5
285
330
284
100
AcDbEntity
  8
0
100
AcDbBlockBegin
  2
*D21
 70
     1
 10
0.0
 20
0.0
 30
0.0
  3
*D21
  1

  0
LINE
  5
286
330
284
100
AcDbEntity
  8
2上模
 62
   104
 48
0.6
370
     9
100
AcDbLine
 10
3115.45945702516
 20
7990.3605895965
 30
0.0
 11
3115.45945702516
 21
8047.491455110678
 31
0.0
  0
LINE
  5
287
330
284
100
AcDbEntity
  8
2上模
 62
   104
 48
0.6
370
     9
100
AcDbLine
 10
3746.459457025073
 20
7990.3605895965
 30
0.0
 11
3746.459457025073
 21
8047.491455110678
 31
0.0
  0
LINE
  5
288
330
284
100
AcDbEntity
  8
2上模
 62
   104
 48
0.6
370
     9
100
AcDbLine
 10
3125.45945702516
 20
8046.241455110676
 30
0.0
 11
3736.459457025074
 21
8046.241455110676
 31
0.0
  0
SOLID
  5
289
330
284
100
AcDbEntity
  8
2上模
 62
   104
 48
0.6
100
AcDbTrace
 10
3125.45945702516
 20
8047.908121777343
 30
0.0
 11
3125.45945702516
 21
8044.574788444009
 31
0.0
 12
3115.45945702516
 22
8046.241455110676
 32
0.0
 13
3115.45945702516
 23
8046.241455110676
 33
0.0
  0
SOLID
  5
28A
330
284
100
AcDbEntity
  8
2上模
 62
   104
 48
0.6
100
AcDbTrace
 10
3736.459457025074
 20
8047.908121777343
 30
0.0
 11
3736.459457025074
 21
8044.574788444009
 31
0.0
 12
3746.459457025073
 22
8046.241455110676
 32
0.0
 13
3746.459457025073
 23
8046.241455110676
 33
0.0
  0
MTEXT
  5
28B
330
284
100
AcDbEntity
  8
2上模
 62
   200
 48
0.6
370
    25
100
AcDbMText
 10
3430.959457025116
 20
8054.655058051855
 30
0.0
 40
15.0
 41
0.0
 46
0.0
 71
     5
 72
     1
  1
\A1;631 [24.84”]
 73
     1
 44
1.0
  0
POINT
  5
28C
330
284
100
AcDbEntity
  8
Defpoints
 62
     0
 48
0.6
100
AcDbPoint
 10
3115.45945702516
 20
7988.360589596499
 30
0.0
  0
POINT
  5
28D
330
284
100
AcDbEntity
  8
Defpoints
 62
     0
 48
0.6
100
AcDbPoint
 10
3746.459457025073
 20
7988.360589596499
 30
0.0
  0
POINT
  5
28E
330
284
100
AcDbEntity
  8
Defpoints
 62
     0
 48
0.6
100
AcDbPoint
 10
3746.459457025073
 20
8046.241455110676
 30
0.0
  0
ENDBLK
  5
28F
330
284
100
AcDbEntity
  8
0
100
AcDbBlockEnd
  0
BLOCK
  5
291
330
290
100
AcDbEntity
  8
0
100
AcDbBlockBegin
  2
*D22
 70
     1
 10
0.0
 20
0.0
 30
0.0
  3
*D22
  1

  0
LINE
  5
292
330
290
100
AcDbEntity
  8
2上模
 62
   104
 48
0.6
370
     9
100
AcDbLine
 10
3738.459457025073
 20
7998.3605895965
 30
0.0
 11
3838.217444970472
 21
7998.3605895965
 31
0.0
  0
LINE
  5
293
330
290
100
AcDbEntity
  8
2上模
 62
   104
 48
0.6
370
     9
100
AcDbLine
 10
3738.45945702516
 20
7596.360589596499
 30
0.0
 11
3838.217444970472
 21
7596.360589596499
 31
0.0
  0
LINE
  5
294
330
290
100
AcDbEntity
  8
2上模
 62
   104
 48
0.6
370
     9
100
AcDbLine
 10
3836.967444970472
 20
7988.360589596499
 30
0.0
 11
3836.967444970472
 21
7606.3605895965
 31
0.0
  0
SOLID
  5
295
330
290
100
AcDbEntity
  8
2上模
 62
   104
 48
0.6
100
AcDbTrace
 10
3835.300778303805
 20
7988.360589596499
 30
0.0
 11
3838.634111637139
 21
7988.360589596499
 31
0.0
 12
3836.967444970472
 22
7998.3605895965
 32
0.0
 13
3836.967444970472
 23
7998.3605895965
 33
0.0
  0
SOLID
  5
296
330
290
100
AcDbEntity
  8
2上模
 62
   104
 48
0.6
100
AcDbTrace
 10
3835.300778303805
 20
7606.3605895965
 30
0.0
 11
3838.634111637139
 21
7606.3605895965
 31
0.0
 12
3836.967444970472
 22
7596.360589596499
 32
0.0
 13
3836.967444970472
 23
7596.360589596499
 33
0.0
  0
MTEXT
  5
297
330
290
100
AcDbEntity
  8
2上模
 62
   200
 48
0.6
370
    25
100
AcDbMText
 10
3828.553842029294
 20
7797.3605895965
 30
0.0
 40
15.0
 41
0.0
 46
0.0
 71
     5
 72
     1
  1
\A1;402 [15.83”]
 11
0.0000000000000001
 21
1.0
 31
0.0
 73
     1
 44
1.0
  0
POINT
  5
298
330
290
100
AcDbEntity
  8
Defpoints
 62
     0
 48
0.6
100
AcDbPoint
 10
3736.459457025074
 20
7998.3605895965
 30
0.0
  0
POINT
  5
299
330
290
100
AcDbEntity
  8
Defpoints
 62
     0
 48
0.6
100
AcDbPoint
 10
3736.459457025161
 20
7596.360589596499
 30
0.0
  0
POINT
  5
29A
330
290
100
AcDbEntity
  8
Defpoints
 62
     0
 48
0.6
100
AcDbPoint
 10
3836.967444970472
 20
7596.360589596499
 30
0.0
  0
ENDBLK
  5
29B
330
290
100
AcDbEntity
  8
0
100
AcDbBlockEnd
  0
BLOCK
  5
2BC
330
2B6
100
AcDbEntity
  8
0
100
AcDbBlockBegin
  2
*D24
 70
     1
 10
0.0
 20
0.0
 30
0.0
  3
*D24
  1

  0
LINE
  5
2D6
330
2B6
100
AcDbEntity
  8
2上模
 62
   104
 48
0.6
370
     9
100
AcDbLine
 10
2704.978309654097
 20
736.3532581950236
 30
0.0
 11
2585.118506971654
 21
645.7592749919618
 31
0.0
  0
MTEXT
  5
2D7
330
2B6
100
AcDbEntity
  8
2上模
 62
   200
 48
0.6
370
    25
100
AcDbMText
 10
2643.666523371872
 20
702.5647840458162
 30
0.0
 40
15.0
 41
0.0
 46
0.0
 71
     5
 72
     1
  1
\A1;R10 [R0.39”]
 11
0.7977608892580182
 21
0.6029739327452358
 31
0.0
 73
     1
 44
1.0
  0
SOLID
  5
2D8
330
2B6
100
AcDbEntity
  8
2上模
 62
   104
 48
0.6
100
AcDbTrace
 10
2584.113550417079
 20
647.0888764740586
 30
0.0
 11
2586.12346352623
 21
644.429673509865
 31
0.0
 12
2577.140898079074
 22
639.7295356645096
 32
0.0
 13
2577.140898079074
 23
639.7295356645096
 33
0.0
  0
POINT
  5
2D9
330
2B6
100
AcDbEntity
  8
Defpoints
 62
     0
 48
0.6
100
AcDbPoint
 10
2577.140898079074
 20
639.7295356645096
 30
0.0
  0
POINT
  5
2DA
330
2B6
100
AcDbEntity
  8
Defpoints
 62
     0
 48
0.6
100
AcDbPoint
 10
2585.118506971674
 20
645.7592749919761
 30
0.0
  0
ENDBLK
  5
2BD
330
2B6
100
AcDbEntity
  8
0
100
AcDbBlockEnd
  0
BLOCK
  5
2C8
330
2BE
100
AcDbEntity
  8
0
100
AcDbBlockBegin
  2
*D25
 70
     1
 10
0.0
 20
0.0
 30
0.0
  3
*D25
  1

  0
LINE
  5
2BF
330
2BE
100
AcDbEntity
  8
2上模
 62
   104
 48
0.6
370
     9
100
AcDbLine
 10
2575.118506971673
 20
1029.759274991976
 30
0.0
 11
2575.118506971673
 21
1086.890140506152
 31
0.0
  0
LINE
  5
2C0
330
2BE
100
AcDbEntity
  8
2上模
 62
   104
 48
0.6
370
     9
100
AcDbLine
 10
3206.118506971587
 20
1029.759274991976
 30
0.0
 11
3206.118506971587
 21
1086.890140506152
 31
0.0
  0
LINE
  5
2C1
330
2BE
100
AcDbEntity
  8
2上模
 62
   104
 48
0.6
370
     9
100
AcDbLine
 10
2585.118506971673
 20
1085.640140506152
 30
0.0
 11
3196.118506971587
 21
1085.640140506152
 31
0.0
  0
SOLID
  5
2C2
330
2BE
100
AcDbEntity
  8
2上模
 62
   104
 48
0.6
100
AcDbTrace
 10
2585.118506971673
 20
1087.306807172819
 30
0.0
 11
2585.118506971673
 21
1083.973473839485
 31
0.0
 12
2575.118506971673
 22
1085.640140506152
 32
0.0
 13
2575.118506971673
 23
1085.640140506152
 33
0.0
  0
SOLID
  5
2C3
330
2BE
100
AcDbEntity
  8
2上模
 62
   104
 48
0.6
100
AcDbTrace
 10
3196.118506971587
 20
1087.306807172819
 30
0.0
 11
3196.118506971587
 21
1083.973473839485
 31
0.0
 12
3206.118506971587
 22
1085.640140506152
 32
0.0
 13
3206.118506971587
 23
1085.640140506152
 33
0.0
  0
MTEXT
  5
2C4
330
2BE
100
AcDbEntity
  8
2上模
 62
   200
 48
0.6
370
    25
100
AcDbMText
 10
2890.61850697163
 20
1095.654426220438
 30
0.0
 40
15.0
 41
0.0
 46
0.0
 71
     5
 72
     1
  1
\A1;631 [24.84”]
 73
     1
 44
1.0
  0
POINT
  5
2C5
330
2BE
100
AcDbEntity
  8
Defpoints
 62
     0
 48
0.6
100
AcDbPoint
 10
2575.118506971673
 20
1027.759274991976
 30
0.0
  0
POINT
  5
2C6
330
2BE
100
AcDbEntity
  8
Defpoints
 62
     0
 48
0.6
100
AcDbPoint
 10
3206.118506971587
 20
1027.759274991976
 30
0.0
  0
POINT
  5
2C7
330
2BE
100
AcDbEntity
  8
Defpoints
 62
     0
 48
0.6
100
AcDbPoint
 10
3206.118506971587
 20
1085.640140506152
 30
0.0
  0
ENDBLK
  5
2C9
330
2BE
100
AcDbEntity
  8
0
100
AcDbBlockEnd
  0
BLOCK
  5
2D4
330
2CA
100
AcDbEntity
  8
0
100
AcDbBlockBegin
  2
*D26
 70
     1
 10
0.0
 20
0.0
 30
0.0
  3
*D26
  1

  0
LINE
  5
2CB
330
2CA
100
AcDbEntity
  8
2上模
 62
   104
 48
0.6
370
     9
100
AcDbLine
 10
3198.118506971587
 20
1037.759274991977
 30
0.0
 11
3297.876494916986
 21
1037.759274991977
 31
0.0
  0
LINE
  5
2CC
330
2CA
100
AcDbEntity
  8
2上模
 62
   104
 48
0.6
370
     9
100
AcDbLine
 10
3198.118506971674
 20
635.7592749919758
 30
0.0
 11
3297.876494916985
 21
635.7592749919758
 31
0.0
  0
LINE
  5
2CD
330
2CA
100
AcDbEntity
  8
2上模
 62
   104
 48
0.6
370
     9
100
AcDbLine
 10
3296.626494916985
 20
1027.759274991977
 30
0.0
 11
3296.626494916985
 21
645.7592749919759
 31
0.0
  0
SOLID
  5
2CE
330
2CA
100
AcDbEntity
  8
2上模
 62
   104
 48
0.6
100
AcDbTrace
 10
3294.959828250319
 20
1027.759274991977
 30
0.0
 11
3298.293161583652
 21
1027.759274991977
 31
0.0
 12
3296.626494916985
 22
1037.759274991977
 32
0.0
 13
3296.626494916985
 23
1037.759274991977
 33
0.0
  0
SOLID
  5
2CF
330
2CA
100
AcDbEntity
  8
2上模
 62
   104
 48
0.6
100
AcDbTrace
 10
3294.959828250318
 20
645.7592749919759
 30
0.0
 11
3298.293161583651
 21
645.7592749919759
 31
0.0
 12
3296.626494916985
 22
635.7592749919758
 32
0.0
 13
3296.626494916985
 23
635.7592749919758
 33
0.0
  0
MTEXT
  5
2D0
330
2CA
100
AcDbEntity
  8
2上模
 62
   200
 48
0.6
370
    25
100
AcDbMText
 10
3286.6122092027
 20
836.7592749919767
 30
0.0
 40
15.0
 41
0.0
 46
0.0
 71
     5
 72
     1
  1
\A1;402 [15.83”]
 11
0.0000000000000001
 21
1.0
 31
0.0
 73
     1
 44
1.0
  0
POINT
  5
2D1
330
2CA
100
AcDbEntity
  8
Defpoints
 62
     0
 48
0.6
100
AcDbPoint
 10
3196.118506971587
 20
1037.759274991977
 30
0.0
  0
POINT
  5
2D2
330
2CA
100
AcDbEntity
  8
Defpoints
 62
     0
 48
0.6
100
AcDbPoint
 10
3196.118506971675
 20
635.7592749919758
 30
0.0
  0
POINT
  5
2D3
330
2CA
100
AcDbEntity
  8
Defpoints
 62
     0
 48
0.6
100
AcDbPoint
 10
3296.626494916985
 20
635.7592749919758
 30
0.0
  0
ENDBLK
  5
2D5
330
2CA
100
AcDbEntity
  8
0
100
AcDbBlockEnd
  0
BLOCK
  5
2DC
330
2DB
100
AcDbEntity
  8
0
100
AcDbBlockBegin
  2
*D27
 70
     1
 10
0.0
 20
0.0
 30
0.0
  3
*D27
  1

  0
LINE
  5
2DD
330
2DB
100
AcDbEntity
  8
2上模
 62
   104
 48
0.6
370
     9
100
AcDbLine
 10
1219.128740430492
 20
7040.175869970338
 30
0.0
 11
1097.933610041705
 21
6948.57260214268
 31
0.0
  0
MTEXT
  5
2DE
330
2DB
100
AcDbEntity
  8
2上模
 62
   200
 48
0.6
370
    25
100
AcDbMText
 10
1157.446796428324
 20
7004.101149084442
 30
0.0
 40
15.0
 41
0.0
 46
0.0
 71
     5
 72
     1
  1
\A1;R10 [R0.39”]
 11
0.7977608892539069
 21
0.602973932750675
 31
0.0
 73
     1
 44
1.0
  0
SOLID
  5
2DF
330
2DB
100
AcDbEntity
  8
2上模
 62
   104
 48
0.6
100
AcDbTrace
 10
1096.92865348712
 20
6949.902203624768
 30
0.0
 11
1098.938566596289
 21
6947.243000660589
 31
0.0
 12
1089.956001149166
 22
6942.542862815172
 32
0.0
 13
1089.956001149166
 23
6942.542862815172
 33
0.0
  0
POINT
  5
2E0
330
2DB
100
AcDbEntity
  8
Defpoints
 62
     0
 48
0.6
100
AcDbPoint
 10
1089.956001149166
 20
6942.542862815172
 30
0.0
  0
POINT
  5
2E1
330
2DB
100
AcDbEntity
  8
Defpoints
 62
     0
 48
0.6
100
AcDbPoint
 10
1097.93361004165
 20
6948.572602142636
 30
0.0
  0
ENDBLK
  5
2E2
330
2DB
100
AcDbEntity
  8
0
100
AcDbBlockEnd
  0
BLOCK
  5
2E4
330
2E3
100
AcDbEntity
  8
0
100
AcDbBlockBegin
  2
*D28
 70
     1
 10
0.0
 20
0.0
 30
0.0
  3
*D28
  1

  0
LINE
  5
2E5
330
2E3
100
AcDbEntity
  8
2上模
 62
   104
 48
0.6
370
     9
100
AcDbLine
 10
1087.93361004165
 20
7332.572602142635
 30
0.0
 11
1087.93361004165
 21
7389.703467656798
 31
0.0
  0
LINE
  5
2E6
330
2E3
100
AcDbEntity
  8
2上模
 62
   104
 48
0.6
370
     9
100
AcDbLine
 10
1616.93361004165
 20
7332.572602142635
 30
0.0
 11
1616.93361004165
 21
7389.703467656798
 31
0.0
  0
LINE
  5
2E7
330
2E3
100
AcDbEntity
  8
2上模
 62
   104
 48
0.6
370
     9
100
AcDbLine
 10
1097.93361004165
 20
7388.453467656798
 30
0.0
 11
1606.93361004165
 21
7388.453467656798
 31
0.0
  0
SOLID
  5
2E8
330
2E3
100
AcDbEntity
  8
2上模
 62
   104
 48
0.6
100
AcDbTrace
 10
1097.93361004165
 20
7390.120134323466
 30
0.0
 11
1097.93361004165
 21
7386.78680099013
 31
0.0
 12
1087.93361004165
 22
7388.453467656798
 32
0.0
 13
1087.93361004165
 23
7388.453467656798
 33
0.0
  0
SOLID
  5
2E9
330
2E3
100
AcDbEntity
  8
2上模
 62
   104
 48
0.6
100
AcDbTrace
 10
1606.93361004165
 20
7390.120134323466
 30
0.0
 11
1606.93361004165
 21
7386.78680099013
 31
0.0
 12
1616.93361004165
 22
7388.453467656798
 32
0.0
 13
1616.93361004165
 23
7388.453467656798
 33
0.0
  0
MTEXT
  5
2EA
330
2E3
100
AcDbEntity
  8
2上模
 62
   200
 48
0.6
370
    25
100
AcDbMText
 10
1352.43361004165
 20
7396.867070597974
 30
0.0
 40
15.0
 41
0.0
 46
0.0
 71
     5
 72
     1
  1
\A1;529 [20.83”]
 73
     1
 44
1.0
  0
POINT
  5
2EB
330
2E3
100
AcDbEntity
  8
Defpoints
 62
     0
 48
0.6
100
AcDbPoint
 10
1087.93361004165
 20
7330.572602142637
 30
0.0
  0
POINT
  5
2EC
330
2E3
100
AcDbEntity
  8
Defpoints
 62
     0
 48
0.6
100
AcDbPoint
 10
1616.93361004165
 20
7330.572602142637
 30
0.0
  0
POINT
  5
2ED
330
2E3
100
AcDbEntity
  8
Defpoints
 62
     0
 48
0.6
100
AcDbPoint
 10
1616.93361004165
 20
7388.453467656798
 30
0.0
  0
ENDBLK
  5
2EE
330
2E3
100
AcDbEntity
  8
0
100
AcDbBlockEnd
  0
BLOCK
  5
2F0
330
2EF
100
AcDbEntity
  8
0
100
AcDbBlockBegin
  2
*D29
 70
     1
 10
0.0
 20
0.0
 30
0.0
  3
*D29
  1

  0
LINE
  5
2F1
330
2EF
100
AcDbEntity
  8
2上模
 62
   104
 48
0.6
370
     9
100
AcDbLine
 10
1608.93361004165
 20
7340.572602142636
 30
0.0
 11
1708.691597987078
 21
7340.572602142636
 31
0.0
  0
LINE
  5
2F2
330
2EF
100
AcDbEntity
  8
2上模
 62
   104
 48
0.6
370
     9
100
AcDbLine
 10
1608.93361004165
 20
6938.572602142635
 30
0.0
 11
1708.691597987078
 21
6938.572602142635
 31
0.0
  0
LINE
  5
2F3
330
2EF
100
AcDbEntity
  8
2上模
 62
   104
 48
0.6
370
     9
100
AcDbLine
 10
1707.441597987078
 20
7330.572602142637
 30
0.0
 11
1707.441597987078
 21
6948.572602142636
 31
0.0
  0
SOLID
  5
2F4
330
2EF
100
AcDbEntity
  8
2上模
 62
   104
 48
0.6
100
AcDbTrace
 10
1705.774931320411
 20
7330.572602142637
 30
0.0
 11
1709.108264653745
 21
7330.572602142637
 31
0.0
 12
1707.441597987078
 22
7340.572602142636
 32
0.0
 13
1707.441597987078
 23
7340.572602142636
 33
0.0
  0
SOLID
  5
2F5
330
2EF
100
AcDbEntity
  8
2上模
 62
   104
 48
0.6
100
AcDbTrace
 10
1705.774931320411
 20
6948.572602142636
 30
0.0
 11
1709.108264653745
 21
6948.572602142636
 31
0.0
 12
1707.441597987078
 22
6938.572602142635
 32
0.0
 13
1707.441597987078
 23
6938.572602142635
 33
0.0
  0
MTEXT
  5
2F6
330
2EF
100
AcDbEntity
  8
2上模
 62
   200
 48
0.6
370
    25
100
AcDbMText
 10
1699.0279950459
 20
7139.572602142637
 30
0.0
 40
15.0
 41
0.0
 46
0.0
 71
     5
 72
     1
  1
\A1;402 [15.83”]
 11
0.0000000000000001
 21
1.0
 31
0.0
 73
     1
 44
1.0
  0
POINT
  5
2F7
330
2EF
100
AcDbEntity
  8
Defpoints
 62
     0
 48
0.6
100
AcDbPoint
 10
1606.93361004165
 20
7340.572602142636
 30
0.0
  0
POINT
  5
2F8
330
2EF
100
AcDbEntity
  8
Defpoints
 62
     0
 48
0.6
100
AcDbPoint
 10
1606.93361004165
 20
6938.572602142635
 30
0.0
  0
POINT
  5
2F9
330
2EF
100
AcDbEntity
  8
Defpoints
 62
     0
 48
0.6
100
AcDbPoint
 10
1707.441597987078
 20
6938.572602142635
 30
0.0
  0
ENDBLK
  5
2FA
330
2EF
100
AcDbEntity
  8
0
100
AcDbBlockEnd
  0
BLOCK
  5
31B
330
315
100
AcDbEntity
  8
0
100
AcDbBlockBegin
  2
*D31
 70
     1
 10
0.0
 20
0.0
 30
0.0
  3
*D31
  1

  0
LINE
  5
335
330
315
100
AcDbEntity
  8
2上模
 62
   104
 48
0.6
370
     9
100
AcDbLine
 10
3572.565031980206
 20
741.224565208159
 30
0.0
 11
3452.705229298363
 21
650.6305820043021
 31
0.0
  0
MTEXT
  5
336
330
315
100
AcDbEntity
  8
2上模
 62
   200
 48
0.6
370
    25
100
AcDbMText
 10
3511.253245698204
 20
707.4360910585451
 30
0.0
 40
15.0
 41
0.0
 46
0.0
 71
     5
 72
     1
  1
\A1;R10 [R0.39”]
 11
0.7977608892540214
 21
0.6029739327505237
 31
0.0
 73
     1
 44
1.0
  0
SOLID
  5
337
330
315
100
AcDbEntity
  8
2上模
 62
   104
 48
0.6
100
AcDbTrace
 10
3451.700272743778
 20
651.9601834863922
 30
0.0
 11
3453.710185852947
 21
649.300980522212
 31
0.0
 12
3444.727620405823
 22
644.6008426767969
 32
0.0
 13
3444.727620405823
 23
644.6008426767969
 33
0.0
  0
POINT
  5
338
330
315
100
AcDbEntity
  8
Defpoints
 62
     0
 48
0.6
100
AcDbPoint
 10
3444.727620405823
 20
644.6008426767969
 30
0.0
  0
POINT
  5
339
330
315
100
AcDbEntity
  8
Defpoints
 62
     0
 48
0.6
100
AcDbPoint
 10
3452.705229298306
 20
650.6305820042594
 30
0.0
  0
ENDBLK
  5
31C
330
315
100
AcDbEntity
  8
0
100
AcDbBlockEnd
  0
BLOCK
  5
327
330
31D
100
AcDbEntity
  8
0
100
AcDbBlockBegin
  2
*D32
 70
     1
 10
0.0
 20
0.0
 30
0.0
  3
*D32
  1

  0
LINE
  5
31E
330
31D
100
AcDbEntity
  8
2上模
 62
   104
 48
0.6
370
     9
100
AcDbLine
 10
3442.705229298307
 20
1034.630582004261
 30
0.0
 11
3442.705229298307
 21
1091.761447518422
 31
0.0
  0
LINE
  5
31F
330
31D
100
AcDbEntity
  8
2上模
 62
   104
 48
0.6
370
     9
100
AcDbLine
 10
3971.705229298306
 20
1034.630582004261
 30
0.0
 11
3971.705229298306
 21
1091.761447518422
 31
0.0
  0
LINE
  5
320
330
31D
100
AcDbEntity
  8
2上模
 62
   104
 48
0.6
370
     9
100
AcDbLine
 10
3452.705229298306
 20
1090.511447518422
 30
0.0
 11
3961.705229298306
 21
1090.511447518422
 31
0.0
  0
SOLID
  5
321
330
31D
100
AcDbEntity
  8
2上模
 62
   104
 48
0.6
100
AcDbTrace
 10
3452.705229298306
 20
1092.178114185089
 30
0.0
 11
3452.705229298306
 21
1088.844780851755
 31
0.0
 12
3442.705229298307
 22
1090.511447518422
 32
0.0
 13
3442.705229298307
 23
1090.511447518422
 33
0.0
  0
SOLID
  5
322
330
31D
100
AcDbEntity
  8
2上模
 62
   104
 48
0.6
100
AcDbTrace
 10
3961.705229298306
 20
1092.178114185089
 30
0.0
 11
3961.705229298306
 21
1088.844780851755
 31
0.0
 12
3971.705229298306
 22
1090.511447518422
 32
0.0
 13
3971.705229298306
 23
1090.511447518422
 33
0.0
  0
MTEXT
  5
323
330
31D
100
AcDbEntity
  8
2上模
 62
   200
 48
0.6
370
    25
100
AcDbMText
 10
3707.205229298307
 20
1100.525733232708
 30
0.0
 40
15.0
 41
0.0
 46
0.0
 71
     5
 72
     1
  1
\A1;529 [20.83”]
 73
     1
 44
1.0
  0
POINT
  5
324
330
31D
100
AcDbEntity
  8
Defpoints
 62
     0
 48
0.6
100
AcDbPoint
 10
3442.705229298307
 20
1032.630582004261
 30
0.0
  0
POINT
  5
325
330
31D
100
AcDbEntity
  8
Defpoints
 62
     0
 48
0.6
100
AcDbPoint
 10
3971.705229298306
 20
1032.630582004261
 30
0.0
  0
POINT
  5
326
330
31D
100
AcDbEntity
  8
Defpoints
 62
     0
 48
0.6
100
AcDbPoint
 10
3971.705229298306
 20
1090.511447518422
 30
0.0
  0
ENDBLK
  5
328
330
31D
100
AcDbEntity
  8
0
100
AcDbBlockEnd
  0
BLOCK
  5
333
330
329
100
AcDbEntity
  8
0
100
AcDbBlockBegin
  2
*D33
 70
     1
 10
0.0
 20
0.0
 30
0.0
  3
*D33
  1

  0
LINE
  5
32A
330
329
100
AcDbEntity
  8
2上模
 62
   104
 48
0.6
370
     9
100
AcDbLine
 10
3963.705229298307
 20
1042.630582004259
 30
0.0
 11
4063.463217243735
 21
1042.630582004259
 31
0.0
  0
LINE
  5
32B
330
329
100
AcDbEntity
  8
2上模
 62
   104
 48
0.6
370
     9
100
AcDbLine
 10
3963.705229298307
 20
640.6305820042594
 30
0.0
 11
4063.463217243734
 21
640.6305820042594
 31
0.0
  0
LINE
  5
32C
330
329
100
AcDbEntity
  8
2上模
 62
   104
 48
0.6
370
     9
100
AcDbLine
 10
4062.213217243734
 20
1032.630582004259
 30
0.0
 11
4062.213217243733
 21
650.6305820042594
 31
0.0
  0
SOLID
  5
32D
330
329
100
AcDbEntity
  8
2上模
 62
   104
 48
0.6
100
AcDbTrace
 10
4060.546550577067
 20
1032.630582004259
 30
0.0
 11
4063.879883910401
 21
1032.630582004259
 31
0.0
 12
4062.213217243734
 22
1042.630582004259
 32
0.0
 13
4062.213217243734
 23
1042.630582004259
 33
0.0
  0
SOLID
  5
32E
330
329
100
AcDbEntity
  8
2上模
 62
   104
 48
0.6
100
AcDbTrace
 10
4060.546550577067
 20
650.6305820042594
 30
0.0
 11
4063.8798839104
 21
650.6305820042594
 31
0.0
 12
4062.213217243733
 22
640.6305820042594
 32
0.0
 13
4062.213217243733
 23
640.6305820042594
 33
0.0
  0
MTEXT
  5
32F
330
329
100
AcDbEntity
  8
2上模
 62
   200
 48
0.6
370
    25
100
AcDbMText
 10
4052.198931529448
 20
841.63058200426
 30
0.0
 40
15.0
 41
0.0
 46
0.0
 71
     5
 72
     1
  1
\A1;402 [15.83”]
 11
0.0000000000000001
 21
1.0
 31
0.0
 73
     1
 44
1.0
  0
POINT
  5
330
330
329
100
AcDbEntity
  8
Defpoints
 62
     0
 48
0.6
100
AcDbPoint
 10
3961.705229298306
 20
1042.630582004259
 30
0.0
  0
POINT
  5
331
330
329
100
AcDbEntity
  8
Defpoints
 62
     0
 48
0.6
100
AcDbPoint
 10
3961.705229298306
 20
640.6305820042594
 30
0.0
  0
POINT
  5
332
330
329
100
AcDbEntity
  8
Defpoints
 62
     0
 48
0.6
100
AcDbPoint
 10
4062.213217243733
 20
640.6305820042594
 30
0.0
  0
ENDBLK
  5
334
330
329
100
AcDbEntity
  8
0
100
AcDbBlockEnd
  0
BLOCK
  5
33B
330
33A
100
AcDbEntity
  8
0
100
AcDbBlockBegin
  2
*D34
 70
     1
 10
0.0
 20
0.0
 30
0.0
  3
*D34
  1

  0
LINE
  5
33C
330
33A
100
AcDbEntity
  8
2上模
 62
   104
 48
0.6
370
     9
100
AcDbLine
 10
2093.021292934706
 20
7040.175869970079
 30
0.0
 11
1971.826162545715
 21
6948.572602142687
 31
0.0
  0
MTEXT
  5
33D
330
33A
100
AcDbEntity
  8
2上模
 62
   200
 48
0.6
370
    25
100
AcDbMText
 10
2031.339348932458
 20
7004.101149084322
 30
0.0
 40
15.0
 41
0.0
 46
0.0
 71
     5
 72
     1
  1
\A1;R10 [R0.39”]
 11
0.7977608892552464
 21
0.6029739327489031
 31
0.0
 73
     1
 44
1.0
  0
SOLID
  5
33E
330
33A
100
AcDbEntity
  8
2上模
 62
   104
 48
0.6
100
AcDbTrace
 10
1970.821205991133
 20
6949.902203624779
 30
0.0
 11
1972.831119100297
 21
6947.243000660596
 31
0.0
 12
1963.848553653162
 22
6942.542862815199
 32
0.0
 13
1963.848553653162
 23
6942.542862815199
 33
0.0
  0
POINT
  5
33F
330
33A
100
AcDbEntity
  8
Defpoints
 62
     0
 48
0.6
100
AcDbPoint
 10
1963.848553653162
 20
6942.542862815199
 30
0.0
  0
POINT
  5
340
330
33A
100
AcDbEntity
  8
Defpoints
 62
     0
 48
0.6
100
AcDbPoint
 10
1971.826162545647
 20
6948.572602142636
 30
0.0
  0
ENDBLK
  5
341
330
33A
100
AcDbEntity
  8
0
100
AcDbBlockEnd
  0
BLOCK
  5
343
330
342
100
AcDbEntity
  8
0
100
AcDbBlockBegin
  2
*D35
 70
     1
 10
0.0
 20
0.0
 30
0.0
  3
*D35
  1

  0
LINE
  5
344
330
342
100
AcDbEntity
  8
2上模
 62
   104
 48
0.6
370
     9
100
AcDbLine
 10
1961.826162545646
 20
7332.572602142635
 30
0.0
 11
1961.826162545646
 21
7389.703467656798
 31
0.0
  0
LINE
  5
345
330
342
100
AcDbEntity
  8
2上模
 62
   104
 48
0.6
370
     9
100
AcDbLine
 10
2592.826162545646
 20
7332.572602142635
 30
0.0
 11
2592.826162545646
 21
7389.703467656798
 31
0.0
  0
LINE
  5
346
330
342
100
AcDbEntity
  8
2上模
 62
   104
 48
0.6
370
     9
100
AcDbLine
 10
1971.826162545646
 20
7388.453467656798
 30
0.0
 11
2582.826162545647
 21
7388.453467656798
 31
0.0
  0
SOLID
  5
347
330
342
100
AcDbEntity
  8
2上模
 62
   104
 48
0.6
100
AcDbTrace
 10
1971.826162545646
 20
7390.120134323466
 30
0.0
 11
1971.826162545646
 21
7386.78680099013
 31
0.0
 12
1961.826162545646
 22
7388.453467656798
 32
0.0
 13
1961.826162545646
 23
7388.453467656798
 33
0.0
  0
SOLID
  5
348
330
342
100
AcDbEntity
  8
2上模
 62
   104
 48
0.6
100
AcDbTrace
 10
2582.826162545647
 20
7390.120134323466
 30
0.0
 11
2582.826162545647
 21
7386.78680099013
 31
0.0
 12
2592.826162545646
 22
7388.453467656798
 32
0.0
 13
2592.826162545646
 23
7388.453467656798
 33
0.0
  0
MTEXT
  5
349
330
342
100
AcDbEntity
  8
2上模
 62
   200
 48
0.6
370
    25
100
AcDbMText
 10
2277.326162545646
 20
7396.867070597974
 30
0.0
 40
15.0
 41
0.0
 46
0.0
 71
     5
 72
     1
  1
\A1;631 [24.84”]
 73
     1
 44
1.0
  0
POINT
  5
34A
330
342
100
AcDbEntity
  8
Defpoints
 62
     0
 48
0.6
100
AcDbPoint
 10
1961.826162545646
 20
7330.572602142637
 30
0.0
  0
POINT
  5
34B
330
342
100
AcDbEntity
  8
Defpoints
 62
     0
 48
0.6
100
AcDbPoint
 10
2592.826162545646
 20
7330.572602142637
 30
0.0
  0
POINT
  5
34C
330
342
100
AcDbEntity
  8
Defpoints
 62
     0
 48
0.6
100
AcDbPoint
 10
2592.826162545646
 20
7388.453467656798
 30
0.0
  0
ENDBLK
  5
34D
330
342
100
AcDbEntity
  8
0
100
AcDbBlockEnd
  0
BLOCK
  5
34F
330
34E
100
AcDbEntity
  8
0
100
AcDbBlockBegin
  2
*D36
 70
     1
 10
0.0
 20
0.0
 30
0.0
  3
*D36
  1

  0
LINE
  5
350
330
34E
100
AcDbEntity
  8
2上模
 62
   104
 48
0.6
370
     9
100
AcDbLine
 10
2584.826162545646
 20
7340.572602142636
 30
0.0
 11
2684.584150490958
 21
7340.572602142636
 31
0.0
  0
LINE
  5
351
330
34E
100
AcDbEntity
  8
2上模
 62
   104
 48
0.6
370
     9
100
AcDbLine
 10
2584.826162545646
 20
6938.572602142635
 30
0.0
 11
2684.584150490957
 21
6938.572602142635
 31
0.0
  0
LINE
  5
352
330
34E
100
AcDbEntity
  8
2上模
 62
   104
 48
0.6
370
     9
100
AcDbLine
 10
2683.334150490959
 20
7330.572602142637
 30
0.0
 11
2683.334150490959
 21
6948.572602142636
 31
0.0
  0
SOLID
  5
353
330
34E
100
AcDbEntity
  8
2上模
 62
   104
 48
0.6
100
AcDbTrace
 10
2681.667483824292
 20
7330.572602142637
 30
0.0
 11
2685.000817157626
 21
7330.572602142637
 31
0.0
 12
2683.334150490959
 22
7340.572602142636
 32
0.0
 13
2683.334150490959
 23
7340.572602142636
 33
0.0
  0
SOLID
  5
354
330
34E
100
AcDbEntity
  8
2上模
 62
   104
 48
0.6
100
AcDbTrace
 10
2681.667483824291
 20
6948.572602142636
 30
0.0
 11
2685.000817157624
 21
6948.572602142636
 31
0.0
 12
2683.334150490959
 22
6938.572602142635
 32
0.0
 13
2683.334150490959
 23
6938.572602142635
 33
0.0
  0
MTEXT
  5
355
330
34E
100
AcDbEntity
  8
2上模
 62
   200
 48
0.6
370
    25
100
AcDbMText
 10
2674.92054754978
 20
7139.572602142637
 30
0.0
 40
15.0
 41
0.0
 46
0.0
 71
     5
 72
     1
  1
\A1;402 [15.83”]
 11
0.0000000000000001
 21
1.0
 31
0.0
 73
     1
 44
1.0
  0
POINT
  5
356
330
34E
100
AcDbEntity
  8
Defpoints
 62
     0
 48
0.6
100
AcDbPoint
 10
2582.826162545647
 20
7340.572602142636
 30
0.0
  0
POINT
  5
357
330
34E
100
AcDbEntity
  8
Defpoints
 62
     0
 48
0.6
100
AcDbPoint
 10
2582.826162545647
 20
6938.572602142635
 30
0.0
  0
POINT
  5
358
330
34E
100
AcDbEntity
  8
Defpoints
 62
     0
 48
0.6
100
AcDbPoint
 10
2683.334150490959
 20
6938.572602142635
 30
0.0
  0
ENDBLK
  5
359
330
34E
100
AcDbEntity
  8
0
100
AcDbBlockEnd
  0
BLOCK
  5
37A
330
374
100
AcDbEntity
  8
0
100
AcDbBlockBegin
  2
*D38
 70
     1
 10
0.0
 20
0.0
 30
0.0
  3
*D38
  1

  0
LINE
  5
394
330
374
100
AcDbEntity
  8
2上模
 62
   104
 48
0.6
370
     9
100
AcDbLine
 10
2462.676720680939
 20
753.3891703883654
 30
0.0
 11
2342.816917998903
 21
662.7951871847598
 31
0.0
  0
MTEXT
  5
395
330
374
100
AcDbEntity
  8
2上模
 62
   200
 48
0.6
370
    25
100
AcDbMText
 10
2401.364934398865
 20
719.6006962388803
 30
0.0
 40
15.0
 41
0.0
 46
0.0
 71
     5
 72
     1
  1
\A1;R10 [R0.39”]
 11
0.79776088925529
 21
0.6029739327488453
 31
0.0
 73
     1
 44
1.0
  0
SOLID
  5
396
330
374
100
AcDbEntity
  8
2上模
 62
   104
 48
0.6
100
AcDbTrace
 10
2341.811961444321
 20
664.1247886668519
 30
0.0
 11
2343.821874553484
 21
661.4655857026677
 31
0.0
 12
2334.83930910635
 22
656.7654478572714
 32
0.0
 13
2334.83930910635
 23
656.7654478572714
 33
0.0
  0
POINT
  5
397
330
374
100
AcDbEntity
  8
Defpoints
 62
     0
 48
0.6
100
AcDbPoint
 10
2334.83930910635
 20
656.7654478572714
 30
0.0
  0
POINT
  5
398
330
374
100
AcDbEntity
  8
Defpoints
 62
     0
 48
0.6
100
AcDbPoint
 10
2342.816917998835
 20
662.795187184708
 30
0.0
  0
ENDBLK
  5
37B
330
374
100
AcDbEntity
  8
0
100
AcDbBlockEnd
  0
BLOCK
  5
386
330
37C
100
AcDbEntity
  8
0
100
AcDbBlockBegin
  2
*D39
 70
     1
 10
0.0
 20
0.0
 30
0.0
  3
*D39
  1

  0
LINE
  5
37D
330
37C
100
AcDbEntity
  8
2上模
 62
   104
 48
0.6
370
     9
100
AcDbLine
 10
2332.816917998835
 20
1046.79518718471
 30
0.0
 11
2332.816917998835
 21
1103.926052698871
 31
0.0
  0
LINE
  5
37E
330
37C
100
AcDbEntity
  8
2上模
 62
   104
 48
0.6
370
     9
100
AcDbLine
 10
2963.816917998835
 20
1046.79518718471
 30
0.0
 11
2963.816917998835
 21
1103.926052698871
 31
0.0
  0
LINE
  5
37F
330
37C
100
AcDbEntity
  8
2上模
 62
   104
 48
0.6
370
     9
100
AcDbLine
 10
2342.816917998835
 20
1102.676052698871
 30
0.0
 11
2953.816917998835
 21
1102.676052698871
 31
0.0
  0
SOLID
  5
380
330
37C
100
AcDbEntity
  8
2上模
 62
   104
 48
0.6
100
AcDbTrace
 10
2342.816917998835
 20
1104.342719365537
 30
0.0
 11
2342.816917998835
 21
1101.009386032204
 31
0.0
 12
2332.816917998835
 22
1102.676052698871
 32
0.0
 13
2332.816917998835
 23
1102.676052698871
 33
0.0
  0
SOLID
  5
381
330
37C
100
AcDbEntity
  8
2上模
 62
   104
 48
0.6
100
AcDbTrace
 10
2953.816917998835
 20
1104.342719365537
 30
0.0
 11
2953.816917998835
 21
1101.009386032204
 31
0.0
 12
2963.816917998835
 22
1102.676052698871
 32
0.0
 13
2963.816917998835
 23
1102.676052698871
 33
0.0
  0
MTEXT
  5
382
330
37C
100
AcDbEntity
  8
2上模
 62
   200
 48
0.6
370
    25
100
AcDbMText
 10
2648.316917998835
 20
1112.690338413157
 30
0.0
 40
15.0
 41
0.0
 46
0.0
 71
     5
 72
     1
  1
\A1;631 [24.84”]
 73
     1
 44
1.0
  0
POINT
  5
383
330
37C
100
AcDbEntity
  8
Defpoints
 62
     0
 48
0.6
100
AcDbPoint
 10
2332.816917998835
 20
1044.79518718471
 30
0.0
  0
POINT
  5
384
330
37C
100
AcDbEntity
  8
Defpoints
 62
     0
 48
0.6
100
AcDbPoint
 10
2963.816917998835
 20
1044.79518718471
 30
0.0
  0
POINT
  5
385
330
37C
100
AcDbEntity
  8
Defpoints
 62
     0
 48
0.6
100
AcDbPoint
 10
2963.816917998835
 20
1102.676052698871
 30
0.0
  0
ENDBLK
  5
387
330
37C
100
AcDbEntity
  8
0
100
AcDbBlockEnd
  0
BLOCK
  5
392
330
388
100
AcDbEntity
  8
0
100
AcDbBlockBegin
  2
*D40
 70
     1
 10
0.0
 20
0.0
 30
0.0
  3
*D40
  1

  0
LINE
  5
389
330
388
100
AcDbEntity
  8
2上模
 62
   104
 48
0.6
370
     9
100
AcDbLine
 10
2955.816917998836
 20
1054.795187184708
 30
0.0
 11
3055.574905944148
 21
1054.795187184708
 31
0.0
  0
LINE
  5
38A
330
388
100
AcDbEntity
  8
2上模
 62
   104
 48
0.6
370
     9
100
AcDbLine
 10
2955.816917998836
 20
652.795187184708
 30
0.0
 11
3055.574905944147
 21
652.795187184708
 31
0.0
  0
LINE
  5
38B
330
388
100
AcDbEntity
  8
2上模
 62
   104
 48
0.6
370
     9
100
AcDbLine
 10
3054.324905944147
 20
1044.795187184708
 30
0.0
 11
3054.324905944147
 21
662.7951871847081
 31
0.0
  0
SOLID
  5
38C
330
388
100
AcDbEntity
  8
2上模
 62
   104
 48
0.6
100
AcDbTrace
 10
3052.658239277481
 20
1044.795187184708
 30
0.0
 11
3055.991572610814
 21
1044.795187184708
 31
0.0
 12
3054.324905944147
 22
1054.795187184708
 32
0.0
 13
3054.324905944147
 23
1054.795187184708
 33
0.0
  0
SOLID
  5
38D
330
388
100
AcDbEntity
  8
2上模
 62
   104
 48
0.6
100
AcDbTrace
 10
3052.658239277481
 20
662.7951871847081
 30
0.0
 11
3055.991572610813
 21
662.7951871847081
 31
0.0
 12
3054.324905944147
 22
652.795187184708
 32
0.0
 13
3054.324905944147
 23
652.795187184708
 33
0.0
  0
MTEXT
  5
38E
330
388
100
AcDbEntity
  8
2上模
 62
   200
 48
0.6
370
    25
100
AcDbMText
 10
3044.310620229861
 20
853.7951871847084
 30
0.0
 40
15.0
 41
0.0
 46
0.0
 71
     5
 72
     1
  1
\A1;402 [15.83”]
 11
0.0000000000000001
 21
1.0
 31
0.0
 73
     1
 44
1.0
  0
POINT
  5
38F
330
388
100
AcDbEntity
  8
Defpoints
 62
     0
 48
0.6
100
AcDbPoint
 10
2953.816917998836
 20
1054.795187184708
 30
0.0
  0
POINT
  5
390
330
388
100
AcDbEntity
  8
Defpoints
 62
     0
 48
0.6
100
AcDbPoint
 10
2953.816917998836
 20
652.795187184708
 30
0.0
  0
POINT
  5
391
330
388
100
AcDbEntity
  8
Defpoints
 62
     0
 48
0.6
100
AcDbPoint
 10
3054.324905944147
 20
652.795187184708
 30
0.0
  0
ENDBLK
  5
393
330
388
100
AcDbEntity
  8
0
100
AcDbBlockEnd
  0
BLOCK
  5
39A
330
399
100
AcDbEntity
  8
0
100
AcDbBlockBegin
  2
*D41
 70
     1
 10
0.0
 20
0.0
 30
0.0
  3
*D41
  1

  0
LINE
  5
39B
330
399
100
AcDbEntity
  8
2上模
 62
   104
 48
0.6
370
     9
100
AcDbLine
 10
3105.448848611357
 20
7040.175869968956
 30
0.0
 11
2984.25371822152
 21
6948.572602142686
 31
0.0
  0
MTEXT
  5
39C
330
399
100
AcDbEntity
  8
2上模
 62
   200
 48
0.6
370
    25
100
AcDbMText
 10
3043.766904608776
 20
7004.101149083769
 30
0.0
 40
15.0
 41
0.0
 46
0.0
 71
     5
 72
     1
  1
\A1;R10 [R0.39”]
 11
0.7977608892608186
 21
0.6029739327415308
 31
0.0
 73
     1
 44
1.0
  0
SOLID
  5
39D
330
399
100
AcDbEntity
  8
2上模
 62
   104
 48
0.6
100
AcDbTrace
 10
2983.248761666951
 20
6949.902203624787
 30
0.0
 11
2985.258674776089
 21
6947.243000660583
 31
0.0
 12
2976.276109328912
 22
6942.54286281527
 32
0.0
 13
2976.276109328912
 23
6942.54286281527
 33
0.0
  0
POINT
  5
39E
330
399
100
AcDbEntity
  8
Defpoints
 62
     0
 48
0.6
100
AcDbPoint
 10
2976.276109328912
 20
6942.54286281527
 30
0.0
  0
POINT
  5
39F
330
399
100
AcDbEntity
  8
Defpoints
 62
     0
 48
0.6
100
AcDbPoint
 10
2984.253718221513
 20
6948.57260214268
 30
0.0
  0
ENDBLK
  5
3A0
330
399
100
AcDbEntity
  8
0
100
AcDbBlockEnd
  0
BLOCK
  5
3A2
330
3A1
100
AcDbEntity
  8
0
100
AcDbBlockBegin
  2
*D42
 70
     1
 10
0.0
 20
0.0
 30
0.0
  3
*D42
  1

  0
LINE
  5
3A3
330
3A1
100
AcDbEntity
  8
2上模
 62
   104
 48
0.6
370
     9
100
AcDbLine
 10
2974.253718221469
 20
7332.572602142635
 30
0.0
 11
2974.253718221469
 21
7389.703467656798
 31
0.0
  0
LINE
  5
3A4
330
3A1
100
AcDbEntity
  8
2上模
 62
   104
 48
0.6
370
     9
100
AcDbLine
 10
3656.253718221468
 20
7332.572602142635
 30
0.0
 11
3656.253718221468
 21
7389.703467656798
 31
0.0
  0
LINE
  5
3A5
330
3A1
100
AcDbEntity
  8
2上模
 62
   104
 48
0.6
370
     9
100
AcDbLine
 10
2984.253718221469
 20
7388.453467656798
 30
0.0
 11
3646.253718221468
 21
7388.453467656798
 31
0.0
  0
SOLID
  5
3A6
330
3A1
100
AcDbEntity
  8
2上模
 62
   104
 48
0.6
100
AcDbTrace
 10
2984.253718221469
 20
7390.120134323466
 30
0.0
 11
2984.253718221469
 21
7386.78680099013
 31
0.0
 12
2974.253718221469
 22
7388.453467656798
 32
0.0
 13
2974.253718221469
 23
7388.453467656798
 33
0.0
  0
SOLID
  5
3A7
330
3A1
100
AcDbEntity
  8
2上模
 62
   104
 48
0.6
100
AcDbTrace
 10
3646.253718221468
 20
7390.120134323466
 30
0.0
 11
3646.253718221468
 21
7386.78680099013
 31
0.0
 12
3656.253718221468
 22
7388.453467656798
 32
0.0
 13
3656.253718221468
 23
7388.453467656798
 33
0.0
  0
MTEXT
  5
3A8
330
3A1
100
AcDbEntity
  8
2上模
 62
   200
 48
0.6
370
    25
100
AcDbMText
 10
3315.25371822147
 20
7396.867070597974
 30
0.0
 40
15.0
 41
0.0
 46
0.0
 71
     5
 72
     1
  1
\A1;682 [26.85”]
 73
     1
 44
1.0
  0
POINT
  5
3A9
330
3A1
100
AcDbEntity
  8
Defpoints
 62
     0
 48
0.6
100
AcDbPoint
 10
2974.253718221469
 20
7330.572602142637
 30
0.0
  0
POINT
  5
3AA
330
3A1
100
AcDbEntity
  8
Defpoints
 62
     0
 48
0.6
100
AcDbPoint
 10
3656.253718221468
 20
7330.572602142637
 30
0.0
  0
POINT
  5
3AB
330
3A1
100
AcDbEntity
  8
Defpoints
 62
     0
 48
0.6
100
AcDbPoint
 10
3656.253718221468
 20
7388.453467656798
 30
0.0
  0
ENDBLK
  5
3AC
330
3A1
100
AcDbEntity
  8
0
100
AcDbBlockEnd
  0
BLOCK
  5
3AE
330
3AD
100
AcDbEntity
  8
0
100
AcDbBlockBegin
  2
*D43
 70
     1
 10
0.0
 20
0.0
 30
0.0
  3
*D43
  1

  0
LINE
  5
3AF
330
3AD
100
AcDbEntity
  8
2上模
 62
   104
 48
0.6
370
     9
100
AcDbLine
 10
3648.253718221468
 20
7340.572602142636
 30
0.0
 11
3748.011706166869
 21
7340.572602142636
 31
0.0
  0
LINE
  5
3B0
330
3AD
100
AcDbEntity
  8
2上模
 62
   104
 48
0.6
370
     9
100
AcDbLine
 10
3648.253718221468
 20
6938.572602142635
 30
0.0
 11
3748.011706166867
 21
6938.572602142635
 31
0.0
  0
LINE
  5
3B1
330
3AD
100
AcDbEntity
  8
2上模
 62
   104
 48
0.6
370
     9
100
AcDbLine
 10
3746.761706166868
 20
7330.572602142637
 30
0.0
 11
3746.761706166867
 21
6948.572602142636
 31
0.0
  0
SOLID
  5
3B2
330
3AD
100
AcDbEntity
  8
2上模
 62
   104
 48
0.6
100
AcDbTrace
 10
3745.095039500201
 20
7330.572602142637
 30
0.0
 11
3748.428372833534
 21
7330.572602142637
 31
0.0
 12
3746.761706166868
 22
7340.572602142636
 32
0.0
 13
3746.761706166868
 23
7340.572602142636
 33
0.0
  0
SOLID
  5
3B3
330
3AD
100
AcDbEntity
  8
2上模
 62
   104
 48
0.6
100
AcDbTrace
 10
3745.0950395002
 20
6948.572602142636
 30
0.0
 11
3748.428372833533
 21
6948.572602142636
 31
0.0
 12
3746.761706166867
 22
6938.572602142635
 32
0.0
 13
3746.761706166867
 23
6938.572602142635
 33
0.0
  0
MTEXT
  5
3B4
330
3AD
100
AcDbEntity
  8
2上模
 62
   200
 48
0.6
370
    25
100
AcDbMText
 10
3738.34810322569
 20
7139.572602142637
 30
0.0
 40
15.0
 41
0.0
 46
0.0
 71
     5
 72
     1
  1
\A1;402 [15.83”]
 11
0.0000000000000001
 21
1.0
 31
0.0
 73
     1
 44
1.0
  0
POINT
  5
3B5
330
3AD
100
AcDbEntity
  8
Defpoints
 62
     0
 48
0.6
100
AcDbPoint
 10
3646.253718221468
 20
7340.572602142636
 30
0.0
  0
POINT
  5
3B6
330
3AD
100
AcDbEntity
  8
Defpoints
 62
     0
 48
0.6
100
AcDbPoint
 10
3646.253718221468
 20
6938.572602142635
 30
0.0
  0
POINT
  5
3B7
330
3AD
100
AcDbEntity
  8
Defpoints
 62
     0
 48
0.6
100
AcDbPoint
 10
3746.761706166867
 20
6938.572602142635
 30
0.0
  0
ENDBLK
  5
3B8
330
3AD
100
AcDbEntity
  8
0
100
AcDbBlockEnd
  0
BLOCK
  5
3D9
330
3D3
100
AcDbEntity
  8
0
100
AcDbBlockBegin
  2
*D45
 70
     1
 10
0.0
 20
0.0
 30
0.0
  3
*D45
  1

  0
LINE
  5
3F3
330
3D3
100
AcDbEntity
  8
2上模
 62
   104
 48
0.6
370
     9
100
AcDbLine
 10
3354.554674428507
 20
780.3699983196398
 30
0.0
 11
3234.694871745642
 21
689.7760151171333
 31
0.0
  0
MTEXT
  5
3F4
330
3D3
100
AcDbEntity
  8
2上模
 62
   200
 48
0.6
370
    25
100
AcDbMText
 10
3293.242888146125
 20
746.5815241707176
 30
0.0
 40
15.0
 41
0.0
 46
0.0
 71
     5
 72
     1
  1
\A1;R10 [R0.39”]
 11
0.7977608892608186
 21
0.6029739327415308
 31
0.0
 73
     1
 44
1.0
  0
SOLID
  5
3F5
330
3D3
100
AcDbEntity
  8
2上模
 62
   104
 48
0.6
100
AcDbTrace
 10
3233.689915191072
 20
691.1056165992347
 30
0.0
 11
3235.699828300211
 21
688.446413635032
 31
0.0
 12
3226.717262853033
 22
683.746275789718
 32
0.0
 13
3226.717262853033
 23
683.746275789718
 33
0.0
  0
POINT
  5
3F6
330
3D3
100
AcDbEntity
  8
Defpoints
 62
     0
 48
0.6
100
AcDbPoint
 10
3226.717262853033
 20
683.746275789718
 30
0.0
  0
POINT
  5
3F7
330
3D3
100
AcDbEntity
  8
Defpoints
 62
     0
 48
0.6
100
AcDbPoint
 10
3234.694871745634
 20
689.7760151171285
 30
0.0
  0
ENDBLK
  5
3DA
330
3D3
100
AcDbEntity
  8
0
100
AcDbBlockEnd
  0
BLOCK
  5
3E5
330
3DB
100
AcDbEntity
  8
0
100
AcDbBlockBegin
  2
*D46
 70
     1
 10
0.0
 20
0.0
 30
0.0
  3
*D46
  1

  0
LINE
  5
3DC
330
3DB
100
AcDbEntity
  8
2上模
 62
   104
 48
0.6
370
     9
100
AcDbLine
 10
3224.694871745592
 20
1073.776015117087
 30
0.0
 11
3224.694871745592
 21
1130.906880631248
 31
0.0
  0
LINE
  5
3DD
330
3DB
100
AcDbEntity
  8
2上模
 62
   104
 48
0.6
370
     9
100
AcDbLine
 10
3906.69487174559
 20
1073.776015117087
 30
0.0
 11
3906.69487174559
 21
1130.906880631248
 31
0.0
  0
LINE
  5
3DE
330
3DB
100
AcDbEntity
  8
2上模
 62
   104
 48
0.6
370
     9
100
AcDbLine
 10
3234.694871745592
 20
1129.656880631248
 30
0.0
 11
3896.694871745591
 21
1129.656880631248
 31
0.0
  0
SOLID
  5
3DF
330
3DB
100
AcDbEntity
  8
2上模
 62
   104
 48
0.6
100
AcDbTrace
 10
3234.694871745592
 20
1131.323547297915
 30
0.0
 11
3234.694871745592
 21
1127.990213964581
 31
0.0
 12
3224.694871745592
 22
1129.656880631248
 32
0.0
 13
3224.694871745592
 23
1129.656880631248
 33
0.0
  0
SOLID
  5
3E0
330
3DB
100
AcDbEntity
  8
2上模
 62
   104
 48
0.6
100
AcDbTrace
 10
3896.694871745591
 20
1131.323547297915
 30
0.0
 11
3896.694871745591
 21
1127.990213964581
 31
0.0
 12
3906.69487174559
 22
1129.656880631248
 32
0.0
 13
3906.69487174559
 23
1129.656880631248
 33
0.0
  0
MTEXT
  5
3E1
330
3DB
100
AcDbEntity
  8
2上模
 62
   200
 48
0.6
370
    25
100
AcDbMText
 10
3565.694871745591
 20
1139.671166345533
 30
0.0
 40
15.0
 41
0.0
 46
0.0
 71
     5
 72
     1
  1
\A1;682 [26.85”]
 73
     1
 44
1.0
  0
POINT
  5
3E2
330
3DB
100
AcDbEntity
  8
Defpoints
 62
     0
 48
0.6
100
AcDbPoint
 10
3224.694871745592
 20
1071.776015117087
 30
0.0
  0
POINT
  5
3E3
330
3DB
100
AcDbEntity
  8
Defpoints
 62
     0
 48
0.6
100
AcDbPoint
 10
3906.69487174559
 20
1071.776015117087
 30
0.0
  0
POINT
  5
3E4
330
3DB
100
AcDbEntity
  8
Defpoints
 62
     0
 48
0.6
100
AcDbPoint
 10
3906.69487174559
 20
1129.656880631248
 30
0.0
  0
ENDBLK
  5
3E6
330
3DB
100
AcDbEntity
  8
0
100
AcDbBlockEnd
  0
BLOCK
  5
3F1
330
3E7
100
AcDbEntity
  8
0
100
AcDbBlockBegin
  2
*D47
 70
     1
 10
0.0
 20
0.0
 30
0.0
  3
*D47
  1

  0
LINE
  5
3E8
330
3E7
100
AcDbEntity
  8
2上模
 62
   104
 48
0.6
370
     9
100
AcDbLine
 10
3898.69487174559
 20
1081.776015117085
 30
0.0
 11
3998.452859690991
 21
1081.776015117085
 31
0.0
  0
LINE
  5
3E9
330
3E7
100
AcDbEntity
  8
2上模
 62
   104
 48
0.6
370
     9
100
AcDbLine
 10
3898.69487174559
 20
679.7760151170851
 30
0.0
 11
3998.45285969099
 21
679.7760151170851
 31
0.0
  0
LINE
  5
3EA
330
3E7
100
AcDbEntity
  8
2上模
 62
   104
 48
0.6
370
     9
100
AcDbLine
 10
3997.20285969099
 20
1071.776015117085
 30
0.0
 11
3997.20285969099
 21
689.776015117085
 31
0.0
  0
SOLID
  5
3EB
330
3E7
100
AcDbEntity
  8
2上模
 62
   104
 48
0.6
100
AcDbTrace
 10
3995.536193024324
 20
1071.776015117085
 30
0.0
 11
3998.869526357657
 21
1071.776015117085
 31
0.0
 12
3997.20285969099
 22
1081.776015117085
 32
0.0
 13
3997.20285969099
 23
1081.776015117085
 33
0.0
  0
SOLID
  5
3EC
330
3E7
100
AcDbEntity
  8
2上模
 62
   104
 48
0.6
100
AcDbTrace
 10
3995.536193024323
 20
689.776015117085
 30
0.0
 11
3998.869526357656
 21
689.776015117085
 31
0.0
 12
3997.20285969099
 22
679.7760151170851
 32
0.0
 13
3997.20285969099
 23
679.7760151170851
 33
0.0
  0
MTEXT
  5
3ED
330
3E7
100
AcDbEntity
  8
2上模
 62
   200
 48
0.6
370
    25
100
AcDbMText
 10
3987.188573976704
 20
880.7760151170857
 30
0.0
 40
15.0
 41
0.0
 46
0.0
 71
     5
 72
     1
  1
\A1;402 [15.83”]
 11
0.0000000000000001
 21
1.0
 31
0.0
 73
     1
 44
1.0
  0
POINT
  5
3EE
330
3E7
100
AcDbEntity
  8
Defpoints
 62
     0
 48
0.6
100
AcDbPoint
 10
3896.694871745591
 20
1081.776015117085
 30
0.0
  0
POINT
  5
3EF
330
3E7
100
AcDbEntity
  8
Defpoints
 62
     0
 48
0.6
100
AcDbPoint
 10
3896.694871745591
 20
679.7760151170851
 30
0.0
  0
POINT
  5
3F0
330
3E7
100
AcDbEntity
  8
Defpoints
 62
     0
 48
0.6
100
AcDbPoint
 10
3997.20285969099
 20
679.7760151170851
 30
0.0
  0
ENDBLK
  5
3F2
330
3E7
100
AcDbEntity
  8
0
100
AcDbBlockEnd
  0
BLOCK
  5
3F9
330
3F8
100
AcDbEntity
  8
0
100
AcDbBlockBegin
  2
*D48
 70
     1
 10
0.0
 20
0.0
 30
0.0
  3
*D48
  1

  0
LINE
  5
3FA
330
3F8
100
AcDbEntity
  8
2上模
 62
   104
 48
0.6
370
     9
100
AcDbLine
 10
1184.300856629746
 20
6374.468694447945
 30
0.0
 11
1063.105726240166
 21
6282.865426621333
 31
0.0
  0
MTEXT
  5
3FB
330
3F8
100
AcDbEntity
  8
2上模
 62
   200
 48
0.6
370
    25
100
AcDbMText
 10
1122.618912627266
 20
6338.393973562586
 30
0.0
 40
15.0
 41
0.0
 46
0.0
 71
     5
 72
     1
  1
\A1;R10 [R0.39”]
 11
0.7977608892591209
 21
0.6029739327437768
 31
0.0
 73
     1
 44
1.0
  0
SOLID
  5
3FC
330
3F8
100
AcDbEntity
  8
2上模
 62
   104
 48
0.6
100
AcDbTrace
 10
1062.100769685592
 20
6284.195028103432
 30
0.0
 11
1064.110682794739
 21
6281.535825139234
 31
0.0
 12
1055.128117347575
 22
6276.835687293896
 32
0.0
 13
1055.128117347575
 23
6276.835687293896
 33
0.0
  0
POINT
  5
3FD
330
3F8
100
AcDbEntity
  8
Defpoints
 62
     0
 48
0.6
100
AcDbPoint
 10
1055.128117347575
 20
6276.835687293896
 30
0.0
  0
POINT
  5
3FE
330
3F8
100
AcDbEntity
  8
Defpoints
 62
     0
 48
0.6
100
AcDbPoint
 10
1063.105726240089
 20
6282.865426621274
 30
0.0
  0
ENDBLK
  5
3FF
330
3F8
100
AcDbEntity
  8
0
100
AcDbBlockEnd
  0
BLOCK
  5
401
330
400
100
AcDbEntity
  8
0
100
AcDbBlockBegin
  2
*D49
 70
     1
 10
0.0
 20
0.0
 30
0.0
  3
*D49
  1

  0
LINE
  5
402
330
400
100
AcDbEntity
  8
2上模
 62
   104
 48
0.6
370
     9
100
AcDbLine
 10
1053.105726240082
 20
6666.865426621267
 30
0.0
 11
1053.105726240082
 21
6723.996292135459
 31
0.0
  0
LINE
  5
403
330
400
100
AcDbEntity
  8
2上模
 62
   104
 48
0.6
370
     9
100
AcDbLine
 10
1811.105726239965
 20
6666.865426621267
 30
0.0
 11
1811.105726239965
 21
6723.996292135459
 31
0.0
  0
LINE
  5
404
330
400
100
AcDbEntity
  8
2上模
 62
   104
 48
0.6
370
     9
100
AcDbLine
 10
1063.105726240082
 20
6722.746292135458
 30
0.0
 11
1801.105726239965
 21
6722.746292135458
 31
0.0
  0
SOLID
  5
405
330
400
100
AcDbEntity
  8
2上模
 62
   104
 48
0.6
100
AcDbTrace
 10
1063.105726240082
 20
6724.412958802125
 30
0.0
 11
1063.105726240082
 21
6721.079625468791
 31
0.0
 12
1053.105726240082
 22
6722.746292135458
 32
0.0
 13
1053.105726240082
 23
6722.746292135458
 33
0.0
  0
SOLID
  5
406
330
400
100
AcDbEntity
  8
2上模
 62
   104
 48
0.6
100
AcDbTrace
 10
1801.105726239965
 20
6724.412958802125
 30
0.0
 11
1801.105726239965
 21
6721.079625468791
 31
0.0
 12
1811.105726239965
 22
6722.746292135458
 32
0.0
 13
1811.105726239965
 23
6722.746292135458
 33
0.0
  0
MTEXT
  5
407
330
400
100
AcDbEntity
  8
2上模
 62
   200
 48
0.6
370
    25
100
AcDbMText
 10
1432.105726240023
 20
6731.159895076635
 30
0.0
 40
15.0
 41
0.0
 46
0.0
 71
     5
 72
     1
  1
\A1;758 [29.84”]
 73
     1
 44
1.0
  0
POINT
  5
408
330
400
100
AcDbEntity
  8
Defpoints
 62
     0
 48
0.6
100
AcDbPoint
 10
1053.105726240082
 20
6664.865426621267
 30
0.0
  0
POINT
  5
409
330
400
100
AcDbEntity
  8
Defpoints
 62
     0
 48
0.6
100
AcDbPoint
 10
1811.105726239965
 20
6664.865426621267
 30
0.0
  0
POINT
  5
40A
330
400
100
AcDbEntity
  8
Defpoints
 62
     0
 48
0.6
100
AcDbPoint
 10
1811.105726239965
 20
6722.746292135458
 30
0.0
  0
ENDBLK
  5
40B
330
400
100
AcDbEntity
  8
0
100
AcDbBlockEnd
  0
BLOCK
  5
40D
330
40C
100
AcDbEntity
  8
0
100
AcDbBlockBegin
  2
*D50
 70
     1
 10
0.0
 20
0.0
 30
0.0
  3
*D50
  1

  0
LINE
  5
40E
330
40C
100
AcDbEntity
  8
2上模
 62
   104
 48
0.6
370
     9
100
AcDbLine
 10
1803.105726240081
 20
6674.865426621281
 30
0.0
 11
1902.863714185364
 21
6674.865426621281
 31
0.0
  0
LINE
  5
40F
330
40C
100
AcDbEntity
  8
2上模
 62
   104
 48
0.6
370
     9
100
AcDbLine
 10
1803.105726240081
 20
6272.865426621267
 30
0.0
 11
1902.863714185364
 21
6272.865426621267
 31
0.0
  0
LINE
  5
410
330
40C
100
AcDbEntity
  8
2上模
 62
   104
 48
0.6
370
     9
100
AcDbLine
 10
1901.613714185364
 20
6664.865426621282
 30
0.0
 11
1901.613714185364
 21
6282.865426621267
 31
0.0
  0
SOLID
  5
411
330
40C
100
AcDbEntity
  8
2上模
 62
   104
 48
0.6
100
AcDbTrace
 10
1899.947047518698
 20
6664.865426621282
 30
0.0
 11
1903.280380852031
 21
6664.865426621282
 31
0.0
 12
1901.613714185364
 22
6674.865426621281
 32
0.0
 13
1901.613714185364
 23
6674.865426621281
 33
0.0
  0
SOLID
  5
412
330
40C
100
AcDbEntity
  8
2上模
 62
   104
 48
0.6
100
AcDbTrace
 10
1899.947047518697
 20
6282.865426621267
 30
0.0
 11
1903.280380852031
 21
6282.865426621267
 31
0.0
 12
1901.613714185364
 22
6272.865426621267
 32
0.0
 13
1901.613714185364
 23
6272.865426621267
 33
0.0
  0
MTEXT
  5
413
330
40C
100
AcDbEntity
  8
2上模
 62
   200
 48
0.6
370
    25
100
AcDbMText
 10
1893.200111244187
 20
6473.865426621275
 30
0.0
 40
15.0
 41
0.0
 46
0.0
 71
     5
 72
     1
  1
\A1;402 [15.83”]
 11
0.0000000000000001
 21
1.0
 31
0.0
 73
     1
 44
1.0
  0
POINT
  5
414
330
40C
100
AcDbEntity
  8
Defpoints
 62
     0
 48
0.6
100
AcDbPoint
 10
1801.105726240082
 20
6674.865426621281
 30
0.0
  0
POINT
  5
415
330
40C
100
AcDbEntity
  8
Defpoints
 62
     0
 48
0.6
100
AcDbPoint
 10
1801.105726240082
 20
6272.865426621267
 30
0.0
  0
POINT
  5
416
330
40C
100
AcDbEntity
  8
Defpoints
 62
     0
 48
0.6
100
AcDbPoint
 10
1901.613714185364
 20
6272.865426621267
 30
0.0
  0
ENDBLK
  5
417
330
40C
100
AcDbEntity
  8
0
100
AcDbBlockEnd
  0
BLOCK
  5
438
330
432
100
AcDbEntity
  8
0
100
AcDbBlockBegin
  2
*D52
 70
     1
 10
0.0
 20
0.0
 30
0.0
  3
*D52
  1

  0
LINE
  5
452
330
432
100
AcDbEntity
  8
2上模
 62
   104
 48
0.6
370
     9
100
AcDbLine
 10
4296.855385714351
 20
803.3420822491807
 30
0.0
 11
4176.99558303174
 21
712.7480990463409
 31
0.0
  0
MTEXT
  5
453
330
432
100
AcDbEntity
  8
2上模
 62
   200
 48
0.6
370
    25
100
AcDbMText
 10
4235.543599432063
 20
769.5536081000873
 30
0.0
 40
15.0
 41
0.0
 46
0.0
 71
     5
 72
     1
  1
\A1;R10 [R0.39”]
 11
0.7977608892591372
 21
0.6029739327437557
 31
0.0
 73
     1
 44
1.0
  0
SOLID
  5
454
330
432
100
AcDbEntity
  8
2上模
 62
   104
 48
0.6
100
AcDbTrace
 10
4175.990626477167
 20
714.0777005284394
 30
0.0
 11
4178.000539586313
 21
711.4184975642422
 31
0.0
 12
4169.017974139148
 22
706.7183597189036
 32
0.0
 13
4169.017974139148
 23
706.7183597189036
 33
0.0
  0
POINT
  5
455
330
432
100
AcDbEntity
  8
Defpoints
 62
     0
 48
0.6
100
AcDbPoint
 10
4169.017974139148
 20
706.7183597189036
 30
0.0
  0
POINT
  5
456
330
432
100
AcDbEntity
  8
Defpoints
 62
     0
 48
0.6
100
AcDbPoint
 10
4176.995583031663
 20
712.7480990462824
 30
0.0
  0
ENDBLK
  5
439
330
432
100
AcDbEntity
  8
0
100
AcDbBlockEnd
  0
BLOCK
  5
444
330
43A
100
AcDbEntity
  8
0
100
AcDbBlockBegin
  2
*D53
 70
     1
 10
0.0
 20
0.0
 30
0.0
  3
*D53
  1

  0
LINE
  5
43B
330
43A
100
AcDbEntity
  8
2上模
 62
   104
 48
0.6
370
     9
100
AcDbLine
 10
4166.995583031655
 20
1096.748099046275
 30
0.0
 11
4166.995583031655
 21
1153.878964560466
 31
0.0
  0
LINE
  5
43C
330
43A
100
AcDbEntity
  8
2上模
 62
   104
 48
0.6
370
     9
100
AcDbLine
 10
4924.995583031539
 20
1096.748099046275
 30
0.0
 11
4924.995583031539
 21
1153.878964560466
 31
0.0
  0
LINE
  5
43D
330
43A
100
AcDbEntity
  8
2上模
 62
   104
 48
0.6
370
     9
100
AcDbLine
 10
4176.995583031656
 20
1152.628964560466
 30
0.0
 11
4914.995583031539
 21
1152.628964560466
 31
0.0
  0
SOLID
  5
43E
330
43A
100
AcDbEntity
  8
2上模
 62
   104
 48
0.6
100
AcDbTrace
 10
4176.995583031656
 20
1154.295631227133
 30
0.0
 11
4176.995583031656
 21
1150.9622978938
 31
0.0
 12
4166.995583031655
 22
1152.628964560466
 32
0.0
 13
4166.995583031655
 23
1152.628964560466
 33
0.0
  0
SOLID
  5
43F
330
43A
100
AcDbEntity
  8
2上模
 62
   104
 48
0.6
100
AcDbTrace
 10
4914.995583031539
 20
1154.295631227133
 30
0.0
 11
4914.995583031539
 21
1150.9622978938
 31
0.0
 12
4924.995583031539
 22
1152.628964560466
 32
0.0
 13
4924.995583031539
 23
1152.628964560466
 33
0.0
  0
MTEXT
  5
440
330
43A
100
AcDbEntity
  8
2上模
 62
   200
 48
0.6
370
    25
100
AcDbMText
 10
4545.995583031597
 20
1162.643250274752
 30
0.0
 40
15.0
 41
0.0
 46
0.0
 71
     5
 72
     1
  1
\A1;758 [29.84”]
 73
     1
 44
1.0
  0
POINT
  5
441
330
43A
100
AcDbEntity
  8
Defpoints
 62
     0
 48
0.6
100
AcDbPoint
 10
4166.995583031655
 20
1094.748099046275
 30
0.0
  0
POINT
  5
442
330
43A
100
AcDbEntity
  8
Defpoints
 62
     0
 48
0.6
100
AcDbPoint
 10
4924.995583031539
 20
1094.748099046275
 30
0.0
  0
POINT
  5
443
330
43A
100
AcDbEntity
  8
Defpoints
 62
     0
 48
0.6
100
AcDbPoint
 10
4924.995583031539
 20
1152.628964560466
 30
0.0
  0
ENDBLK
  5
445
330
43A
100
AcDbEntity
  8
0
100
AcDbBlockEnd
  0
BLOCK
  5
450
330
446
100
AcDbEntity
  8
0
100
AcDbBlockBegin
  2
*D54
 70
     1
 10
0.0
 20
0.0
 30
0.0
  3
*D54
  1

  0
LINE
  5
447
330
446
100
AcDbEntity
  8
2上模
 62
   104
 48
0.6
370
     9
100
AcDbLine
 10
4916.995583031656
 20
1104.748099046289
 30
0.0
 11
5016.753570976938
 21
1104.748099046289
 31
0.0
  0
LINE
  5
448
330
446
100
AcDbEntity
  8
2上模
 62
   104
 48
0.6
370
     9
100
AcDbLine
 10
4916.995583031656
 20
702.7480990462755
 30
0.0
 11
5016.753570976938
 21
702.7480990462755
 31
0.0
  0
LINE
  5
449
330
446
100
AcDbEntity
  8
2上模
 62
   104
 48
0.6
370
     9
100
AcDbLine
 10
5015.503570976938
 20
1094.748099046289
 30
0.0
 11
5015.503570976938
 21
712.7480990462754
 31
0.0
  0
SOLID
  5
44A
330
446
100
AcDbEntity
  8
2上模
 62
   104
 48
0.6
100
AcDbTrace
 10
5013.836904310271
 20
1094.748099046289
 30
0.0
 11
5017.170237643605
 21
1094.748099046289
 31
0.0
 12
5015.503570976938
 22
1104.748099046289
 32
0.0
 13
5015.503570976938
 23
1104.748099046289
 33
0.0
  0
SOLID
  5
44B
330
446
100
AcDbEntity
  8
2上模
 62
   104
 48
0.6
100
AcDbTrace
 10
5013.836904310271
 20
712.7480990462754
 30
0.0
 11
5017.170237643605
 21
712.7480990462754
 31
0.0
 12
5015.503570976938
 22
702.7480990462755
 32
0.0
 13
5015.503570976938
 23
702.7480990462755
 33
0.0
  0
MTEXT
  5
44C
330
446
100
AcDbEntity
  8
2上模
 62
   200
 48
0.6
370
    25
100
AcDbMText
 10
5005.489285262653
 20
903.748099046283
 30
0.0
 40
15.0
 41
0.0
 46
0.0
 71
     5
 72
     1
  1
\A1;402 [15.83”]
 11
0.0000000000000001
 21
1.0
 31
0.0
 73
     1
 44
1.0
  0
POINT
  5
44D
330
446
100
AcDbEntity
  8
Defpoints
 62
     0
 48
0.6
100
AcDbPoint
 10
4914.995583031656
 20
1104.748099046289
 30
0.0
  0
POINT
  5
44E
330
446
100
AcDbEntity
  8
Defpoints
 62
     0
 48
0.6
100
AcDbPoint
 10
4914.995583031656
 20
702.7480990462755
 30
0.0
  0
POINT
  5
44F
330
446
100
AcDbEntity
  8
Defpoints
 62
     0
 48
0.6
100
AcDbPoint
 10
5015.503570976938
 20
702.7480990462755
 30
0.0
  0
ENDBLK
  5
451
330
446
100
AcDbEntity
  8
0
100
AcDbBlockEnd
  0
ENDSEC
  0
SECTION
  2
ENTITIES
  0
LWPOLYLINE
  5
427
102
{ACAD_REACTORS
330
42A
330
42E
330
431
102
}
330
1F
100
AcDbEntity
  8
2上模
 48
0.6
370
    25
100
AcDbPolyline
 90
        8
 70
     1
 43
0.0
 10
4176.995583031656
 20
1104.748099046289
 10
4914.995583031656
 20
1104.748099046289
 42
-0.4142135623730951
 10
4924.995583031539
 20
1094.748099046275
 10
4924.995583031655
 20
712.7480990462891
 42
-0.414213562373117
 10
4914.995583031656
 20
702.7480990462755
 10
4176.995583031656
 20
702.7480990462755
 42
-0.4142135623730951
 10
4166.995583031655
 20
712.7480990462891
 10
4166.995583031655
 20
1094.748099046275
 42
-0.4142135623730951
  0
DIMENSION
  5
428
102
{ACAD_XDICTIONARY
360
429
102
}
102
{ACAD_REACTORS
330
42A
102
}
330
1F
100
AcDbEntity
  8
2上模
 48
0.6
370
    25
100
AcDbDimension
  2
*D52
 10
4176.995583031663
 20
712.7480990462824
 30
0.0
 11
4241.581952672826
 21
761.5646026233637
 31
0.0
 70
   164
 71
     5
 42
9.999999999902684
 73
     0
 74
     0
 75
     0
  3
usally
100
AcDbRadialDimension
 15
4169.017974139148
 25
706.7183597189036
 35
0.0
 40
0.0
1001
ACAD
1000
DSTYLE
1002
{
1070
     4
1000
”
1070
    41
1040
10.0
1070
    50
1040
1.570796326794896
1070
   140
1040
15.0
1070
   143
1040
0.03941717791
1070
   170
1070
     1
1070
   279
1070
     1
1070
   288
1070
     1
1070
   345
1005
15
1070
   346
1005
15
1070
   347
1005
15
1002
}
  0
MTEXT
  5
42B
330
1F
100
AcDbEntity
  8
2上模
 48
0.6
370
    25
100
AcDbMText
 10
4253.626249322567
 20
942.1704410048278
 30
0.0
 40
35.0
 41
965.4524160316068
 46
51.30864009214654
 71
     1
 72
     5
  1
Hummingbird U32 50/50
 73
     1
 44
1.0
  0
DIMENSION
  5
42C
102
{ACAD_XDICTIONARY
360
42D
102
}
102
{ACAD_REACTORS
330
42E
102
}
330
1F
100
AcDbEntity
  8
2上模
 48
0.6
370
    25
100
AcDbDimension
  2
*D53
 10
4924.995583031539
 20
1152.628964560466
 30
0.0
 11
4545.995583031597
 21
1162.643250274752
 31
0.0
 70
    32
 71
     5
 42
757.9999999998835
 73
     0
 74
     0
 75
     0
  3
usally
100
AcDbAlignedDimension
 13
4166.995583031655
 23
1094.748099046275
 33
0.0
 14
4924.995583031539
 24
1094.748099046275
 34
0.0
100
AcDbRotatedDimension
1001
ACAD
1000
DSTYLE
1002
{
1070
     4
1000
”
1070
    41
1040
10.0
1070
    50
1040
1.570796326794896
1070
   140
1040
15.0
1070
   143
1040
0.03937007874
1070
   170
1070
     1
1070
   345
1005
15
1070
   346
1005
15
1070
   347
1005
15
1002
}
  0
DIMENSION
  5
42F
102
{ACAD_XDICTIONARY
360
430
102
}
102
{ACAD_REACTORS
330
431
102
}
330
1F
100
AcDbEntity
  8
2上模
 48
0.6
370
    25
100
AcDbDimension
  2
*D54
 10
5015.503570976938
 20
702.7480990462755
 30
0.0
 11
5005.489285262653
 21
903.748099046283
 31
0.0
 70
    32
 71
     5
 42
402.0000000000136
 73
     0
 74
     0
 75
     0
  3
usally
100
AcDbAlignedDimension
 13
4914.995583031656
 23
1104.748099046289
 33
0.0
 14
4914.995583031656
 24
702.7480990462755
 34
0.0
 50
90.0
100
AcDbRotatedDimension
1001
ACAD
1000
DSTYLE
1002
{
1070
     4
1000
”
1070
    41
1040
10.0
1070
    50
1040
1.570796326794896
1070
   140
1040
15.0
1070
   143
1040
0.03937007874
1070
   170
1070
     1
1070
   345
1005
15
1070
   346
1005
15
1070
   347
1005
15
1002
}
  0
ENDSEC
  0
SECTION
  2
OBJECTS
  0
DICTIONARY
  5
C
330
0
100
AcDbDictionary
281
     1
  3
ACAD_COLOR
350
6B
  3
ACAD_GROUP
350
D
  3
ACAD_LAYOUT
350
1A
  3
ACAD_MATERIAL
350
6A
  3
ACAD_MLINESTYLE
350
17
  3
ACAD_PLOTSETTINGS
350
19
  3
ACAD_PLOTSTYLENAME
350
E
  3
ACAD_TABLESTYLE
350
7E
  3
ACAD_VISUALSTYLE
350
F0
  3
AcDbVariableDictionary
350
5E
  0
DICTIONARY
  5
14E
330
2
100
AcDbDictionary
280
     1
281
     1
  3
ACAD_LAYERSTATES
360
14F
  0
DICTIONARY
  5
429
330
428
100
AcDbDictionary
280
     1
281
     1
  3
ACAD_DIMASSOC
360
42A
  0
DICTIONARY
  5
42D
330
42C
100
AcDbDictionary
280
     1
281
     1
  3
ACAD_DIMASSOC
360
42E
  0
DICTIONARY
  5
430
330
42F
100
AcDbDictionary
280
     1
281
     1
  3
ACAD_DIMASSOC
360
431
  0
DICTIONARY
  5
6B
102
{ACAD_REACTORS
330
C
102
}
330
C
100
AcDbDictionary
281
     1
  0
DICTIONARY
  5
D
102
{ACAD_REACTORS
330
C
102
}
330
C
100
AcDbDictionary
281
     1
  0
DICTIONARY
  5
1A
102
{ACAD_REACTORS
330
C
102
}
330
C
100
AcDbDictionary
281
     1
  3
Model
350
22
  3
布局1
350
D3
  3
布局2
350
D7
  0
DICTIONARY
  5
6A
102
{ACAD_REACTORS
330
C
102
}
330
C
100
AcDbDictionary
281
     1
  3
ByBlock
350
EE
  3
ByLayer
350
ED
  3
Global
350
EF
  0
DICTIONARY
  5
17
102
{ACAD_REACTORS
330
C
102
}
330
C
100
AcDbDictionary
281
     1
  3
Standard
350
18
  0
DICTIONARY
  5
19
102
{ACAD_REACTORS
330
C
102
}
330
C
100
AcDbDictionary
281
     1
  0
ACDBDICTIONARYWDFLT
  5
E
102
{ACAD_REACTORS
330
C
102
}
330
C
100
AcDbDictionary
281
     1
  3
Normal
350
F
100
AcDbDictionaryWithDefault
340
F
  0
DICTIONARY
  5
7E
102
{ACAD_REACTORS
330
C
102
}
330
C
100
AcDbDictionary
281
     1
  3
Standard
350
7F
  0
DICTIONARY
  5
F0
102
{ACAD_REACTORS
330
C
102
}
330
C
100
AcDbDictionary
281
     1
  3
2dWireframe
350
F6
  3
3D Hidden
350
F8
  3
3dWireframe
350
F7
  3
Basic
350
F5
  3
Brighten
350
FC
  3
ColorChange
350
100
  3
Conceptual
350
F9
  3
Dim
350
FB
  3
Facepattern
350
FF
  3
Flat
350
F1
  3
FlatWithEdges
350
F2
  3
Gouraud
350
F3
  3
GouraudWithEdges
350
F4
  3
Linepattern
350
FE
  3
Realistic
350
FA
  3
Thicken
350
FD
  0
DICTIONARY
  5
5E
102
{ACAD_REACTORS
330
C
102
}
330
C
100
AcDbDictionary
281
     1
  3
CTABLESTYLE
350
84
  3
DIMASSOC
350
5F
  3
HIDETEXT
350
63
  0
DICTIONARY
  5
14F
102
{ACAD_REACTORS
330
14E
102
}
330
14E
100
AcDbDictionary
281
     1
  0
DIMASSOC
  5
42A
102
{ACAD_REACTORS
330
429
102
}
330
429
100
AcDbDimAssoc
330
428
 90
        2
 70
     0
 71
     0
  1
AcDbOsnapPointRef
 72
     3
331
427
 73
     2
 91
        6
 40
0.0
 10
0.0
 20
0.0
 30
0.0
 75
     0
  0
DIMASSOC
  5
42E
102
{ACAD_REACTORS
330
42D
102
}
330
42D
100
AcDbDimAssoc
330
42C
 90
        3
 70
     0
 71
     0
  1
AcDbOsnapPointRef
 72
     1
331
427
 73
     2
 91
        7
 40
1.0
 10
0.0
 20
0.0
 30
2.000000000000000E+50
 75
     0
  1
AcDbOsnapPointRef
 72
     1
331
427
 73
     2
 91
        2
 40
0.0
 10
0.0
 20
0.0
 30
2.000000000000000E+50
 75
     0
  0
DIMASSOC
  5
431
102
{ACAD_REACTORS
330
430
102
}
330
430
100
AcDbDimAssoc
330
42F
 90
        3
 70
     0
 71
     0
  1
AcDbOsnapPointRef
 72
    13
331
427
 73
     2
 91
        2
 40
1.570796326794896
 10
0.0
 20
0.0
 30
2.000000000000000E+50
 75
     0
  1
AcDbOsnapPointRef
 72
     1
331
427
 73
     2
 91
        4
 40
4.712388980384688
 10
0.0
 20
0.0
 30
2.000000000000000E+50
 75
     0
  0
LAYOUT
  5
22
102
{ACAD_REACTORS
330
1A
102
}
330
1A
100
AcDbPlotSettings
  1

  2
none_device
  4
ISO_A4_(210.00_x_297.00_MM)
  6

 40
7.5
 41
20.0
 42
7.5
 43
20.0
 44
210.0
 45
297.0
 46
11.54999923706054
 47
-13.65000009536743
 48
0.0
 49
0.0
140
0.0
141
0.0
142
1.0
143
8.704084754739808
 70
 11952
 72
     1
 73
     0
 74
     0
  7

 75
     0
147
0.1148885871608098
 76
     0
 77
     2
 78
   300
148
0.0
149
0.0
100
AcDbLayout
  1
Model
 70
     1
 71
     0
 10
0.0
 20
0.0
 11
12.0
 21
9.0
 12
0.0
 22
0.0
 32
0.0
 14
0.0
 24
0.0
 34
0.0
 15
0.0
 25
0.0
 35
0.0
146
0.0
 13
0.0
 23
0.0
 33
0.0
 16
1.0
 26
0.0
 36
0.0
 17
0.0
 27
1.0
 37
0.0
 76
     0
330
1F
331
EB
1001
ACAD_PSEXT
1000
None
1000
None
1000
Not applicable
1000
The layout will not be plotted unless a new plotter configuration name is selected.
1070
     0
  0
LAYOUT
  5
D3
102
{ACAD_REACTORS
330
1A
102
}
330
1A
100
AcDbPlotSettings
  1

  2
C:\Documents and Settings\basas\Application Data\Autodesk\AutoCAD 2005\R16.1\enu\plotters\Default Windows System Printer.pc3
  4

  6

 40
0.0
 41
0.0
 42
0.0
 43
0.0
 44
0.0
 45
0.0
 46
0.0
 47
0.0
 48
0.0
 49
0.0
140
0.0
141
0.0
142
1.0
143
1.0
 70
   688
 72
     0
 73
     0
 74
     5
  7

 75
    16
147
1.0
 76
     0
 77
     2
 78
   300
148
0.0
149
0.0
100
AcDbLayout
  1
布局1
 70
     1
 71
     1
 10
0.0
 20
0.0
 11
12.0
 21
9.0
 12
0.0
 22
0.0
 32
0.0
 14
0.0
 24
0.0
 34
0.0
 15
0.0
 25
0.0
 35
0.0
146
0.0
 13
0.0
 23
0.0
 33
0.0
 16
1.0
 26
0.0
 36
0.0
 17
0.0
 27
1.0
 37
0.0
 76
     0
330
D2
  0
LAYOUT
  5
D7
102
{ACAD_REACTORS
330
1A
102
}
330
1A
100
AcDbPlotSettings
  1

  2
C:\Documents and Settings\basas\Application Data\Autodesk\AutoCAD 2005\R16.1\enu\plotters\Default Windows System Printer.pc3
  4

  6

 40
0.0
 41
0.0
 42
0.0
 43
0.0
 44
0.0
 45
0.0
 46
0.0
 47
0.0
 48
0.0
 49
0.0
140
0.0
141
0.0
142
1.0
143
1.0
 70
   688
 72
     0
 73
     0
 74
     5
  7

 75
    16
147
1.0
 76
     0
 77
     2
 78
   300
148
0.0
149
0.0
100
AcDbLayout
  1
布局2
 70
     1
 71
     2
 10
0.0
 20
0.0
 11
12.0
 21
9.0
 12
0.0
 22
0.0
 32
0.0
 14
0.0
 24
0.0
 34
0.0
 15
0.0
 25
0.0
 35
0.0
146
0.0
 13
0.0
 23
0.0
 33
0.0
 16
1.0
 26
0.0
 36
0.0
 17
0.0
 27
1.0
 37
0.0
 76
     0
330
D6
  0
MATERIAL
  5
EE
102
{ACAD_REACTORS
330
6A
102
}
330
6A
100
AcDbMaterial
  1
ByBlock
  0
MATERIAL
  5
ED
102
{ACAD_REACTORS
330
6A
102
}
330
6A
100
AcDbMaterial
  1
ByLayer
  0
MATERIAL
  5
EF
102
{ACAD_REACTORS
330
6A
102
}
330
6A
100
AcDbMaterial
  1
Global
  0
MLINESTYLE
  5
18
102
{ACAD_REACTORS
330
17
102
}
330
17
100
AcDbMlineStyle
  2
STANDARD
 70
     0
  3

 62
   256
 51
90.0
 52
90.0
 71
     2
 49
0.5
 62
   256
  6
BYLAYER
 49
-0.5
 62
   256
  6
BYLAYER
  0
ACDBPLACEHOLDER
  5
F
102
{ACAD_REACTORS
330
E
102
}
330
E
  0
TABLESTYLE
  5
7F
102
{ACAD_REACTORS
330
7E
102
}
330
7E
100
AcDbTableStyle
  3
Standard
 70
     0
 71
     0
 40
1.5
 41
1.5
280
     0
281
     0
  7
Standard
140
4.5
170
     2
 62
     0
 63
     7
283
     0
 90
      512
 91
        0
  1

274
    -2
284
     1
 64
     0
275
    -2
285
     1
 65
     0
276
    -2
286
     1
 66
     0
277
    -2
287
     1
 67
     0
278
    -2
288
     1
 68
     0
279
    -2
289
     1
 69
     0
  7
Standard
140
6.0
170
     5
 62
     0
 63
     7
283
     0
 90
      512
 91
        0
  1

274
    -2
284
     1
 64
     0
275
    -2
285
     1
 65
     0
276
    -2
286
     1
 66
     0
277
    -2
287
     1
 67
     0
278
    -2
288
     1
 68
     0
279
    -2
289
     1
 69
     0
  7
Standard
140
4.5
170
     5
 62
     0
 63
     7
283
     0
 90
      512
 91
        0
  1

274
    -2
284
     1
 64
     0
275
    -2
285
     1
 65
     0
276
    -2
286
     1
 66
     0
277
    -2
287
     1
 67
     0
278
    -2
288
     1
 68
     0
279
    -2
289
     1
 69
     0
  0
VISUALSTYLE
  5
F6
102
{ACAD_REACTORS
330
F0
102
}
330
F0
100
AcDbVisualStyle
  2
2dWireframe
 70
     4
 71
     0
 72
     2
 73
     1
 90
        0
 40
-0.6
 41
-30.0
 62
     5
 63
     7
421
 16777215
 74
     1
 91
        4
 64
     7
 65
   257
 75
     1
175
     1
 42
1.0
 92
        0
 66
   257
 43
1.0
 76
     1
 77
     6
 78
     2
 67
     7
 79
     5
170
     0
171
     0
290
     0
174
     0
 93
        1
 44
0.0
173
     0
291
     0
 45
0.0
  0
VISUALSTYLE
  5
F8
102
{ACAD_REACTORS
330
F0
102
}
330
F0
100
AcDbVisualStyle
  2
3D Hidden
 70
     6
 71
     1
 72
     2
 73
     2
 90
        0
 40
-0.6
 41
-30.0
 62
     5
 63
     7
421
 16777215
 74
     2
 91
        2
 64
     7
 65
   257
 75
     2
175
     1
 42
40.0
 92
        0
 66
   257
 43
1.0
 76
     1
 77
     6
 78
     2
 67
     7
 79
     3
170
     0
171
     0
290
     0
174
     0
 93
        1
 44
0.0
173
     0
291
     0
 45
0.0
  0
VISUALSTYLE
  5
F7
102
{ACAD_REACTORS
330
F0
102
}
330
F0
100
AcDbVisualStyle
  2
3dWireframe
 70
     5
 71
     0
 72
     2
 73
     1
 90
        0
 40
-0.6
 41
-30.0
 62
     5
 63
     7
421
 16777215
 74
     1
 91
        4
 64
     7
 65
   257
 75
     1
175
     1
 42
1.0
 92
        0
 66
   257
 43
1.0
 76
     1
 77
     6
 78
     2
 67
     7
 79
     5
170
     0
171
     0
290
     0
174
     0
 93
        1
 44
0.0
173
     0
291
     0
 45
0.0
  0
VISUALSTYLE
  5
F5
102
{ACAD_REACTORS
330
F0
102
}
330
F0
100
AcDbVisualStyle
  2
Basic
 70
     7
 71
     1
 72
     0
 73
     1
 90
        0
 40
-0.6
 41
-30.0
 62
     5
 63
     7
421
 16777215
 74
     0
 91
        4
 64
     7
 65
   257
 75
     1
175
     1
 42
1.0
 92
        8
 66
     7
 43
1.0
 76
     1
 77
     6
 78
     2
 67
     7
 79
     5
170
     0
171
     0
290
     0
174
     0
 93
        1
 44
0.0
173
     0
291
     1
 45
0.0
  0
VISUALSTYLE
  5
FC
102
{ACAD_REACTORS
330
F0
102
}
330
F0
100
AcDbVisualStyle
  2
Brighten
 70
    12
 71
     2
 72
     2
 73
     1
 90
        0
 40
-0.6
 41
-30.0
 62
     5
 63
     7
421
 16777215
 74
     1
 91
        4
 64
     7
 65
   257
 75
     1
175
     1
 42
1.0
 92
        8
 66
     7
 43
1.0
 76
     1
 77
     6
 78
     2
 67
     7
 79
     5
170
     0
171
     0
290
     0
174
     0
 93
        1
 44
50.0
173
     0
291
     1
 45
0.0
  0
VISUALSTYLE
  5
100
102
{ACAD_REACTORS
330
F0
102
}
330
F0
100
AcDbVisualStyle
  2
ColorChange
 70
    16
 71
     2
 72
     2
 73
     3
 90
        0
 40
-0.6
 41
-30.0
 62
     5
 63
     8
421
  8421504
 74
     1
 91
        4
 64
     7
 65
   257
 75
     1
175
     1
 42
1.0
 92
        8
 66
     8
424
  8421504
 43
1.0
 76
     1
 77
     6
 78
     2
 67
     7
 79
     5
170
     0
171
     0
290
     0
174
     0
 93
        1
 44
0.0
173
     0
291
     1
 45
0.0
  0
VISUALSTYLE
  5
F9
102
{ACAD_REACTORS
330
F0
102
}
330
F0
100
AcDbVisualStyle
  2
Conceptual
 70
     9
 71
     3
 72
     2
 73
     1
 90
        0
 40
-0.6
 41
-30.0
 62
     5
 63
     7
421
 16777215
 74
     2
 91
        2
 64
     7
 65
   257
 75
     1
175
     1
 42
40.0
 92
        8
 66
     7
 43
1.0
 76
     1
 77
     6
 78
     2
 67
     7
 79
     3
170
     0
171
     0
290
     0
174
     0
 93
        1
 44
0.0
173
     0
291
     0
 45
0.0
  0
VISUALSTYLE
  5
FB
102
{ACAD_REACTORS
330
F0
102
}
330
F0
100
AcDbVisualStyle
  2
Dim
 70
    11
 71
     2
 72
     2
 73
     1
 90
        0
 40
-0.6
 41
-30.0
 62
     5
 63
     7
421
 16777215
 74
     1
 91
        4
 64
     7
 65
   257
 75
     1
175
     1
 42
1.0
 92
        8
 66
     7
 43
1.0
 76
     1
 77
     6
 78
     2
 67
     7
 79
     5
170
     0
171
     0
290
     0
174
     0
 93
        1
 44
-50.0
173
     0
291
     1
 45
0.0
  0
VISUALSTYLE
  5
FF
102
{ACAD_REACTORS
330
F0
102
}
330
F0
100
AcDbVisualStyle
  2
Facepattern
 70
    15
 71
     2
 72
     2
 73
     1
 90
        0
 40
-0.6
 41
-30.0
 62
     5
 63
     7
421
 16777215
 74
     1
 91
        4
 64
     7
 65
   257
 75
     1
175
     1
 42
1.0
 92
        8
 66
     7
 43
1.0
 76
     1
 77
     6
 78
     2
 67
     7
 79
     5
170
     0
171
     0
290
     0
174
     0
 93
        1
 44
0.0
173
     0
291
     1
 45
0.0
  0
VISUALSTYLE
  5
F1
102
{ACAD_REACTORS
330
F0
102
}
330
F0
100
AcDbVisualStyle
  2
Flat
 70
     0
 71
     2
 72
     1
 73
     1
 90
        2
 40
-0.6
 41
30.0
 62
     5
 63
     7
421
 16777215
 74
     0
 91
        4
 64
     7
 65
   257
 75
     1
175
     1
 42
1.0
 92
        8
 66
     7
 43
1.0
 76
     1
 77
     6
 78
     2
 67
     7
 79
     5
170
     0
171
     0
290
     0
174
     0
 93
        1
 44
0.0
173
     0
291
     1
 45
0.0
  0
VISUALSTYLE
  5
F2
102
{ACAD_REACTORS
330
F0
102
}
330
F0
100
AcDbVisualStyle
  2
FlatWithEdges
 70
     1
 71
     2
 72
     1
 73
     1
 90
        2
 40
-0.6
 41
30.0
 62
     5
 63
     7
421
 16777215
 74
     1
 91
        4
 64
     7
 65
   257
 75
     1
175
     1
 42
1.0
 92
        0
 66
   257
 43
1.0
 76
     1
 77
     6
 78
     2
 67
     7
 79
     5
170
     0
171
     0
290
     0
174
     0
 93
        1
 44
0.0
173
     0
291
     1
 45
0.0
  0
VISUALSTYLE
  5
F3
102
{ACAD_REACTORS
330
F0
102
}
330
F0
100
AcDbVisualStyle
  2
Gouraud
 70
     2
 71
     2
 72
     2
 73
     1
 90
        2
 40
-0.6
 41
30.0
 62
     5
 63
     7
421
 16777215
 74
     0
 91
        4
 64
     7
 65
   257
 75
     1
175
     1
 42
1.0
 92
        0
 66
     7
 43
1.0
 76
     1
 77
     6
 78
     2
 67
     7
 79
     5
170
     0
171
     0
290
     0
174
     0
 93
        1
 44
0.0
173
     0
291
     1
 45
0.0
  0
VISUALSTYLE
  5
F4
102
{ACAD_REACTORS
330
F0
102
}
330
F0
100
AcDbVisualStyle
  2
GouraudWithEdges
 70
     3
 71
     2
 72
     2
 73
     1
 90
        2
 40
-0.6
 41
30.0
 62
     5
 63
     7
421
 16777215
 74
     1
 91
        4
 64
     7
 65
   257
 75
     1
175
     1
 42
1.0
 92
        0
 66
   257
 43
1.0
 76
     1
 77
     6
 78
     2
 67
     7
 79
     5
170
     0
171
     0
290
     0
174
     0
 93
        1
 44
0.0
173
     0
291
     1
 45
0.0
  0
VISUALSTYLE
  5
FE
102
{ACAD_REACTORS
330
F0
102
}
330
F0
100
AcDbVisualStyle
  2
Linepattern
 70
    14
 71
     2
 72
     2
 73
     1
 90
        0
 40
-0.6
 41
-30.0
 62
     5
 63
     7
421
 16777215
 74
     1
 91
        4
 64
     7
 65
   257
 75
     7
175
     7
 42
1.0
 92
        8
 66
     7
 43
1.0
 76
     1
 77
     6
 78
     2
 67
     7
 79
     5
170
     0
171
     0
290
     0
174
     0
 93
        1
 44
0.0
173
     0
291
     1
 45
0.0
  0
VISUALSTYLE
  5
FA
102
{ACAD_REACTORS
330
F0
102
}
330
F0
100
AcDbVisualStyle
  2
Realistic
 70
     8
 71
     2
 72
     2
 73
     1
 90
        0
 40
-0.6
 41
-30.0
 62
     5
 63
     7
421
 16777215
 74
     1
 91
        0
 64
     7
 65
   257
 75
     1
175
     1
 42
1.0
 92
        8
 66
     8
424
  7895160
 43
1.0
 76
     1
 77
     6
 78
     2
 67
     7
 79
     5
170
     0
171
     0
290
     0
174
     0
 93
       13
 44
0.0
173
     0
291
     0
 45
0.0
  0
VISUALSTYLE
  5
FD
102
{ACAD_REACTORS
330
F0
102
}
330
F0
100
AcDbVisualStyle
  2
Thicken
 70
    13
 71
     2
 72
     2
 73
     1
 90
        0
 40
-0.6
 41
-30.0
 62
     5
 63
     7
421
 16777215
 74
     1
 91
        4
 64
     7
 65
   257
 75
     1
175
     1
 42
1.0
 92
       12
 66
     7
 43
1.0
 76
     1
 77
     6
 78
     2
 67
     7
 79
     5
170
     0
171
     0
290
     0
174
     0
 93
        1
 44
0.0
173
     0
291
     1
 45
0.0
  0
DICTIONARYVAR
  5
84
102
{ACAD_REACTORS
330
5E
102
}
330
5E
100
DictionaryVariables
280
     0
  1
STANDARD
  0
DICTIONARYVAR
  5
5F
102
{ACAD_REACTORS
330
5E
102
}
330
5E
100
DictionaryVariables
280
     0
  1
2
  0
DICTIONARYVAR
  5
63
102
{ACAD_REACTORS
330
5E
102
}
330
5E
100
DictionaryVariables
280
     0
  1
1
  0
ENDSEC
  0
EOF
