  0
SECTION
  2
HEADER
  9
$ACADVER
  1
AC1021
  9
$ACADMAINTVER
 70
     1
  9
$DWGCODEPAGE
  3
ANSI_936
  9
$LASTSAVEDBY
  1
Administrator
  9
$INSBASE
 10
0.0
 20
0.0
 30
0.0
  9
$EXTMIN
 10
7706.509128923329
 20
434.9306249049869
 30
-0.0000000000112498
  9
$EXTMAX
 10
8553.648968099194
 20
957.7942568897128
 30
0.0000000000002956
  9
$LIMMIN
 10
0.0
 20
0.0
  9
$LIMMAX
 10
420.0
 20
297.0
  9
$ORTHOMODE
 70
     0
  9
$REGENMODE
 70
     1
  9
$FILLMODE
 70
     1
  9
$QTEXTMODE
 70
     0
  9
$MIRRTEXT
 70
     0
  9
$LTSCALE
 40
1.0
  9
$ATTMODE
 70
     1
  9
$TEXTSIZE
 40
2.5
  9
$TRACEWID
 40
1.0
  9
$TEXTSTYLE
  7
Standard
  9
$CLAYER
  8
0
  9
$CELTYPE
  6
ByLayer
  9
$CECOLOR
 62
   256
  9
$CELTSCALE
 40
1.0
  9
$DISPSILH
 70
     0
  9
$DIMSCALE
 40
1.0
  9
$DIMASZ
 40
2.5
  9
$DIMEXO
 40
0.625
  9
$DIMDLI
 40
3.75
  9
$DIMRND
 40
0.0
  9
$DIMDLE
 40
0.0
  9
$DIMEXE
 40
1.25
  9
$DIMTP
 40
0.0
  9
$DIMTM
 40
0.0
  9
$DIMTXT
 40
2.5
  9
$DIMCEN
 40
2.5
  9
$DIMTSZ
 40
0.0
  9
$DIMTOL
 70
     0
  9
$DIMLIM
 70
     0
  9
$DIMTIH
 70
     0
  9
$DIMTOH
 70
     0
  9
$DIMSE1
 70
     0
  9
$DIMSE2
 70
     0
  9
$DIMTAD
 70
     1
  9
$DIMZIN
 70
     8
  9
$DIMBLK
  1

  9
$DIMASO
 70
     1
  9
$DIMSHO
 70
     1
  9
$DIMPOST
  1

  9
$DIMAPOST
  1

  9
$DIMALT
 70
     0
  9
$DIMALTD
 70
     3
  9
$DIMALTF
 40
0.03937007874016
  9
$DIMLFAC
 40
1.0
  9
$DIMTOFL
 70
     1
  9
$DIMTVP
 40
0.0
  9
$DIMTIX
 70
     0
  9
$DIMSOXD
 70
     0
  9
$DIMSAH
 70
     0
  9
$DIMBLK1
  1

  9
$DIMBLK2
  1

  9
$DIMSTYLE
  2
ISO-25
  9
$DIMCLRD
 70
     0
  9
$DIMCLRE
 70
     0
  9
$DIMCLRT
 70
     0
  9
$DIMTFAC
 40
1.0
  9
$DIMGAP
 40
0.625
  9
$DIMJUST
 70
     0
  9
$DIMSD1
 70
     0
  9
$DIMSD2
 70
     0
  9
$DIMTOLJ
 70
     0
  9
$DIMTZIN
 70
     8
  9
$DIMALTZ
 70
     0
  9
$DIMALTTZ
 70
     0
  9
$DIMUPT
 70
     0
  9
$DIMDEC
 70
     2
  9
$DIMTDEC
 70
     2
  9
$DIMALTU
 70
     2
  9
$DIMALTTD
 70
     3
  9
$DIMTXSTY
  7
Standard
  9
$DIMAUNIT
 70
     0
  9
$DIMADEC
 70
     0
  9
$DIMALTRND
 40
0.0
  9
$DIMAZIN
 70
     0
  9
$DIMDSEP
 70
    44
  9
$DIMATFIT
 70
     3
  9
$DIMFRAC
 70
     0
  9
$DIMLDRBLK
  1

  9
$DIMLUNIT
 70
     2
  9
$DIMLWD
 70
    -2
  9
$DIMLWE
 70
    -2
  9
$DIMTMOVE
 70
     0
  9
$DIMFXL
 40
1.0
  9
$DIMFXLON
 70
     0
  9
$DIMJOGANG
 40
0.7853981633974483
  9
$DIMTFILL
 70
     0
  9
$DIMTFILLCLR
 70
     0
  9
$DIMARCSYM
 70
     0
  9
$DIMLTYPE
  6

  9
$DIMLTEX1
  6

  9
$DIMLTEX2
  6

  9
$LUNITS
 70
     2
  9
$LUPREC
 70
     4
  9
$SKETCHINC
 40
1.0
  9
$FILLETRAD
 40
0.0
  9
$AUNITS
 70
     0
  9
$AUPREC
 70
     0
  9
$MENU
  1
.
  9
$ELEVATION
 40
0.0
  9
$PELEVATION
 40
0.0
  9
$THICKNESS
 40
0.0
  9
$LIMCHECK
 70
     0
  9
$CHAMFERA
 40
0.0
  9
$CHAMFERB
 40
0.0
  9
$CHAMFERC
 40
0.0
  9
$CHAMFERD
 40
0.0
  9
$SKPOLY
 70
     0
  9
$TDCREATE
 40
2458830.423348056
  9
$TDUCREATE
 40
2458830.090014722
  9
$TDUPDATE
 40
2458830.427666516
  9
$TDUUPDATE
 40
2458830.094333183
  9
$TDINDWG
 40
0.0043187153
  9
$TDUSRTIMER
 40
0.0043186806
  9
$USRTIMER
 70
     1
  9
$ANGBASE
 50
0.0
  9
$ANGDIR
 70
     0
  9
$PDMODE
 70
     0
  9
$PDSIZE
 40
0.0
  9
$PLINEWID
 40
0.0
  9
$SPLFRAME
 70
     0
  9
$SPLINETYPE
 70
     6
  9
$SPLINESEGS
 70
     8
  9
$HANDSEED
  5
537
  9
$SURFTAB1
 70
     6
  9
$SURFTAB2
 70
     6
  9
$SURFTYPE
 70
     6
  9
$SURFU
 70
     6
  9
$SURFV
 70
     6
  9
$UCSBASE
  2

  9
$UCSNAME
  2

  9
$UCSORG
 10
0.0
 20
0.0
 30
0.0
  9
$UCSXDIR
 10
1.0
 20
0.0
 30
0.0
  9
$UCSYDIR
 10
0.0
 20
1.0
 30
0.0
  9
$UCSORTHOREF
  2

  9
$UCSORTHOVIEW
 70
     0
  9
$UCSORGTOP
 10
0.0
 20
0.0
 30
0.0
  9
$UCSORGBOTTOM
 10
0.0
 20
0.0
 30
0.0
  9
$UCSORGLEFT
 10
0.0
 20
0.0
 30
0.0
  9
$UCSORGRIGHT
 10
0.0
 20
0.0
 30
0.0
  9
$UCSORGFRONT
 10
0.0
 20
0.0
 30
0.0
  9
$UCSORGBACK
 10
0.0
 20
0.0
 30
0.0
  9
$PUCSBASE
  2

  9
$PUCSNAME
  2

  9
$PUCSORG
 10
0.0
 20
0.0
 30
0.0
  9
$PUCSXDIR
 10
1.0
 20
0.0
 30
0.0
  9
$PUCSYDIR
 10
0.0
 20
1.0
 30
0.0
  9
$PUCSORTHOREF
  2

  9
$PUCSORTHOVIEW
 70
     0
  9
$PUCSORGTOP
 10
0.0
 20
0.0
 30
0.0
  9
$PUCSORGBOTTOM
 10
0.0
 20
0.0
 30
0.0
  9
$PUCSORGLEFT
 10
0.0
 20
0.0
 30
0.0
  9
$PUCSORGRIGHT
 10
0.0
 20
0.0
 30
0.0
  9
$PUCSORGFRONT
 10
0.0
 20
0.0
 30
0.0
  9
$PUCSORGBACK
 10
0.0
 20
0.0
 30
0.0
  9
$USERI1
 70
     0
  9
$USERI2
 70
     0
  9
$USERI3
 70
     0
  9
$USERI4
 70
     0
  9
$USERI5
 70
     0
  9
$USERR1
 40
0.0
  9
$USERR2
 40
0.0
  9
$USERR3
 40
0.0
  9
$USERR4
 40
0.0
  9
$USERR5
 40
0.0
  9
$WORLDVIEW
 70
     1
  9
$SHADEDGE
 70
     3
  9
$SHADEDIF
 70
    70
  9
$TILEMODE
 70
     1
  9
$MAXACTVP
 70
    64
  9
$PINSBASE
 10
0.0
 20
0.0
 30
0.0
  9
$PLIMCHECK
 70
     0
  9
$PEXTMIN
 10
0.0
 20
0.0
 30
0.0
  9
$PEXTMAX
 10
0.0
 20
0.0
 30
0.0
  9
$PLIMMIN
 10
0.0
 20
0.0
  9
$PLIMMAX
 10
12.0
 20
9.0
  9
$UNITMODE
 70
     0
  9
$VISRETAIN
 70
     1
  9
$PLINEGEN
 70
     0
  9
$PSLTSCALE
 70
     1
  9
$TREEDEPTH
 70
  3020
  9
$CMLSTYLE
  2
Standard
  9
$CMLJUST
 70
     0
  9
$CMLSCALE
 40
20.0
  9
$PROXYGRAPHICS
 70
     1
  9
$MEASUREMENT
 70
     1
  9
$CELWEIGHT
370
    -1
  9
$ENDCAPS
280
     0
  9
$JOINSTYLE
280
     0
  9
$LWDISPLAY
290
     0
  9
$INSUNITS
 70
     4
  9
$HYPERLINKBASE
  1

  9
$STYLESHEET
  1

  9
$XEDIT
290
     1
  9
$CEPSNTYPE
380
     0
  9
$PSTYLEMODE
290
     1
  9
$FINGERPRINTGUID
  2
{861A6E4A-6AE1-439C-8E05-A06DCA8E379F}
  9
$VERSIONGUID
  2
{16FB0759-AEB4-453D-90D8-CD1FB3A65564}
  9
$EXTNAMES
290
     1
  9
$PSVPSCALE
 40
0.0
  9
$OLESTARTUP
290
     0
  9
$SORTENTS
280
   127
  9
$INDEXCTL
280
     0
  9
$HIDETEXT
280
     1
  9
$XCLIPFRAME
290
     0
  9
$HALOGAP
280
     0
  9
$OBSCOLOR
 70
   257
  9
$OBSLTYPE
280
     0
  9
$INTERSECTIONDISPLAY
280
     0
  9
$INTERSECTIONCOLOR
 70
   257
  9
$DIMASSOC
280
     2
  9
$PROJECTNAME
  1

  9
$CAMERADISPLAY
290
     0
  9
$LENSLENGTH
 40
50.0
  9
$CAMERAHEIGHT
 40
0.0
  9
$STEPSPERSEC
 40
2.0
  9
$STEPSIZE
 40
6.0
  9
$3DDWFPREC
 40
2.0
  9
$PSOLWIDTH
 40
5.0
  9
$PSOLHEIGHT
 40
80.0
  9
$LOFTANG1
 40
1.570796326794896
  9
$LOFTANG2
 40
1.570796326794896
  9
$LOFTMAG1
 40
0.0
  9
$LOFTMAG2
 40
0.0
  9
$LOFTPARAM
 70
     7
  9
$LOFTNORMALS
280
     1
  9
$LATITUDE
 40
37.795
  9
$LONGITUDE
 40
-122.394
  9
$NORTHDIRECTION
 40
0.0
  9
$TIMEZONE
 70
 -8000
  9
$LIGHTGLYPHDISPLAY
280
     1
  9
$TILEMODELIGHTSYNCH
280
     1
  9
$CMATERIAL
347
ED
  9
$SOLIDHIST
280
     1
  9
$SHOWHIST
280
     1
  9
$DWFFRAME
280
     2
  9
$DGNFRAME
280
     0
  9
$REALWORLDSCALE
290
     1
  9
$INTERFERECOLOR
 62
     1
  9
$INTERFEREOBJVS
345
FA
  9
$INTERFEREVPVS
346
F7
  9
$CSHADOW
280
     0
  9
$SHADOWPLANELOCATION
 40
0.0
  0
ENDSEC
  0
SECTION
  2
CLASSES
  0
CLASS
  1
ACDBDICTIONARYWDFLT
  2
AcDbDictionaryWithDefault
  3
ObjectDBX Classes
 90
        0
 91
        1
280
     0
281
     0
  0
CLASS
  1
DICTIONARYVAR
  2
AcDbDictionaryVar
  3
ObjectDBX Classes
 90
        0
 91
        3
280
     0
281
     0
  0
CLASS
  1
TABLESTYLE
  2
AcDbTableStyle
  3
ObjectDBX Classes
 90
     4095
 91
        1
280
     0
281
     0
  0
CLASS
  1
MATERIAL
  2
AcDbMaterial
  3
ObjectDBX Classes
 90
     1024
 91
        3
280
     0
281
     0
  0
CLASS
  1
VISUALSTYLE
  2
AcDbVisualStyle
  3
ObjectDBX Classes
 90
     4095
 91
       16
280
     0
281
     0
  0
CLASS
  1
DIMASSOC
  2
AcDbDimAssoc
  3
"AcDbDimAssoc|Product Desc:     AcDim ARX App For Dimension|Company:          Autodesk, Inc.|WEB Address:      www.autodesk.com"
 90
        0
 91
       60
280
     0
281
     0
  0
ENDSEC
  0
SECTION
  2
TABLES
  0
TABLE
  2
VPORT
  5
8
330
0
100
AcDbSymbolTable
 70
     1
  0
VPORT
  5
EB
330
8
100
AcDbSymbolTableRecord
100
AcDbViewportTableRecord
  2
*Active
 70
     0
 10
0.0
 20
0.0
 11
1.0
 21
1.0
 12
8130.079048511261
 22
696.3624408973498
 13
0.0
 23
0.0
 14
10.0
 24
10.0
 15
10.0
 25
10.0
 16
0.0
 26
0.0
 36
1.0
 17
0.0
 27
0.0
 37
0.0
 40
527.891166907656
 41
2.178170144462279
 42
50.0
 43
0.0
 44
0.0
 50
0.0
 51
0.0
 71
     0
 72
  1000
 73
     1
 74
     3
 75
     0
 76
     0
 77
     0
 78
     0
281
     0
 65
     1
110
0.0
120
0.0
130
0.0
111
1.0
121
0.0
131
0.0
112
0.0
122
1.0
132
0.0
 79
     0
146
0.0
348
F6
 60
     2
 61
     5
292
     1
282
     1
141
0.0
142
0.0
 63
   250
421
  3355443
  0
ENDTAB
  0
TABLE
  2
LTYPE
  5
5
330
0
100
AcDbSymbolTable
 70
     1
  0
LTYPE
  5
14
330
5
100
AcDbSymbolTableRecord
100
AcDbLinetypeTableRecord
  2
ByBlock
 70
     0
  3

 72
    65
 73
     0
 40
0.0
  0
LTYPE
  5
15
330
5
100
AcDbSymbolTableRecord
100
AcDbLinetypeTableRecord
  2
ByLayer
 70
     0
  3

 72
    65
 73
     0
 40
0.0
  0
LTYPE
  5
16
330
5
100
AcDbSymbolTableRecord
100
AcDbLinetypeTableRecord
  2
Continuous
 70
     0
  3
Solid line
 72
    65
 73
     0
 40
0.0
  0
ENDTAB
  0
TABLE
  2
LAYER
  5
2
102
{ACAD_XDICTIONARY
360
14E
102
}
330
0
100
AcDbSymbolTable
 70
    13
  0
LAYER
  5
10
330
2
100
AcDbSymbolTableRecord
100
AcDbLayerTableRecord
  2
0
 70
     0
 62
     7
  6
Continuous
370
    -3
390
F
347
EF
  0
LAYER
  5
123
330
2
100
AcDbSymbolTableRecord
100
AcDbLayerTableRecord
  2
layer2
 70
     0
 62
     1
  6
Continuous
370
    -3
390
F
347
EF
  0
LAYER
  5
124
330
2
100
AcDbSymbolTableRecord
100
AcDbLayerTableRecord
  2
layer3
 70
     0
 62
     2
  6
Continuous
370
    -3
390
F
347
EF
  0
LAYER
  5
125
330
2
100
AcDbSymbolTableRecord
100
AcDbLayerTableRecord
  2
layer4
 70
     0
 62
     3
  6
Continuous
370
    -3
390
F
347
EF
  0
LAYER
  5
126
330
2
100
AcDbSymbolTableRecord
100
AcDbLayerTableRecord
  2
layer5
 70
     0
 62
     5
  6
Continuous
370
    -3
390
F
347
EF
  0
LAYER
  5
127
330
2
100
AcDbSymbolTableRecord
100
AcDbLayerTableRecord
  2
layer6
 70
     0
 62
   140
  6
Continuous
370
    -3
390
F
347
EF
  0
LAYER
  5
128
330
2
100
AcDbSymbolTableRecord
100
AcDbLayerTableRecord
  2
layer7
 70
     0
 62
    30
  6
Continuous
370
    -3
390
F
347
EF
  0
LAYER
  5
129
330
2
100
AcDbSymbolTableRecord
100
AcDbLayerTableRecord
  2
layer8
 70
     0
 62
    60
  6
Continuous
370
    -3
390
F
347
EF
  0
LAYER
  5
12A
330
2
100
AcDbSymbolTableRecord
100
AcDbLayerTableRecord
  2
layer9
 70
     0
 62
   210
  6
Continuous
370
    -3
390
F
347
EF
  0
LAYER
  5
14B
330
2
100
AcDbSymbolTableRecord
100
AcDbLayerTableRecord
  2
Defpoints
 70
     0
 62
    24
  6
Continuous
290
     0
370
    -3
390
F
347
EF
  0
LAYER
  5
14C
330
2
100
AcDbSymbolTableRecord
100
AcDbLayerTableRecord
  2
2上模
 70
     0
 62
     1
  6
Continuous
370
    40
390
F
347
EF
  0
LAYER
  5
420
330
2
100
AcDbSymbolTableRecord
100
AcDbLayerTableRecord
  2
6下模板
 70
     0
 62
     6
  6
Continuous
370
    30
390
F
347
EF
1001
AcadStringInfo
1000
MIFCodePage
1070
     5
  0
LAYER
  5
421
102
{ACAD_XDICTIONARY
360
422
102
}
330
2
100
AcDbSymbolTableRecord
100
AcDbLayerTableRecord
  2
粗实
 70
     0
 62
     7
  6
Continuous
370
    25
390
F
347
EF
1001
AcadStringInfo
1000
MIFCodePage
1070
     5
  0
ENDTAB
  0
TABLE
  2
STYLE
  5
3
330
0
100
AcDbSymbolTable
 70
     1
  0
STYLE
  5
11
330
3
100
AcDbSymbolTableRecord
100
AcDbTextStyleTableRecord
  2
Standard
 70
     0
 40
0.0
 41
1.0
 50
0.0
 71
     0
 42
2.5
  3
txt
  4
gbcbig.shx
  0
ENDTAB
  0
TABLE
  2
VIEW
  5
6
330
0
100
AcDbSymbolTable
 70
    11
  0
ENDTAB
  0
TABLE
  2
UCS
  5
7
330
0
100
AcDbSymbolTable
 70
     0
  0
ENDTAB
  0
TABLE
  2
APPID
  5
9
330
0
100
AcDbSymbolTable
 70
     3
  0
APPID
  5
12
330
9
100
AcDbSymbolTableRecord
100
AcDbRegAppTableRecord
  2
ACAD
 70
     0
  0
APPID
  5
9E
330
9
100
AcDbSymbolTableRecord
100
AcDbRegAppTableRecord
  2
ACAD_PSEXT
 70
     0
  0
APPID
  5
424
330
9
100
AcDbSymbolTableRecord
100
AcDbRegAppTableRecord
  2
AcadStringInfo
 70
     0
  0
ENDTAB
  0
TABLE
  2
DIMSTYLE
  5
A
330
0
100
AcDbSymbolTable
 70
     2
100
AcDbDimStyleTable
 71
     1
340
27
  0
DIMSTYLE
105
27
330
A
100
AcDbSymbolTableRecord
100
AcDbDimStyleTableRecord
  2
ISO-25
 70
     0
 41
2.5
 42
0.625
 43
3.75
 44
1.25
 73
     0
 74
     0
 77
     1
 78
     8
140
2.5
141
2.5
143
0.03937007874016
147
0.625
171
     3
172
     1
271
     2
272
     2
274
     3
278
    44
283
     0
284
     8
340
11
  0
DIMSTYLE
105
14D
102
{ACAD_REACTORS
330
152
330
155
330
158
330
4F5
330
4F8
330
4FB
102
}
330
A
100
AcDbSymbolTableRecord
100
AcDbDimStyleTableRecord
  2
usally
 70
     0
 41
22.0
 42
2.0
 43
5.0
 44
1.25
 73
     0
 74
     0
 77
     1
 78
     9
 79
     2
140
25.4
141
0.0
147
0.5
172
     1
176
   104
177
   104
178
   200
179
     2
271
     2
272
     2
340
11
371
     9
372
     9
  0
ENDTAB
  0
TABLE
  2
BLOCK_RECORD
  5
1
330
0
100
AcDbSymbolTable
 70
    71
  0
BLOCK_RECORD
  5
1F
330
1
100
AcDbSymbolTableRecord
100
AcDbBlockTableRecord
  2
*Model_Space
340
22
 70
     0
280
     1
281
     0
  0
BLOCK_RECORD
  5
D2
330
1
100
AcDbSymbolTableRecord
100
AcDbBlockTableRecord
  2
*Paper_Space
340
D3
 70
     0
280
     1
281
     0
  0
BLOCK_RECORD
  5
D6
330
1
100
AcDbSymbolTableRecord
100
AcDbBlockTableRecord
  2
*Paper_Space0
340
D7
 70
     0
280
     1
281
     0
  0
BLOCK_RECORD
  5
12B
330
1
100
AcDbSymbolTableRecord
100
AcDbBlockTableRecord
  2
*D1
340
0
 70
     0
280
     1
281
     0
  0
BLOCK_RECORD
  5
137
330
1
100
AcDbSymbolTableRecord
100
AcDbBlockTableRecord
  2
*D2
340
0
 70
     0
280
     1
281
     0
  0
BLOCK_RECORD
  5
143
330
1
100
AcDbSymbolTableRecord
100
AcDbBlockTableRecord
  2
*D3
340
0
 70
     0
280
     1
281
     0
  0
BLOCK_RECORD
  5
16B
330
1
100
AcDbSymbolTableRecord
100
AcDbBlockTableRecord
  2
*D5
340
0
 70
     0
280
     1
281
     0
  0
BLOCK_RECORD
  5
177
330
1
100
AcDbSymbolTableRecord
100
AcDbBlockTableRecord
  2
*D6
340
0
 70
     0
280
     1
281
     0
  0
BLOCK_RECORD
  5
183
330
1
100
AcDbSymbolTableRecord
100
AcDbBlockTableRecord
  2
*D7
340
0
 70
     0
280
     1
281
     0
  0
BLOCK_RECORD
  5
19A
330
1
100
AcDbSymbolTableRecord
100
AcDbBlockTableRecord
  2
*D8
340
0
 70
     0
280
     1
281
     0
  0
BLOCK_RECORD
  5
1A6
330
1
100
AcDbSymbolTableRecord
100
AcDbBlockTableRecord
  2
*D9
340
0
 70
     0
280
     1
281
     0
  0
BLOCK_RECORD
  5
1B2
330
1
100
AcDbSymbolTableRecord
100
AcDbBlockTableRecord
  2
*D10
340
0
 70
     0
280
     1
281
     0
  0
BLOCK_RECORD
  5
1D4
330
1
100
AcDbSymbolTableRecord
100
AcDbBlockTableRecord
  2
*D12
340
0
 70
     0
280
     1
281
     0
  0
BLOCK_RECORD
  5
1E0
330
1
100
AcDbSymbolTableRecord
100
AcDbBlockTableRecord
  2
*D13
340
0
 70
     0
280
     1
281
     0
  0
BLOCK_RECORD
  5
1EC
330
1
100
AcDbSymbolTableRecord
100
AcDbBlockTableRecord
  2
*D14
340
0
 70
     0
280
     1
281
     0
  0
BLOCK_RECORD
  5
202
330
1
100
AcDbSymbolTableRecord
100
AcDbBlockTableRecord
  2
*D15
340
0
 70
     0
280
     1
281
     0
  0
BLOCK_RECORD
  5
20E
330
1
100
AcDbSymbolTableRecord
100
AcDbBlockTableRecord
  2
*D16
340
0
 70
     0
280
     1
281
     0
  0
BLOCK_RECORD
  5
21A
330
1
100
AcDbSymbolTableRecord
100
AcDbBlockTableRecord
  2
*D17
340
0
 70
     0
280
     1
281
     0
  0
BLOCK_RECORD
  5
23C
330
1
100
AcDbSymbolTableRecord
100
AcDbBlockTableRecord
  2
*D19
340
0
 70
     0
280
     1
281
     0
  0
BLOCK_RECORD
  5
248
330
1
100
AcDbSymbolTableRecord
100
AcDbBlockTableRecord
  2
*D20
340
0
 70
     0
280
     1
281
     0
  0
BLOCK_RECORD
  5
254
330
1
100
AcDbSymbolTableRecord
100
AcDbBlockTableRecord
  2
*D21
340
0
 70
     0
280
     1
281
     0
  0
BLOCK_RECORD
  5
26B
330
1
100
AcDbSymbolTableRecord
100
AcDbBlockTableRecord
  2
*D22
340
0
 70
     0
280
     1
281
     0
  0
BLOCK_RECORD
  5
277
330
1
100
AcDbSymbolTableRecord
100
AcDbBlockTableRecord
  2
*D23
340
0
 70
     0
280
     1
281
     0
  0
BLOCK_RECORD
  5
283
330
1
100
AcDbSymbolTableRecord
100
AcDbBlockTableRecord
  2
*D24
340
0
 70
     0
280
     1
281
     0
  0
BLOCK_RECORD
  5
2A5
330
1
100
AcDbSymbolTableRecord
100
AcDbBlockTableRecord
  2
*D26
340
0
 70
     0
280
     1
281
     0
  0
BLOCK_RECORD
  5
2B1
330
1
100
AcDbSymbolTableRecord
100
AcDbBlockTableRecord
  2
*D27
340
0
 70
     0
280
     1
281
     0
  0
BLOCK_RECORD
  5
2BD
330
1
100
AcDbSymbolTableRecord
100
AcDbBlockTableRecord
  2
*D28
340
0
 70
     0
280
     1
281
     0
  0
BLOCK_RECORD
  5
2CB
330
1
100
AcDbSymbolTableRecord
100
AcDbBlockTableRecord
  2
*D29
340
0
 70
     0
280
     1
281
     0
  0
BLOCK_RECORD
  5
2D7
330
1
100
AcDbSymbolTableRecord
100
AcDbBlockTableRecord
  2
*D30
340
0
 70
     0
280
     1
281
     0
  0
BLOCK_RECORD
  5
2DF
330
1
100
AcDbSymbolTableRecord
100
AcDbBlockTableRecord
  2
*D31
340
0
 70
     0
280
     1
281
     0
  0
BLOCK_RECORD
  5
305
330
1
100
AcDbSymbolTableRecord
100
AcDbBlockTableRecord
  2
*D33
340
0
 70
     0
280
     1
281
     0
  0
BLOCK_RECORD
  5
311
330
1
100
AcDbSymbolTableRecord
100
AcDbBlockTableRecord
  2
*D34
340
0
 70
     0
280
     1
281
     0
  0
BLOCK_RECORD
  5
31D
330
1
100
AcDbSymbolTableRecord
100
AcDbBlockTableRecord
  2
*D35
340
0
 70
     0
280
     1
281
     0
  0
BLOCK_RECORD
  5
335
330
1
100
AcDbSymbolTableRecord
100
AcDbBlockTableRecord
  2
*D36
340
0
 70
     0
280
     1
281
     0
  0
BLOCK_RECORD
  5
341
330
1
100
AcDbSymbolTableRecord
100
AcDbBlockTableRecord
  2
*D37
340
0
 70
     0
280
     1
281
     0
  0
BLOCK_RECORD
  5
34D
330
1
100
AcDbSymbolTableRecord
100
AcDbBlockTableRecord
  2
*D38
340
0
 70
     0
280
     1
281
     0
  0
BLOCK_RECORD
  5
370
330
1
100
AcDbSymbolTableRecord
100
AcDbBlockTableRecord
  2
*D40
340
0
 70
     0
280
     1
281
     0
  0
BLOCK_RECORD
  5
37C
330
1
100
AcDbSymbolTableRecord
100
AcDbBlockTableRecord
  2
*D41
340
0
 70
     0
280
     1
281
     0
  0
BLOCK_RECORD
  5
388
330
1
100
AcDbSymbolTableRecord
100
AcDbBlockTableRecord
  2
*D42
340
0
 70
     0
280
     1
281
     0
  0
BLOCK_RECORD
  5
39F
330
1
100
AcDbSymbolTableRecord
100
AcDbBlockTableRecord
  2
*D43
340
0
 70
     0
280
     1
281
     0
  0
BLOCK_RECORD
  5
3AB
330
1
100
AcDbSymbolTableRecord
100
AcDbBlockTableRecord
  2
*D44
340
0
 70
     0
280
     1
281
     0
  0
BLOCK_RECORD
  5
3B7
330
1
100
AcDbSymbolTableRecord
100
AcDbBlockTableRecord
  2
*D45
340
0
 70
     0
280
     1
281
     0
  0
BLOCK_RECORD
  5
3D9
330
1
100
AcDbSymbolTableRecord
100
AcDbBlockTableRecord
  2
*D47
340
0
 70
     0
280
     1
281
     0
  0
BLOCK_RECORD
  5
3E5
330
1
100
AcDbSymbolTableRecord
100
AcDbBlockTableRecord
  2
*D48
340
0
 70
     0
280
     1
281
     0
  0
BLOCK_RECORD
  5
3F1
330
1
100
AcDbSymbolTableRecord
100
AcDbBlockTableRecord
  2
*D49
340
0
 70
     0
280
     1
281
     0
  0
BLOCK_RECORD
  5
400
330
1
100
AcDbSymbolTableRecord
100
AcDbBlockTableRecord
  2
*D50
340
0
 70
     0
280
     1
281
     0
  0
BLOCK_RECORD
  5
40C
330
1
100
AcDbSymbolTableRecord
100
AcDbBlockTableRecord
  2
*D51
340
0
 70
     0
280
     1
281
     0
  0
BLOCK_RECORD
  5
418
330
1
100
AcDbSymbolTableRecord
100
AcDbBlockTableRecord
  2
*D52
340
0
 70
     0
280
     1
281
     0
  0
BLOCK_RECORD
  5
43F
330
1
100
AcDbSymbolTableRecord
100
AcDbBlockTableRecord
  2
*D54
340
0
 70
     0
280
     1
281
     0
  0
BLOCK_RECORD
  5
44B
330
1
100
AcDbSymbolTableRecord
100
AcDbBlockTableRecord
  2
*D55
340
0
 70
     0
280
     1
281
     0
  0
BLOCK_RECORD
  5
457
330
1
100
AcDbSymbolTableRecord
100
AcDbBlockTableRecord
  2
*D56
340
0
 70
     0
280
     1
281
     0
  0
BLOCK_RECORD
  5
465
330
1
100
AcDbSymbolTableRecord
100
AcDbBlockTableRecord
  2
*D57
340
0
 70
     0
280
     1
281
     0
  0
BLOCK_RECORD
  5
471
330
1
100
AcDbSymbolTableRecord
100
AcDbBlockTableRecord
  2
*D58
340
0
 70
     0
280
     1
281
     0
  0
BLOCK_RECORD
  5
47D
330
1
100
AcDbSymbolTableRecord
100
AcDbBlockTableRecord
  2
*D59
340
0
 70
     0
280
     1
281
     0
  0
BLOCK_RECORD
  5
49F
330
1
100
AcDbSymbolTableRecord
100
AcDbBlockTableRecord
  2
*D61
340
0
 70
     0
280
     1
281
     0
  0
BLOCK_RECORD
  5
4AB
330
1
100
AcDbSymbolTableRecord
100
AcDbBlockTableRecord
  2
*D62
340
0
 70
     0
280
     1
281
     0
  0
BLOCK_RECORD
  5
4B7
330
1
100
AcDbSymbolTableRecord
100
AcDbBlockTableRecord
  2
*D63
340
0
 70
     0
280
     1
281
     0
  0
BLOCK_RECORD
  5
4C5
330
1
100
AcDbSymbolTableRecord
100
AcDbBlockTableRecord
  2
*D64
340
0
 70
     0
280
     1
281
     0
  0
BLOCK_RECORD
  5
4D1
330
1
100
AcDbSymbolTableRecord
100
AcDbBlockTableRecord
  2
*D65
340
0
 70
     0
280
     1
281
     0
  0
BLOCK_RECORD
  5
4DD
330
1
100
AcDbSymbolTableRecord
100
AcDbBlockTableRecord
  2
*D66
340
0
 70
     0
280
     1
281
     0
  0
BLOCK_RECORD
  5
4FF
330
1
100
AcDbSymbolTableRecord
100
AcDbBlockTableRecord
  2
*D68
340
0
 70
     0
280
     1
281
     0
  0
BLOCK_RECORD
  5
50B
330
1
100
AcDbSymbolTableRecord
100
AcDbBlockTableRecord
  2
*D69
340
0
 70
     0
280
     1
281
     0
  0
BLOCK_RECORD
  5
517
330
1
100
AcDbSymbolTableRecord
100
AcDbBlockTableRecord
  2
*D70
340
0
 70
     0
280
     1
281
     0
  0
ENDTAB
  0
ENDSEC
  0
SECTION
  2
BLOCKS
  0
BLOCK
  5
20
330
1F
100
AcDbEntity
  8
0
100
AcDbBlockBegin
  2
*Model_Space
 70
     0
 10
0.0
 20
0.0
 30
0.0
  3
*Model_Space
  1

  0
ENDBLK
  5
21
330
1F
100
AcDbEntity
  8
0
100
AcDbBlockEnd
  0
BLOCK
  5
D4
330
D2
100
AcDbEntity
 67
     1
  8
0
100
AcDbBlockBegin
  2
*Paper_Space
 70
     0
 10
0.0
 20
0.0
 30
0.0
  3
*Paper_Space
  1

  0
ENDBLK
  5
D5
330
D2
100
AcDbEntity
 67
     1
  8
0
100
AcDbBlockEnd
  0
BLOCK
  5
D8
330
D6
100
AcDbEntity
 67
     1
  8
0
100
AcDbBlockBegin
  2
*Paper_Space0
 70
     0
 10
0.0
 20
0.0
 30
0.0
  3
*Paper_Space0
  1

  0
ENDBLK
  5
D9
330
D6
100
AcDbEntity
 67
     1
  8
0
100
AcDbBlockEnd
  0
BLOCK
  5
12C
330
12B
100
AcDbEntity
  8
0
100
AcDbBlockBegin
  2
*D1
 70
     1
 10
0.0
 20
0.0
 30
0.0
  3
*D1
  1

  0
LINE
  5
12D
330
12B
100
AcDbEntity
  8
2上模
 62
   104
 48
0.6
370
     9
100
AcDbLine
 10
1286.529168451318
 20
10861.17219246691
 30
0.0
 11
1286.529168451318
 21
11003.24765264062
 31
0.0
  0
LINE
  5
12E
330
12B
100
AcDbEntity
  8
2上模
 62
   104
 48
0.6
370
     9
100
AcDbLine
 10
2044.529168451319
 20
10861.17219246691
 30
0.0
 11
2044.529168451319
 21
11003.24765264062
 31
0.0
  0
LINE
  5
12F
330
12B
100
AcDbEntity
  8
2上模
 62
   104
 48
0.6
370
     9
100
AcDbLine
 10
1296.529168451318
 20
11001.99765264062
 30
0.0
 11
2034.529168451319
 21
11001.99765264062
 31
0.0
  0
SOLID
  5
130
330
12B
100
AcDbEntity
  8
2上模
 62
   104
 48
0.6
100
AcDbTrace
 10
1296.529168451318
 20
11003.66431930728
 30
0.0
 11
1296.529168451318
 21
11000.33098597395
 31
0.0
 12
1286.529168451318
 22
11001.99765264062
 32
0.0
 13
1286.529168451318
 23
11001.99765264062
 33
0.0
  0
SOLID
  5
131
330
12B
100
AcDbEntity
  8
2上模
 62
   104
 48
0.6
100
AcDbTrace
 10
2034.529168451319
 20
11003.66431930728
 30
0.0
 11
2034.529168451319
 21
11000.33098597395
 31
0.0
 12
2044.529168451319
 22
11001.99765264062
 32
0.0
 13
2044.529168451319
 23
11001.99765264062
 33
0.0
  0
MTEXT
  5
132
330
12B
100
AcDbEntity
  8
2上模
 62
   200
 48
0.6
370
    25
100
AcDbMText
 10
1665.529168451319
 20
11010.4112555818
 30
0.0
 40
15.0
 41
0.0
 46
0.0
 71
     5
 72
     1
  1
\A1;758 [29 7/8”]
 73
     1
 44
1.0
  0
POINT
  5
133
330
12B
100
AcDbEntity
  8
Defpoints
 62
     0
 48
0.6
100
AcDbPoint
 10
1286.529168451318
 20
10859.17219246691
 30
0.0
  0
POINT
  5
134
330
12B
100
AcDbEntity
  8
Defpoints
 62
     0
 48
0.6
100
AcDbPoint
 10
2044.529168451319
 20
10859.17219246691
 30
0.0
  0
POINT
  5
135
330
12B
100
AcDbEntity
  8
Defpoints
 62
     0
 48
0.6
100
AcDbPoint
 10
2044.529168451319
 20
11001.99765264062
 30
0.0
  0
ENDBLK
  5
136
330
12B
100
AcDbEntity
  8
0
100
AcDbBlockEnd
  0
BLOCK
  5
138
330
137
100
AcDbEntity
  8
0
100
AcDbBlockBegin
  2
*D2
 70
     1
 10
0.0
 20
0.0
 30
0.0
  3
*D2
  1

  0
LINE
  5
139
330
137
100
AcDbEntity
  8
2上模
 62
   104
 48
0.6
370
     9
100
AcDbLine
 10
2002.721447157671
 20
10918.92051945382
 30
0.0
 11
2155.098970623335
 21
10918.92051945382
 31
0.0
  0
LINE
  5
13A
330
137
100
AcDbEntity
  8
2上模
 62
   104
 48
0.6
370
     9
100
AcDbLine
 10
2002.721447157671
 20
10515.92051945382
 30
0.0
 11
2155.098970623335
 21
10515.92051945382
 31
0.0
  0
LINE
  5
13B
330
137
100
AcDbEntity
  8
2上模
 62
   104
 48
0.6
370
     9
100
AcDbLine
 10
2153.848970623335
 20
10908.92051945382
 30
0.0
 11
2153.848970623335
 21
10525.92051945382
 31
0.0
  0
SOLID
  5
13C
330
137
100
AcDbEntity
  8
2上模
 62
   104
 48
0.6
100
AcDbTrace
 10
2152.182303956668
 20
10908.92051945382
 30
0.0
 11
2155.515637290001
 21
10908.92051945382
 31
0.0
 12
2153.848970623335
 22
10918.92051945382
 32
0.0
 13
2153.848970623335
 23
10918.92051945382
 33
0.0
  0
SOLID
  5
13D
330
137
100
AcDbEntity
  8
2上模
 62
   104
 48
0.6
100
AcDbTrace
 10
2152.182303956668
 20
10525.92051945382
 30
0.0
 11
2155.515637290001
 21
10525.92051945382
 31
0.0
 12
2153.848970623335
 22
10515.92051945382
 32
0.0
 13
2153.848970623335
 23
10515.92051945382
 33
0.0
  0
MTEXT
  5
13E
330
137
100
AcDbEntity
  8
2上模
 62
   200
 48
0.6
370
    25
100
AcDbMText
 10
2145.435367682157
 20
10717.42051945382
 30
0.0
 40
15.0
 41
0.0
 46
0.0
 71
     5
 72
     1
  1
\A1;403 [15 7/8”]
 11
0.0000000000000001
 21
1.0
 31
0.0
 73
     1
 44
1.0
  0
POINT
  5
13F
330
137
100
AcDbEntity
  8
Defpoints
 62
     0
 48
0.6
100
AcDbPoint
 10
2000.721447157671
 20
10918.92051945382
 30
0.0
  0
POINT
  5
140
330
137
100
AcDbEntity
  8
Defpoints
 62
     0
 48
0.6
100
AcDbPoint
 10
2000.721447157671
 20
10515.92051945382
 30
0.0
  0
POINT
  5
141
330
137
100
AcDbEntity
  8
Defpoints
 62
     0
 48
0.6
100
AcDbPoint
 10
2153.848970623335
 20
10515.92051945382
 30
0.0
  0
ENDBLK
  5
142
330
137
100
AcDbEntity
  8
0
100
AcDbBlockEnd
  0
BLOCK
  5
144
330
143
100
AcDbEntity
  8
0
100
AcDbBlockBegin
  2
*D3
 70
     1
 10
0.0
 20
0.0
 30
0.0
  3
*D3
  1

  0
LINE
  5
145
330
143
100
AcDbEntity
  8
2上模
 62
   104
 48
0.6
370
     9
100
AcDbLine
 10
1419.989977279273
 20
10620.504381434
 30
0.0
 11
1298.321264453445
 21
10529.53107421717
 31
0.0
  0
MTEXT
  5
146
330
143
100
AcDbEntity
  8
2上模
 62
   200
 48
0.6
370
    25
100
AcDbMText
 10
1358.121717276925
 20
10584.75013543211
 30
0.0
 40
15.0
 41
0.0
 46
0.0
 71
     5
 72
     1
  1
\A1;R19 [R3/4”]
 11
0.8008782219792179
 21
0.5988272485111267
 31
0.0
 73
     1
 44
1.0
  0
SOLID
  5
147
330
143
100
AcDbEntity
  8
2上模
 62
   104
 48
0.6
100
AcDbTrace
 10
1297.323219039259
 20
10530.8658712538
 30
0.0
 11
1299.31930986763
 21
10528.19627718054
 31
0.0
 12
1290.312482233652
 22
10523.54280173206
 32
0.0
 13
1290.312482233652
 23
10523.54280173206
 33
0.0
  0
POINT
  5
148
330
143
100
AcDbEntity
  8
Defpoints
 62
     0
 48
0.6
100
AcDbPoint
 10
1290.312482233652
 20
10523.54280173206
 30
0.0
  0
POINT
  5
149
330
143
100
AcDbEntity
  8
Defpoints
 62
     0
 48
0.6
100
AcDbPoint
 10
1305.529168451317
 20
10534.92051945382
 30
0.0
  0
ENDBLK
  5
14A
330
143
100
AcDbEntity
  8
0
100
AcDbBlockEnd
  0
BLOCK
  5
175
330
16B
100
AcDbEntity
  8
0
100
AcDbBlockBegin
  2
*D5
 70
     1
 10
0.0
 20
0.0
 30
0.0
  3
*D5
  1

  0
LINE
  5
16C
330
16B
100
AcDbEntity
  8
2上模
 62
   104
 48
0.6
370
     9
100
AcDbLine
 10
898.3468620936632
 20
732.2764952301031
 30
0.0
 11
898.3468620936632
 21
874.3519554038167
 31
0.0
  0
LINE
  5
16D
330
16B
100
AcDbEntity
  8
2上模
 62
   104
 48
0.6
370
     9
100
AcDbLine
 10
1656.346862093664
 20
732.2764952301031
 30
0.0
 11
1656.346862093664
 21
874.3519554038167
 31
0.0
  0
LINE
  5
16E
330
16B
100
AcDbEntity
  8
2上模
 62
   104
 48
0.6
370
     9
100
AcDbLine
 10
908.3468620936633
 20
873.1019554038166
 30
0.0
 11
1646.346862093664
 21
873.1019554038166
 31
0.0
  0
SOLID
  5
16F
330
16B
100
AcDbEntity
  8
2上模
 62
   104
 48
0.6
100
AcDbTrace
 10
908.3468620936633
 20
874.7686220704833
 30
0.0
 11
908.3468620936633
 21
871.43528873715
 31
0.0
 12
898.3468620936632
 22
873.1019554038166
 32
0.0
 13
898.3468620936632
 23
873.1019554038166
 33
0.0
  0
SOLID
  5
170
330
16B
100
AcDbEntity
  8
2上模
 62
   104
 48
0.6
100
AcDbTrace
 10
1646.346862093664
 20
874.7686220704833
 30
0.0
 11
1646.346862093664
 21
871.43528873715
 31
0.0
 12
1656.346862093664
 22
873.1019554038166
 32
0.0
 13
1656.346862093664
 23
873.1019554038166
 33
0.0
  0
MTEXT
  5
171
330
16B
100
AcDbEntity
  8
2上模
 62
   200
 48
0.6
370
    25
100
AcDbMText
 10
1277.346862093664
 20
881.515558344993
 30
0.0
 40
15.0
 41
0.0
 46
0.0
 71
     5
 72
     1
  1
\A1;758 [29 7/8”]
 73
     1
 44
1.0
  0
POINT
  5
172
330
16B
100
AcDbEntity
  8
Defpoints
 62
     0
 48
0.6
100
AcDbPoint
 10
898.3468620936632
 20
730.2764952301031
 30
0.0
  0
POINT
  5
173
330
16B
100
AcDbEntity
  8
Defpoints
 62
     0
 48
0.6
100
AcDbPoint
 10
1656.346862093664
 20
730.2764952301031
 30
0.0
  0
POINT
  5
174
330
16B
100
AcDbEntity
  8
Defpoints
 62
     0
 48
0.6
100
AcDbPoint
 10
1656.346862093664
 20
873.1019554038166
 30
0.0
  0
ENDBLK
  5
176
330
16B
100
AcDbEntity
  8
0
100
AcDbBlockEnd
  0
BLOCK
  5
181
330
177
100
AcDbEntity
  8
0
100
AcDbBlockBegin
  2
*D6
 70
     1
 10
0.0
 20
0.0
 30
0.0
  3
*D6
  1

  0
LINE
  5
18B
330
177
100
AcDbEntity
  8
2上模
 62
   104
 48
0.6
370
     9
100
AcDbLine
 10
1614.539140800016
 20
790.0248222170148
 30
0.0
 11
1766.916664265681
 21
790.0248222170148
 31
0.0
  0
LINE
  5
18C
330
177
100
AcDbEntity
  8
2上模
 62
   104
 48
0.6
370
     9
100
AcDbLine
 10
1614.539140800016
 20
387.0248222170149
 30
0.0
 11
1766.91666426568
 21
387.0248222170148
 31
0.0
  0
LINE
  5
18D
330
177
100
AcDbEntity
  8
2上模
 62
   104
 48
0.6
370
     9
100
AcDbLine
 10
1765.666664265681
 20
780.0248222170148
 30
0.0
 11
1765.66666426568
 21
397.0248222170148
 31
0.0
  0
SOLID
  5
18E
330
177
100
AcDbEntity
  8
2上模
 62
   104
 48
0.6
100
AcDbTrace
 10
1763.999997599014
 20
780.0248222170148
 30
0.0
 11
1767.333330932347
 21
780.0248222170148
 31
0.0
 12
1765.666664265681
 22
790.0248222170148
 32
0.0
 13
1765.666664265681
 23
790.0248222170148
 33
0.0
  0
SOLID
  5
18F
330
177
100
AcDbEntity
  8
2上模
 62
   104
 48
0.6
100
AcDbTrace
 10
1763.999997599014
 20
397.0248222170148
 30
0.0
 11
1767.333330932347
 21
397.0248222170148
 31
0.0
 12
1765.66666426568
 22
387.0248222170148
 32
0.0
 13
1765.66666426568
 23
387.0248222170148
 33
0.0
  0
MTEXT
  5
190
330
177
100
AcDbEntity
  8
2上模
 62
   200
 48
0.6
370
    25
100
AcDbMText
 10
1757.253061324504
 20
588.524822217015
 30
0.0
 40
15.0
 41
0.0
 46
0.0
 71
     5
 72
     1
  1
\A1;403 [15 7/8”]
 11
0.0000000000000001
 21
1.0
 31
0.0
 73
     1
 44
1.0
  0
POINT
  5
191
330
177
100
AcDbEntity
  8
Defpoints
 62
     0
 48
0.6
100
AcDbPoint
 10
1612.539140800016
 20
790.0248222170148
 30
0.0
  0
POINT
  5
192
330
177
100
AcDbEntity
  8
Defpoints
 62
     0
 48
0.6
100
AcDbPoint
 10
1612.539140800016
 20
387.0248222170149
 30
0.0
  0
POINT
  5
193
330
177
100
AcDbEntity
  8
Defpoints
 62
     0
 48
0.6
100
AcDbPoint
 10
1765.66666426568
 20
387.0248222170148
 30
0.0
  0
ENDBLK
  5
182
330
177
100
AcDbEntity
  8
0
100
AcDbBlockEnd
  0
BLOCK
  5
189
330
183
100
AcDbEntity
  8
0
100
AcDbBlockBegin
  2
*D7
 70
     1
 10
0.0
 20
0.0
 30
0.0
  3
*D7
  1

  0
LINE
  5
194
330
183
100
AcDbEntity
  8
2上模
 62
   104
 48
0.6
370
     9
100
AcDbLine
 10
1031.807670921618
 20
491.6086841971986
 30
0.0
 11
910.1389580957908
 21
400.6353769803702
 31
0.0
  0
MTEXT
  5
195
330
183
100
AcDbEntity
  8
2上模
 62
   200
 48
0.6
370
    25
100
AcDbMText
 10
969.9394109192708
 20
455.8544381953083
 30
0.0
 40
15.0
 41
0.0
 46
0.0
 71
     5
 72
     1
  1
\A1;R19 [R3/4”]
 11
0.8008782219792095
 21
0.5988272485111378
 31
0.0
 73
     1
 44
1.0
  0
SOLID
  5
196
330
183
100
AcDbEntity
  8
2上模
 62
   104
 48
0.6
100
AcDbTrace
 10
909.1409126816056
 20
401.9701740170021
 30
0.0
 11
911.137003509976
 21
399.3005799437382
 31
0.0
 12
902.1301758759987
 22
394.6471044952588
 32
0.0
 13
902.1301758759987
 23
394.6471044952588
 33
0.0
  0
POINT
  5
197
330
183
100
AcDbEntity
  8
Defpoints
 62
     0
 48
0.6
100
AcDbPoint
 10
902.1301758759987
 20
394.6471044952588
 30
0.0
  0
POINT
  5
198
330
183
100
AcDbEntity
  8
Defpoints
 62
     0
 48
0.6
100
AcDbPoint
 10
917.3468620936631
 20
406.0248222170148
 30
0.0
  0
ENDBLK
  5
18A
330
183
100
AcDbEntity
  8
0
100
AcDbBlockEnd
  0
BLOCK
  5
19B
330
19A
100
AcDbEntity
  8
0
100
AcDbBlockBegin
  2
*D8
 70
     1
 10
0.0
 20
0.0
 30
0.0
  3
*D8
  1

  0
LINE
  5
19C
330
19A
100
AcDbEntity
  8
2上模
 62
   104
 48
0.6
370
     9
100
AcDbLine
 10
2313.569741629993
 20
10799.53349271169
 30
0.0
 11
2313.569741629993
 21
10941.6089528854
 31
0.0
  0
LINE
  5
19D
330
19A
100
AcDbEntity
  8
2上模
 62
   104
 48
0.6
370
     9
100
AcDbLine
 10
2995.569741629993
 20
10799.53349271169
 30
0.0
 11
2995.569741629993
 21
10941.6089528854
 31
0.0
  0
LINE
  5
19E
330
19A
100
AcDbEntity
  8
2上模
 62
   104
 48
0.6
370
     9
100
AcDbLine
 10
2323.569741629993
 20
10940.3589528854
 30
0.0
 11
2985.569741629993
 21
10940.3589528854
 31
0.0
  0
SOLID
  5
19F
330
19A
100
AcDbEntity
  8
2上模
 62
   104
 48
0.6
100
AcDbTrace
 10
2323.569741629993
 20
10942.02561955207
 30
0.0
 11
2323.569741629993
 21
10938.69228621873
 31
0.0
 12
2313.569741629993
 22
10940.3589528854
 32
0.0
 13
2313.569741629993
 23
10940.3589528854
 33
0.0
  0
SOLID
  5
1A0
330
19A
100
AcDbEntity
  8
2上模
 62
   104
 48
0.6
100
AcDbTrace
 10
2985.569741629993
 20
10942.02561955207
 30
0.0
 11
2985.569741629993
 21
10938.69228621873
 31
0.0
 12
2995.569741629993
 22
10940.3589528854
 32
0.0
 13
2995.569741629993
 23
10940.3589528854
 33
0.0
  0
MTEXT
  5
1A1
330
19A
100
AcDbEntity
  8
2上模
 62
   200
 48
0.6
370
    25
100
AcDbMText
 10
2654.569741629993
 20
10948.77255582658
 30
0.0
 40
15.0
 41
0.0
 46
0.0
 71
     5
 72
     1
  1
\A1;682 [26 7/8”]
 73
     1
 44
1.0
  0
POINT
  5
1A2
330
19A
100
AcDbEntity
  8
Defpoints
 62
     0
 48
0.6
100
AcDbPoint
 10
2313.569741629993
 20
10797.53349271169
 30
0.0
  0
POINT
  5
1A3
330
19A
100
AcDbEntity
  8
Defpoints
 62
     0
 48
0.6
100
AcDbPoint
 10
2995.569741629993
 20
10797.53349271169
 30
0.0
  0
POINT
  5
1A4
330
19A
100
AcDbEntity
  8
Defpoints
 62
     0
 48
0.6
100
AcDbPoint
 10
2995.569741629993
 20
10940.3589528854
 30
0.0
  0
ENDBLK
  5
1A5
330
19A
100
AcDbEntity
  8
0
100
AcDbBlockEnd
  0
BLOCK
  5
1A7
330
1A6
100
AcDbEntity
  8
0
100
AcDbBlockBegin
  2
*D9
 70
     1
 10
0.0
 20
0.0
 30
0.0
  3
*D9
  1

  0
LINE
  5
1A8
330
1A6
100
AcDbEntity
  8
2上模
 62
   104
 48
0.6
370
     9
100
AcDbLine
 10
2956.380613139563
 20
10857.2818196986
 30
0.0
 11
3108.758136605228
 21
10857.2818196986
 31
0.0
  0
LINE
  5
1A9
330
1A6
100
AcDbEntity
  8
2上模
 62
   104
 48
0.6
370
     9
100
AcDbLine
 10
2956.380613139563
 20
10454.2818196986
 30
0.0
 11
3108.758136605228
 21
10454.2818196986
 31
0.0
  0
LINE
  5
1AA
330
1A6
100
AcDbEntity
  8
2上模
 62
   104
 48
0.6
370
     9
100
AcDbLine
 10
3107.508136605228
 20
10847.2818196986
 30
0.0
 11
3107.508136605228
 21
10464.2818196986
 31
0.0
  0
SOLID
  5
1AB
330
1A6
100
AcDbEntity
  8
2上模
 62
   104
 48
0.6
100
AcDbTrace
 10
3105.841469938562
 20
10847.2818196986
 30
0.0
 11
3109.174803271895
 21
10847.2818196986
 31
0.0
 12
3107.508136605228
 22
10857.2818196986
 32
0.0
 13
3107.508136605228
 23
10857.2818196986
 33
0.0
  0
SOLID
  5
1AC
330
1A6
100
AcDbEntity
  8
2上模
 62
   104
 48
0.6
100
AcDbTrace
 10
3105.841469938562
 20
10464.2818196986
 30
0.0
 11
3109.174803271895
 21
10464.2818196986
 31
0.0
 12
3107.508136605228
 22
10454.2818196986
 32
0.0
 13
3107.508136605228
 23
10454.2818196986
 33
0.0
  0
MTEXT
  5
1AD
330
1A6
100
AcDbEntity
  8
2上模
 62
   200
 48
0.6
370
    25
100
AcDbMText
 10
3099.09453366405
 20
10655.7818196986
 30
0.0
 40
15.0
 41
0.0
 46
0.0
 71
     5
 72
     1
  1
\A1;403 [15 7/8”]
 11
0.0000000000000001
 21
1.0
 31
0.0
 73
     1
 44
1.0
  0
POINT
  5
1AE
330
1A6
100
AcDbEntity
  8
Defpoints
 62
     0
 48
0.6
100
AcDbPoint
 10
2954.380613139563
 20
10857.2818196986
 30
0.0
  0
POINT
  5
1AF
330
1A6
100
AcDbEntity
  8
Defpoints
 62
     0
 48
0.6
100
AcDbPoint
 10
2954.380613139563
 20
10454.2818196986
 30
0.0
  0
POINT
  5
1B0
330
1A6
100
AcDbEntity
  8
Defpoints
 62
     0
 48
0.6
100
AcDbPoint
 10
3107.508136605228
 20
10454.2818196986
 30
0.0
  0
ENDBLK
  5
1B1
330
1A6
100
AcDbEntity
  8
0
100
AcDbBlockEnd
  0
BLOCK
  5
1B3
330
1B2
100
AcDbEntity
  8
0
100
AcDbBlockBegin
  2
*D10
 70
     1
 10
0.0
 20
0.0
 30
0.0
  3
*D10
  1

  0
LINE
  5
1B4
330
1B2
100
AcDbEntity
  8
2上模
 62
   104
 48
0.6
370
     9
100
AcDbLine
 10
2447.030550457878
 20
10558.86568167886
 30
0.0
 11
2325.361837632115
 21
10467.89237446195
 31
0.0
  0
MTEXT
  5
1B5
330
1B2
100
AcDbEntity
  8
2上模
 62
   200
 48
0.6
370
    25
100
AcDbMText
 10
2385.162290455555
 20
10523.11143567693
 30
0.0
 40
15.0
 41
0.0
 46
0.0
 71
     5
 72
     1
  1
\A1;R19 [R3/4”]
 11
0.8008782219787843
 21
0.5988272485117067
 31
0.0
 73
     1
 44
1.0
  0
SOLID
  5
1B6
330
1B2
100
AcDbEntity
  8
2上模
 62
   104
 48
0.6
100
AcDbTrace
 10
2324.363792217928
 20
10469.22717149858
 30
0.0
 11
2326.359883046301
 21
10466.55757742531
 31
0.0
 12
2317.353055412327
 22
10461.90410197683
 32
0.0
 13
2317.353055412327
 23
10461.90410197683
 33
0.0
  0
POINT
  5
1B7
330
1B2
100
AcDbEntity
  8
Defpoints
 62
     0
 48
0.6
100
AcDbPoint
 10
2317.353055412327
 20
10461.90410197683
 30
0.0
  0
POINT
  5
1B8
330
1B2
100
AcDbEntity
  8
Defpoints
 62
     0
 48
0.6
100
AcDbPoint
 10
2332.569741629993
 20
10473.2818196986
 30
0.0
  0
ENDBLK
  5
1B9
330
1B2
100
AcDbEntity
  8
0
100
AcDbBlockEnd
  0
BLOCK
  5
1DE
330
1D4
100
AcDbEntity
  8
0
100
AcDbBlockBegin
  2
*D12
 70
     1
 10
0.0
 20
0.0
 30
0.0
  3
*D12
  1

  0
LINE
  5
1D5
330
1D4
100
AcDbEntity
  8
2上模
 62
   104
 48
0.6
370
     9
100
AcDbLine
 10
721.3609642683429
 20
630.2873164797735
 30
0.0
 11
721.3609642683429
 21
772.3627766534869
 31
0.0
  0
LINE
  5
1D6
330
1D4
100
AcDbEntity
  8
2上模
 62
   104
 48
0.6
370
     9
100
AcDbLine
 10
1403.360964268343
 20
630.2873164797735
 30
0.0
 11
1403.360964268343
 21
772.3627766534869
 31
0.0
  0
LINE
  5
1D7
330
1D4
100
AcDbEntity
  8
2上模
 62
   104
 48
0.6
370
     9
100
AcDbLine
 10
731.3609642683429
 20
771.112776653487
 30
0.0
 11
1393.360964268343
 21
771.112776653487
 31
0.0
  0
SOLID
  5
1D8
330
1D4
100
AcDbEntity
  8
2上模
 62
   104
 48
0.6
100
AcDbTrace
 10
731.3609642683429
 20
772.7794433201536
 30
0.0
 11
731.3609642683429
 21
769.4461099868203
 31
0.0
 12
721.3609642683429
 22
771.112776653487
 32
0.0
 13
721.3609642683429
 23
771.112776653487
 33
0.0
  0
SOLID
  5
1D9
330
1D4
100
AcDbEntity
  8
2上模
 62
   104
 48
0.6
100
AcDbTrace
 10
1393.360964268343
 20
772.7794433201536
 30
0.0
 11
1393.360964268343
 21
769.4461099868203
 31
0.0
 12
1403.360964268343
 22
771.112776653487
 32
0.0
 13
1403.360964268343
 23
771.112776653487
 33
0.0
  0
MTEXT
  5
1DA
330
1D4
100
AcDbEntity
  8
2上模
 62
   200
 48
0.6
370
    25
100
AcDbMText
 10
1062.360964268343
 20
779.5263795946635
 30
0.0
 40
15.0
 41
0.0
 46
0.0
 71
     5
 72
     1
  1
\A1;682 [26 7/8”]
 73
     1
 44
1.0
  0
POINT
  5
1DB
330
1D4
100
AcDbEntity
  8
Defpoints
 62
     0
 48
0.6
100
AcDbPoint
 10
721.3609642683429
 20
628.2873164797734
 30
0.0
  0
POINT
  5
1DC
330
1D4
100
AcDbEntity
  8
Defpoints
 62
     0
 48
0.6
100
AcDbPoint
 10
1403.360964268343
 20
628.2873164797734
 30
0.0
  0
POINT
  5
1DD
330
1D4
100
AcDbEntity
  8
Defpoints
 62
     0
 48
0.6
100
AcDbPoint
 10
1403.360964268343
 20
771.112776653487
 30
0.0
  0
ENDBLK
  5
1DF
330
1D4
100
AcDbEntity
  8
0
100
AcDbBlockEnd
  0
BLOCK
  5
1EA
330
1E0
100
AcDbEntity
  8
0
100
AcDbBlockBegin
  2
*D13
 70
     1
 10
0.0
 20
0.0
 30
0.0
  3
*D13
  1

  0
LINE
  5
1F4
330
1E0
100
AcDbEntity
  8
2上模
 62
   104
 48
0.6
370
     9
100
AcDbLine
 10
1364.171835777914
 20
688.0356434666851
 30
0.0
 11
1516.549359243579
 21
688.0356434666851
 31
0.0
  0
LINE
  5
1F5
330
1E0
100
AcDbEntity
  8
2上模
 62
   104
 48
0.6
370
     9
100
AcDbLine
 10
1364.171835777914
 20
285.0356434666852
 30
0.0
 11
1516.549359243579
 21
285.0356434666851
 31
0.0
  0
LINE
  5
1F6
330
1E0
100
AcDbEntity
  8
2上模
 62
   104
 48
0.6
370
     9
100
AcDbLine
 10
1515.299359243579
 20
678.0356434666852
 30
0.0
 11
1515.299359243579
 21
295.0356434666852
 31
0.0
  0
SOLID
  5
1F7
330
1E0
100
AcDbEntity
  8
2上模
 62
   104
 48
0.6
100
AcDbTrace
 10
1513.632692576912
 20
678.0356434666852
 30
0.0
 11
1516.966025910245
 21
678.0356434666852
 31
0.0
 12
1515.299359243579
 22
688.0356434666851
 32
0.0
 13
1515.299359243579
 23
688.0356434666851
 33
0.0
  0
SOLID
  5
1F8
330
1E0
100
AcDbEntity
  8
2上模
 62
   104
 48
0.6
100
AcDbTrace
 10
1513.632692576912
 20
295.0356434666852
 30
0.0
 11
1516.966025910245
 21
295.0356434666852
 31
0.0
 12
1515.299359243579
 22
285.0356434666851
 32
0.0
 13
1515.299359243579
 23
285.0356434666851
 33
0.0
  0
MTEXT
  5
1F9
330
1E0
100
AcDbEntity
  8
2上模
 62
   200
 48
0.6
370
    25
100
AcDbMText
 10
1506.885756302402
 20
486.5356434666854
 30
0.0
 40
15.0
 41
0.0
 46
0.0
 71
     5
 72
     1
  1
\A1;403 [15 7/8”]
 11
0.0000000000000001
 21
1.0
 31
0.0
 73
     1
 44
1.0
  0
POINT
  5
1FA
330
1E0
100
AcDbEntity
  8
Defpoints
 62
     0
 48
0.6
100
AcDbPoint
 10
1362.171835777914
 20
688.0356434666851
 30
0.0
  0
POINT
  5
1FB
330
1E0
100
AcDbEntity
  8
Defpoints
 62
     0
 48
0.6
100
AcDbPoint
 10
1362.171835777914
 20
285.0356434666852
 30
0.0
  0
POINT
  5
1FC
330
1E0
100
AcDbEntity
  8
Defpoints
 62
     0
 48
0.6
100
AcDbPoint
 10
1515.299359243579
 20
285.0356434666851
 30
0.0
  0
ENDBLK
  5
1EB
330
1E0
100
AcDbEntity
  8
0
100
AcDbBlockEnd
  0
BLOCK
  5
1F2
330
1EC
100
AcDbEntity
  8
0
100
AcDbBlockBegin
  2
*D14
 70
     1
 10
0.0
 20
0.0
 30
0.0
  3
*D14
  1

  0
LINE
  5
1FD
330
1EC
100
AcDbEntity
  8
2上模
 62
   104
 48
0.6
370
     9
100
AcDbLine
 10
854.8217730962255
 20
389.6195054469471
 30
0.0
 11
733.1530602704649
 21
298.646198230028
 31
0.0
  0
MTEXT
  5
1FE
330
1EC
100
AcDbEntity
  8
2上模
 62
   200
 48
0.6
370
    25
100
AcDbMText
 10
792.9535130939048
 20
353.8652594450113
 30
0.0
 40
15.0
 41
0.0
 46
0.0
 71
     5
 72
     1
  1
\A1;R19 [R3/4”]
 11
0.8008782219787658
 21
0.5988272485117312
 31
0.0
 73
     1
 44
1.0
  0
SOLID
  5
1FF
330
1EC
100
AcDbEntity
  8
2上模
 62
   104
 48
0.6
100
AcDbTrace
 10
732.1550148562787
 20
299.9809952666593
 30
0.0
 11
734.1511056846512
 21
297.3114011933968
 31
0.0
 12
725.1442780506773
 22
292.6579257449107
 32
0.0
 13
725.1442780506773
 23
292.6579257449107
 33
0.0
  0
POINT
  5
200
330
1EC
100
AcDbEntity
  8
Defpoints
 62
     0
 48
0.6
100
AcDbPoint
 10
725.1442780506773
 20
292.6579257449107
 30
0.0
  0
POINT
  5
201
330
1EC
100
AcDbEntity
  8
Defpoints
 62
     0
 48
0.6
100
AcDbPoint
 10
740.3609642683429
 20
304.0356434666851
 30
0.0
  0
ENDBLK
  5
1F3
330
1EC
100
AcDbEntity
  8
0
100
AcDbBlockEnd
  0
BLOCK
  5
203
330
202
100
AcDbEntity
  8
0
100
AcDbBlockBegin
  2
*D15
 70
     1
 10
0.0
 20
0.0
 30
0.0
  3
*D15
  1

  0
LINE
  5
204
330
202
100
AcDbEntity
  8
2上模
 62
   104
 48
0.6
370
     9
100
AcDbLine
 10
3407.713297409819
 20
10797.19306069007
 30
0.0
 11
3407.713297409819
 21
10939.26852086379
 31
0.0
  0
LINE
  5
205
330
202
100
AcDbEntity
  8
2上模
 62
   104
 48
0.6
370
     9
100
AcDbLine
 10
4038.713297409818
 20
10797.19306069007
 30
0.0
 11
4038.713297409818
 21
10939.26852086379
 31
0.0
  0
LINE
  5
206
330
202
100
AcDbEntity
  8
2上模
 62
   104
 48
0.6
370
     9
100
AcDbLine
 10
3417.713297409818
 20
10938.01852086379
 30
0.0
 11
4028.713297409818
 21
10938.01852086379
 31
0.0
  0
SOLID
  5
207
330
202
100
AcDbEntity
  8
2上模
 62
   104
 48
0.6
100
AcDbTrace
 10
3417.713297409818
 20
10939.68518753045
 30
0.0
 11
3417.713297409818
 21
10936.35185419712
 31
0.0
 12
3407.713297409819
 22
10938.01852086379
 32
0.0
 13
3407.713297409819
 23
10938.01852086379
 33
0.0
  0
SOLID
  5
208
330
202
100
AcDbEntity
  8
2上模
 62
   104
 48
0.6
100
AcDbTrace
 10
4028.713297409818
 20
10939.68518753045
 30
0.0
 11
4028.713297409818
 21
10936.35185419712
 31
0.0
 12
4038.713297409818
 22
10938.01852086379
 32
0.0
 13
4038.713297409818
 23
10938.01852086379
 33
0.0
  0
MTEXT
  5
209
330
202
100
AcDbEntity
  8
2上模
 62
   200
 48
0.6
370
    25
100
AcDbMText
 10
3723.213297409819
 20
10946.43212380496
 30
0.0
 40
15.0
 41
0.0
 46
0.0
 71
     5
 72
     1
  1
\A1;631 [24 7/8”]
 73
     1
 44
1.0
  0
POINT
  5
20A
330
202
100
AcDbEntity
  8
Defpoints
 62
     0
 48
0.6
100
AcDbPoint
 10
3407.713297409819
 20
10795.19306069007
 30
0.0
  0
POINT
  5
20B
330
202
100
AcDbEntity
  8
Defpoints
 62
     0
 48
0.6
100
AcDbPoint
 10
4038.713297409818
 20
10795.19306069007
 30
0.0
  0
POINT
  5
20C
330
202
100
AcDbEntity
  8
Defpoints
 62
     0
 48
0.6
100
AcDbPoint
 10
4038.713297409818
 20
10938.01852086379
 30
0.0
  0
ENDBLK
  5
20D
330
202
100
AcDbEntity
  8
0
100
AcDbBlockEnd
  0
BLOCK
  5
20F
330
20E
100
AcDbEntity
  8
0
100
AcDbBlockBegin
  2
*D16
 70
     1
 10
0.0
 20
0.0
 30
0.0
  3
*D16
  1

  0
LINE
  5
210
330
20E
100
AcDbEntity
  8
2上模
 62
   104
 48
0.6
370
     9
100
AcDbLine
 10
4001.281382511021
 20
10854.94138767698
 30
0.0
 11
4153.658905976684
 21
10854.94138767698
 31
0.0
  0
LINE
  5
211
330
20E
100
AcDbEntity
  8
2上模
 62
   104
 48
0.6
370
     9
100
AcDbLine
 10
4001.281382511021
 20
10451.94138767698
 30
0.0
 11
4153.658905976684
 21
10451.94138767698
 31
0.0
  0
LINE
  5
212
330
20E
100
AcDbEntity
  8
2上模
 62
   104
 48
0.6
370
     9
100
AcDbLine
 10
4152.408905976685
 20
10844.94138767698
 30
0.0
 11
4152.408905976685
 21
10461.94138767698
 31
0.0
  0
SOLID
  5
213
330
20E
100
AcDbEntity
  8
2上模
 62
   104
 48
0.6
100
AcDbTrace
 10
4150.742239310018
 20
10844.94138767698
 30
0.0
 11
4154.075572643352
 21
10844.94138767698
 31
0.0
 12
4152.408905976685
 22
10854.94138767698
 32
0.0
 13
4152.408905976685
 23
10854.94138767698
 33
0.0
  0
SOLID
  5
214
330
20E
100
AcDbEntity
  8
2上模
 62
   104
 48
0.6
100
AcDbTrace
 10
4150.742239310018
 20
10461.94138767698
 30
0.0
 11
4154.075572643352
 21
10461.94138767698
 31
0.0
 12
4152.408905976685
 22
10451.94138767698
 32
0.0
 13
4152.408905976685
 23
10451.94138767698
 33
0.0
  0
MTEXT
  5
215
330
20E
100
AcDbEntity
  8
2上模
 62
   200
 48
0.6
370
    25
100
AcDbMText
 10
4143.995303035506
 20
10653.44138767698
 30
0.0
 40
15.0
 41
0.0
 46
0.0
 71
     5
 72
     1
  1
\A1;403 [15 7/8”]
 11
0.0000000000000001
 21
1.0
 31
0.0
 73
     1
 44
1.0
  0
POINT
  5
216
330
20E
100
AcDbEntity
  8
Defpoints
 62
     0
 48
0.6
100
AcDbPoint
 10
3999.281382511022
 20
10854.94138767698
 30
0.0
  0
POINT
  5
217
330
20E
100
AcDbEntity
  8
Defpoints
 62
     0
 48
0.6
100
AcDbPoint
 10
3999.281382511022
 20
10451.94138767698
 30
0.0
  0
POINT
  5
218
330
20E
100
AcDbEntity
  8
Defpoints
 62
     0
 48
0.6
100
AcDbPoint
 10
4152.408905976685
 20
10451.94138767698
 30
0.0
  0
ENDBLK
  5
219
330
20E
100
AcDbEntity
  8
0
100
AcDbBlockEnd
  0
BLOCK
  5
21B
330
21A
100
AcDbEntity
  8
0
100
AcDbBlockBegin
  2
*D17
 70
     1
 10
0.0
 20
0.0
 30
0.0
  3
*D17
  1

  0
LINE
  5
21C
330
21A
100
AcDbEntity
  8
2上模
 62
   104
 48
0.6
370
     9
100
AcDbLine
 10
3541.174106237735
 20
10556.52524965721
 30
0.0
 11
3419.505393411941
 21
10465.55194244033
 31
0.0
  0
MTEXT
  5
21D
330
21A
100
AcDbEntity
  8
2上模
 62
   200
 48
0.6
370
    25
100
AcDbMText
 10
3479.3058462354
 20
10520.77100365529
 30
0.0
 40
15.0
 41
0.0
 46
0.0
 71
     5
 72
     1
  1
\A1;R19 [R3/4”]
 11
0.8008782219789939
 21
0.5988272485114262
 31
0.0
 73
     1
 44
1.0
  0
SOLID
  5
21E
330
21A
100
AcDbEntity
  8
2上模
 62
   104
 48
0.6
100
AcDbTrace
 10
3418.507347997755
 20
10466.88673947697
 30
0.0
 11
3420.503438826127
 21
10464.2171454037
 31
0.0
 12
3411.496611192151
 22
10459.56366995522
 32
0.0
 13
3411.496611192151
 23
10459.56366995522
 33
0.0
  0
POINT
  5
21F
330
21A
100
AcDbEntity
  8
Defpoints
 62
     0
 48
0.6
100
AcDbPoint
 10
3411.496611192151
 20
10459.56366995522
 30
0.0
  0
POINT
  5
220
330
21A
100
AcDbEntity
  8
Defpoints
 62
     0
 48
0.6
100
AcDbPoint
 10
3426.713297409819
 20
10470.94138767699
 30
0.0
  0
ENDBLK
  5
221
330
21A
100
AcDbEntity
  8
0
100
AcDbBlockEnd
  0
BLOCK
  5
246
330
23C
100
AcDbEntity
  8
0
100
AcDbBlockBegin
  2
*D19
 70
     1
 10
0.0
 20
0.0
 30
0.0
  3
*D19
  1

  0
LINE
  5
23D
330
23C
100
AcDbEntity
  8
2上模
 62
   104
 48
0.6
370
     9
100
AcDbLine
 10
1745.952484482248
 20
668.3057886489469
 30
0.0
 11
1745.952484482248
 21
810.3812488226603
 31
0.0
  0
LINE
  5
23E
330
23C
100
AcDbEntity
  8
2上模
 62
   104
 48
0.6
370
     9
100
AcDbLine
 10
2376.952484482248
 20
668.3057886489469
 30
0.0
 11
2376.952484482248
 21
810.3812488226603
 31
0.0
  0
LINE
  5
23F
330
23C
100
AcDbEntity
  8
2上模
 62
   104
 48
0.6
370
     9
100
AcDbLine
 10
1755.952484482248
 20
809.1312488226604
 30
0.0
 11
2366.952484482248
 21
809.1312488226604
 31
0.0
  0
SOLID
  5
240
330
23C
100
AcDbEntity
  8
2上模
 62
   104
 48
0.6
100
AcDbTrace
 10
1755.952484482248
 20
810.797915489327
 30
0.0
 11
1755.952484482248
 21
807.4645821559936
 31
0.0
 12
1745.952484482248
 22
809.1312488226604
 32
0.0
 13
1745.952484482248
 23
809.1312488226604
 33
0.0
  0
SOLID
  5
241
330
23C
100
AcDbEntity
  8
2上模
 62
   104
 48
0.6
100
AcDbTrace
 10
2366.952484482248
 20
810.797915489327
 30
0.0
 11
2366.952484482248
 21
807.4645821559936
 31
0.0
 12
2376.952484482248
 22
809.1312488226604
 32
0.0
 13
2376.952484482248
 23
809.1312488226604
 33
0.0
  0
MTEXT
  5
242
330
23C
100
AcDbEntity
  8
2上模
 62
   200
 48
0.6
370
    25
100
AcDbMText
 10
2061.452484482248
 20
817.5448517638368
 30
0.0
 40
15.0
 41
0.0
 46
0.0
 71
     5
 72
     1
  1
\A1;631 [24 7/8”]
 73
     1
 44
1.0
  0
POINT
  5
243
330
23C
100
AcDbEntity
  8
Defpoints
 62
     0
 48
0.6
100
AcDbPoint
 10
1745.952484482248
 20
666.3057886489468
 30
0.0
  0
POINT
  5
244
330
23C
100
AcDbEntity
  8
Defpoints
 62
     0
 48
0.6
100
AcDbPoint
 10
2376.952484482248
 20
666.3057886489468
 30
0.0
  0
POINT
  5
245
330
23C
100
AcDbEntity
  8
Defpoints
 62
     0
 48
0.6
100
AcDbPoint
 10
2376.952484482248
 20
809.1312488226604
 30
0.0
  0
ENDBLK
  5
247
330
23C
100
AcDbEntity
  8
0
100
AcDbBlockEnd
  0
BLOCK
  5
252
330
248
100
AcDbEntity
  8
0
100
AcDbBlockBegin
  2
*D20
 70
     1
 10
0.0
 20
0.0
 30
0.0
  3
*D20
  1

  0
LINE
  5
25C
330
248
100
AcDbEntity
  8
2上模
 62
   104
 48
0.6
370
     9
100
AcDbLine
 10
2339.520569583451
 20
726.0541156358585
 30
0.0
 11
2491.898093049115
 21
726.0541156358585
 31
0.0
  0
LINE
  5
25D
330
248
100
AcDbEntity
  8
2上模
 62
   104
 48
0.6
370
     9
100
AcDbLine
 10
2339.520569583451
 20
323.0541156358586
 30
0.0
 11
2491.898093049115
 21
323.0541156358585
 31
0.0
  0
LINE
  5
25E
330
248
100
AcDbEntity
  8
2上模
 62
   104
 48
0.6
370
     9
100
AcDbLine
 10
2490.648093049114
 20
716.0541156358585
 30
0.0
 11
2490.648093049114
 21
333.0541156358585
 31
0.0
  0
SOLID
  5
25F
330
248
100
AcDbEntity
  8
2上模
 62
   104
 48
0.6
100
AcDbTrace
 10
2488.981426382448
 20
716.0541156358585
 30
0.0
 11
2492.314759715781
 21
716.0541156358585
 31
0.0
 12
2490.648093049114
 22
726.0541156358585
 32
0.0
 13
2490.648093049114
 23
726.0541156358585
 33
0.0
  0
SOLID
  5
260
330
248
100
AcDbEntity
  8
2上模
 62
   104
 48
0.6
100
AcDbTrace
 10
2488.981426382448
 20
333.0541156358585
 30
0.0
 11
2492.314759715781
 21
333.0541156358585
 31
0.0
 12
2490.648093049114
 22
323.0541156358585
 32
0.0
 13
2490.648093049114
 23
323.0541156358585
 33
0.0
  0
MTEXT
  5
261
330
248
100
AcDbEntity
  8
2上模
 62
   200
 48
0.6
370
    25
100
AcDbMText
 10
2482.234490107938
 20
524.554115635859
 30
0.0
 40
15.0
 41
0.0
 46
0.0
 71
     5
 72
     1
  1
\A1;403 [15 7/8”]
 11
0.0000000000000001
 21
1.0
 31
0.0
 73
     1
 44
1.0
  0
POINT
  5
262
330
248
100
AcDbEntity
  8
Defpoints
 62
     0
 48
0.6
100
AcDbPoint
 10
2337.520569583452
 20
726.0541156358585
 30
0.0
  0
POINT
  5
263
330
248
100
AcDbEntity
  8
Defpoints
 62
     0
 48
0.6
100
AcDbPoint
 10
2337.520569583452
 20
323.0541156358586
 30
0.0
  0
POINT
  5
264
330
248
100
AcDbEntity
  8
Defpoints
 62
     0
 48
0.6
100
AcDbPoint
 10
2490.648093049114
 20
323.0541156358585
 30
0.0
  0
ENDBLK
  5
253
330
248
100
AcDbEntity
  8
0
100
AcDbBlockEnd
  0
BLOCK
  5
25A
330
254
100
AcDbEntity
  8
0
100
AcDbBlockBegin
  2
*D21
 70
     1
 10
0.0
 20
0.0
 30
0.0
  3
*D21
  1

  0
LINE
  5
265
330
254
100
AcDbEntity
  8
2上模
 62
   104
 48
0.6
370
     9
100
AcDbLine
 10
1879.413293310166
 20
427.6379776160763
 30
0.0
 11
1757.74458048437
 21
336.6646703992058
 31
0.0
  0
MTEXT
  5
266
330
254
100
AcDbEntity
  8
2上模
 62
   200
 48
0.6
370
    25
100
AcDbMText
 10
1817.545033307831
 20
391.8837316141652
 30
0.0
 40
15.0
 41
0.0
 46
0.0
 71
     5
 72
     1
  1
\A1;R19 [R3/4”]
 11
0.8008782219790022
 21
0.598827248511415
 31
0.0
 73
     1
 44
1.0
  0
SOLID
  5
267
330
254
100
AcDbEntity
  8
2上模
 62
   104
 48
0.6
100
AcDbTrace
 10
1756.746535070184
 20
337.9994674358375
 30
0.0
 11
1758.742625898555
 21
335.3298733625742
 31
0.0
 12
1749.73579826458
 22
330.6763979140916
 32
0.0
 13
1749.73579826458
 23
330.6763979140916
 33
0.0
  0
POINT
  5
268
330
254
100
AcDbEntity
  8
Defpoints
 62
     0
 48
0.6
100
AcDbPoint
 10
1749.73579826458
 20
330.6763979140916
 30
0.0
  0
POINT
  5
269
330
254
100
AcDbEntity
  8
Defpoints
 62
     0
 48
0.6
100
AcDbPoint
 10
1764.952484482248
 20
342.0541156358585
 30
0.0
  0
ENDBLK
  5
25B
330
254
100
AcDbEntity
  8
0
100
AcDbBlockEnd
  0
BLOCK
  5
26C
330
26B
100
AcDbEntity
  8
0
100
AcDbBlockBegin
  2
*D22
 70
     1
 10
0.0
 20
0.0
 30
0.0
  3
*D22
  1

  0
LINE
  5
26D
330
26B
100
AcDbEntity
  8
2上模
 62
   104
 48
0.6
370
     9
100
AcDbLine
 10
1286.529168451318
 20
10058.26025811779
 30
0.0
 11
1286.529168451318
 21
10200.33571829151
 31
0.0
  0
LINE
  5
26E
330
26B
100
AcDbEntity
  8
2上模
 62
   104
 48
0.6
370
     9
100
AcDbLine
 10
1994.529168451319
 20
10058.26025811779
 30
0.0
 11
1994.529168451319
 21
10200.33571829151
 31
0.0
  0
LINE
  5
26F
330
26B
100
AcDbEntity
  8
2上模
 62
   104
 48
0.6
370
     9
100
AcDbLine
 10
1296.529168451318
 20
10199.08571829151
 30
0.0
 11
1984.529168451319
 21
10199.08571829151
 31
0.0
  0
SOLID
  5
270
330
26B
100
AcDbEntity
  8
2上模
 62
   104
 48
0.6
100
AcDbTrace
 10
1296.529168451318
 20
10200.75238495817
 30
0.0
 11
1296.529168451318
 21
10197.41905162484
 31
0.0
 12
1286.529168451318
 22
10199.08571829151
 32
0.0
 13
1286.529168451318
 23
10199.08571829151
 33
0.0
  0
SOLID
  5
271
330
26B
100
AcDbEntity
  8
2上模
 62
   104
 48
0.6
100
AcDbTrace
 10
1984.529168451319
 20
10200.75238495817
 30
0.0
 11
1984.529168451319
 21
10197.41905162484
 31
0.0
 12
1994.529168451319
 22
10199.08571829151
 32
0.0
 13
1994.529168451319
 23
10199.08571829151
 33
0.0
  0
MTEXT
  5
272
330
26B
100
AcDbEntity
  8
2上模
 62
   200
 48
0.6
370
    25
100
AcDbMText
 10
1640.529168451319
 20
10207.49932123268
 30
0.0
 40
15.0
 41
0.0
 46
0.0
 71
     5
 72
     1
  1
\A1;708 [27 7/8”]
 73
     1
 44
1.0
  0
POINT
  5
273
330
26B
100
AcDbEntity
  8
Defpoints
 62
     0
 48
0.6
100
AcDbPoint
 10
1286.529168451318
 20
10056.26025811779
 30
0.0
  0
POINT
  5
274
330
26B
100
AcDbEntity
  8
Defpoints
 62
     0
 48
0.6
100
AcDbPoint
 10
1994.529168451319
 20
10056.26025811779
 30
0.0
  0
POINT
  5
275
330
26B
100
AcDbEntity
  8
Defpoints
 62
     0
 48
0.6
100
AcDbPoint
 10
1994.529168451319
 20
10199.08571829151
 30
0.0
  0
ENDBLK
  5
276
330
26B
100
AcDbEntity
  8
0
100
AcDbBlockEnd
  0
BLOCK
  5
278
330
277
100
AcDbEntity
  8
0
100
AcDbBlockBegin
  2
*D23
 70
     1
 10
0.0
 20
0.0
 30
0.0
  3
*D23
  1

  0
LINE
  5
279
330
277
100
AcDbEntity
  8
2上模
 62
   104
 48
0.6
370
     9
100
AcDbLine
 10
1954.444205580841
 20
10116.0085851047
 30
0.0
 11
2060.275073117782
 21
10116.0085851047
 31
0.0
  0
LINE
  5
27A
330
277
100
AcDbEntity
  8
2上模
 62
   104
 48
0.6
370
     9
100
AcDbLine
 10
1954.444205580841
 20
9713.008585104709
 30
0.0
 11
2060.275073117782
 21
9713.008585104709
 31
0.0
  0
LINE
  5
27B
330
277
100
AcDbEntity
  8
2上模
 62
   104
 48
0.6
370
     9
100
AcDbLine
 10
2059.025073117782
 20
10106.00858510471
 30
0.0
 11
2059.025073117782
 21
9723.008585104707
 31
0.0
  0
SOLID
  5
27C
330
277
100
AcDbEntity
  8
2上模
 62
   104
 48
0.6
100
AcDbTrace
 10
2057.358406451116
 20
10106.00858510471
 30
0.0
 11
2060.691739784449
 21
10106.00858510471
 31
0.0
 12
2059.025073117782
 22
10116.0085851047
 32
0.0
 13
2059.025073117782
 23
10116.0085851047
 33
0.0
  0
SOLID
  5
27D
330
277
100
AcDbEntity
  8
2上模
 62
   104
 48
0.6
100
AcDbTrace
 10
2057.358406451116
 20
9723.008585104707
 30
0.0
 11
2060.691739784449
 21
9723.008585104707
 31
0.0
 12
2059.025073117782
 22
9713.008585104709
 32
0.0
 13
2059.025073117782
 23
9713.008585104709
 33
0.0
  0
MTEXT
  5
27E
330
277
100
AcDbEntity
  8
2上模
 62
   200
 48
0.6
370
    25
100
AcDbMText
 10
2050.611470176604
 20
9914.508585104709
 30
0.0
 40
15.0
 41
0.0
 46
0.0
 71
     5
 72
     1
  1
\A1;403 [15 7/8”]
 11
0.0000000000000001
 21
1.0
 31
0.0
 73
     1
 44
1.0
  0
POINT
  5
27F
330
277
100
AcDbEntity
  8
Defpoints
 62
     0
 48
0.6
100
AcDbPoint
 10
1952.444205580841
 20
10116.0085851047
 30
0.0
  0
POINT
  5
280
330
277
100
AcDbEntity
  8
Defpoints
 62
     0
 48
0.6
100
AcDbPoint
 10
1952.444205580841
 20
9713.008585104709
 30
0.0
  0
POINT
  5
281
330
277
100
AcDbEntity
  8
Defpoints
 62
     0
 48
0.6
100
AcDbPoint
 10
2059.025073117782
 20
9713.008585104709
 30
0.0
  0
ENDBLK
  5
282
330
277
100
AcDbEntity
  8
0
100
AcDbBlockEnd
  0
BLOCK
  5
284
330
283
100
AcDbEntity
  8
0
100
AcDbBlockBegin
  2
*D24
 70
     1
 10
0.0
 20
0.0
 30
0.0
  3
*D24
  1

  0
LINE
  5
285
330
283
100
AcDbEntity
  8
2上模
 62
   104
 48
0.6
370
     9
100
AcDbLine
 10
1419.989977279276
 20
9817.592447084889
 30
0.0
 11
1298.321264453445
 21
9726.619139868063
 31
0.0
  0
MTEXT
  5
286
330
283
100
AcDbEntity
  8
2上模
 62
   200
 48
0.6
370
    25
100
AcDbMText
 10
1358.121717276927
 20
9781.838201082999
 30
0.0
 40
15.0
 41
0.0
 46
0.0
 71
     5
 72
     1
  1
\A1;R19 [R3/4”]
 11
0.8008782219792264
 21
0.5988272485111156
 31
0.0
 73
     1
 44
1.0
  0
SOLID
  5
287
330
283
100
AcDbEntity
  8
2上模
 62
   104
 48
0.6
100
AcDbTrace
 10
1297.32321903926
 20
9727.953936904695
 30
0.0
 11
1299.31930986763
 21
9725.284342831431
 31
0.0
 12
1290.312482233653
 22
9720.630867382952
 32
0.0
 13
1290.312482233653
 23
9720.630867382952
 33
0.0
  0
POINT
  5
288
330
283
100
AcDbEntity
  8
Defpoints
 62
     0
 48
0.6
100
AcDbPoint
 10
1290.312482233653
 20
9720.630867382952
 30
0.0
  0
POINT
  5
289
330
283
100
AcDbEntity
  8
Defpoints
 62
     0
 48
0.6
100
AcDbPoint
 10
1305.529168451318
 20
9732.008585104708
 30
0.0
  0
ENDBLK
  5
28A
330
283
100
AcDbEntity
  8
0
100
AcDbBlockEnd
  0
BLOCK
  5
2AF
330
2A5
100
AcDbEntity
  8
0
100
AcDbBlockBegin
  2
*D26
 70
     1
 10
0.0
 20
0.0
 30
0.0
  3
*D26
  1

  0
LINE
  5
2A6
330
2A5
100
AcDbEntity
  8
2上模
 62
   104
 48
0.6
370
     9
100
AcDbLine
 10
2621.512795424721
 20
663.3420871851411
 30
0.0
 11
2621.512795424721
 21
805.4175473588546
 31
0.0
  0
LINE
  5
2A7
330
2A5
100
AcDbEntity
  8
2上模
 62
   104
 48
0.6
370
     9
100
AcDbLine
 10
3329.512795424721
 20
663.3420871851411
 30
0.0
 11
3329.512795424721
 21
805.4175473588546
 31
0.0
  0
LINE
  5
2A8
330
2A5
100
AcDbEntity
  8
2上模
 62
   104
 48
0.6
370
     9
100
AcDbLine
 10
2631.512795424721
 20
804.1675473588547
 30
0.0
 11
3319.512795424721
 21
804.1675473588547
 31
0.0
  0
SOLID
  5
2A9
330
2A5
100
AcDbEntity
  8
2上模
 62
   104
 48
0.6
100
AcDbTrace
 10
2631.512795424721
 20
805.8342140255213
 30
0.0
 11
2631.512795424721
 21
802.500880692188
 31
0.0
 12
2621.512795424721
 22
804.1675473588547
 32
0.0
 13
2621.512795424721
 23
804.1675473588547
 33
0.0
  0
SOLID
  5
2AA
330
2A5
100
AcDbEntity
  8
2上模
 62
   104
 48
0.6
100
AcDbTrace
 10
3319.512795424721
 20
805.8342140255213
 30
0.0
 11
3319.512795424721
 21
802.500880692188
 31
0.0
 12
3329.512795424721
 22
804.1675473588547
 32
0.0
 13
3329.512795424721
 23
804.1675473588547
 33
0.0
  0
MTEXT
  5
2AB
330
2A5
100
AcDbEntity
  8
2上模
 62
   200
 48
0.6
370
    25
100
AcDbMText
 10
2975.512795424721
 20
812.5811503000312
 30
0.0
 40
15.0
 41
0.0
 46
0.0
 71
     5
 72
     1
  1
\A1;708 [27 7/8”]
 73
     1
 44
1.0
  0
POINT
  5
2AC
330
2A5
100
AcDbEntity
  8
Defpoints
 62
     0
 48
0.6
100
AcDbPoint
 10
2621.512795424721
 20
661.3420871851412
 30
0.0
  0
POINT
  5
2AD
330
2A5
100
AcDbEntity
  8
Defpoints
 62
     0
 48
0.6
100
AcDbPoint
 10
3329.512795424721
 20
661.3420871851412
 30
0.0
  0
POINT
  5
2AE
330
2A5
100
AcDbEntity
  8
Defpoints
 62
     0
 48
0.6
100
AcDbPoint
 10
3329.512795424721
 20
804.1675473588547
 30
0.0
  0
ENDBLK
  5
2B0
330
2A5
100
AcDbEntity
  8
0
100
AcDbBlockEnd
  0
BLOCK
  5
2BB
330
2B1
100
AcDbEntity
  8
0
100
AcDbBlockBegin
  2
*D27
 70
     1
 10
0.0
 20
0.0
 30
0.0
  3
*D27
  1

  0
LINE
  5
2B2
330
2B1
100
AcDbEntity
  8
2上模
 62
   104
 48
0.6
370
     9
100
AcDbLine
 10
3289.427832554244
 20
721.0904141720528
 30
0.0
 11
3395.258700091183
 21
721.0904141720527
 31
0.0
  0
LINE
  5
2B3
330
2B1
100
AcDbEntity
  8
2上模
 62
   104
 48
0.6
370
     9
100
AcDbLine
 10
3289.427832554244
 20
318.0904141720529
 30
0.0
 11
3395.258700091183
 21
318.0904141720529
 31
0.0
  0
LINE
  5
2B4
330
2B1
100
AcDbEntity
  8
2上模
 62
   104
 48
0.6
370
     9
100
AcDbLine
 10
3394.008700091183
 20
711.0904141720527
 30
0.0
 11
3394.008700091183
 21
328.0904141720529
 31
0.0
  0
SOLID
  5
2B5
330
2B1
100
AcDbEntity
  8
2上模
 62
   104
 48
0.6
100
AcDbTrace
 10
3392.342033424517
 20
711.0904141720527
 30
0.0
 11
3395.675366757849
 21
711.0904141720527
 31
0.0
 12
3394.008700091183
 22
721.0904141720527
 32
0.0
 13
3394.008700091183
 23
721.0904141720527
 33
0.0
  0
SOLID
  5
2B6
330
2B1
100
AcDbEntity
  8
2上模
 62
   104
 48
0.6
100
AcDbTrace
 10
3392.342033424517
 20
328.0904141720529
 30
0.0
 11
3395.675366757849
 21
328.0904141720529
 31
0.0
 12
3394.008700091183
 22
318.0904141720529
 32
0.0
 13
3394.008700091183
 23
318.0904141720529
 33
0.0
  0
MTEXT
  5
2B7
330
2B1
100
AcDbEntity
  8
2上模
 62
   200
 48
0.6
370
    25
100
AcDbMText
 10
3385.595097150007
 20
519.5904141720529
 30
0.0
 40
15.0
 41
0.0
 46
0.0
 71
     5
 72
     1
  1
\A1;403 [15 7/8”]
 11
0.0000000000000001
 21
1.0
 31
0.0
 73
     1
 44
1.0
  0
POINT
  5
2B8
330
2B1
100
AcDbEntity
  8
Defpoints
 62
     0
 48
0.6
100
AcDbPoint
 10
3287.427832554243
 20
721.0904141720528
 30
0.0
  0
POINT
  5
2B9
330
2B1
100
AcDbEntity
  8
Defpoints
 62
     0
 48
0.6
100
AcDbPoint
 10
3287.427832554243
 20
318.0904141720529
 30
0.0
  0
POINT
  5
2BA
330
2B1
100
AcDbEntity
  8
Defpoints
 62
     0
 48
0.6
100
AcDbPoint
 10
3394.008700091183
 20
318.0904141720529
 30
0.0
  0
ENDBLK
  5
2BC
330
2B1
100
AcDbEntity
  8
0
100
AcDbBlockEnd
  0
BLOCK
  5
2C3
330
2BD
100
AcDbEntity
  8
0
100
AcDbBlockBegin
  2
*D28
 70
     1
 10
0.0
 20
0.0
 30
0.0
  3
*D28
  1

  0
LINE
  5
2C5
330
2BD
100
AcDbEntity
  8
2上模
 62
   104
 48
0.6
370
     9
100
AcDbLine
 10
2754.973604252677
 20
422.6742761522343
 30
0.0
 11
2633.304891426847
 21
331.7009689354077
 31
0.0
  0
MTEXT
  5
2C6
330
2BD
100
AcDbEntity
  8
2上模
 62
   200
 48
0.6
370
    25
100
AcDbMText
 10
2693.105344250329
 20
386.9200301503458
 30
0.0
 40
15.0
 41
0.0
 46
0.0
 71
     5
 72
     1
  1
\A1;R19 [R3/4”]
 11
0.8008782219792205
 21
0.5988272485111235
 31
0.0
 73
     1
 44
1.0
  0
SOLID
  5
2C7
330
2BD
100
AcDbEntity
  8
2上模
 62
   104
 48
0.6
100
AcDbTrace
 10
2632.306846012662
 20
333.0357659720398
 30
0.0
 11
2634.302936841033
 21
330.3661718987755
 31
0.0
 12
2625.296109207055
 22
325.7126964502963
 32
0.0
 13
2625.296109207055
 23
325.7126964502963
 33
0.0
  0
POINT
  5
2C8
330
2BD
100
AcDbEntity
  8
Defpoints
 62
     0
 48
0.6
100
AcDbPoint
 10
2625.296109207055
 20
325.7126964502963
 30
0.0
  0
POINT
  5
2C9
330
2BD
100
AcDbEntity
  8
Defpoints
 62
     0
 48
0.6
100
AcDbPoint
 10
2640.512795424721
 20
337.090414172053
 30
0.0
  0
ENDBLK
  5
2C4
330
2BD
100
AcDbEntity
  8
0
100
AcDbBlockEnd
  0
BLOCK
  5
2CC
330
2CB
100
AcDbEntity
  8
0
100
AcDbBlockBegin
  2
*D29
 70
     1
 10
0.0
 20
0.0
 30
0.0
  3
*D29
  1

  0
LINE
  5
2CD
330
2CB
100
AcDbEntity
  8
2上模
 62
   104
 48
0.6
370
     9
100
AcDbLine
 10
2496.662069232427
 20
10120.85984264597
 30
0.0
 11
2649.039592698091
 21
10120.85984264597
 31
0.0
  0
LINE
  5
2CE
330
2CB
100
AcDbEntity
  8
2上模
 62
   104
 48
0.6
370
     9
100
AcDbLine
 10
2496.662069232427
 20
9717.859842645969
 30
0.0
 11
2649.039592698091
 21
9717.859842645969
 31
0.0
  0
LINE
  5
2CF
330
2CB
100
AcDbEntity
  8
2上模
 62
   104
 48
0.6
370
     9
100
AcDbLine
 10
2647.789592698091
 20
10110.85984264597
 30
0.0
 11
2647.789592698091
 21
9727.859842645969
 31
0.0
  0
SOLID
  5
2D0
330
2CB
100
AcDbEntity
  8
2上模
 62
   104
 48
0.6
100
AcDbTrace
 10
2646.122926031424
 20
10110.85984264597
 30
0.0
 11
2649.456259364758
 21
10110.85984264597
 31
0.0
 12
2647.789592698091
 22
10120.85984264597
 32
0.0
 13
2647.789592698091
 23
10120.85984264597
 33
0.0
  0
SOLID
  5
2D1
330
2CB
100
AcDbEntity
  8
2上模
 62
   104
 48
0.6
100
AcDbTrace
 10
2646.122926031424
 20
9727.859842645969
 30
0.0
 11
2649.456259364758
 21
9727.859842645969
 31
0.0
 12
2647.789592698091
 22
9717.859842645969
 32
0.0
 13
2647.789592698091
 23
9717.859842645969
 33
0.0
  0
MTEXT
  5
2D2
330
2CB
100
AcDbEntity
  8
2上模
 62
   200
 48
0.6
370
    25
100
AcDbMText
 10
2639.375989756913
 20
9919.359842645969
 30
0.0
 40
15.0
 41
0.0
 46
0.0
 71
     5
 72
     1
  1
\A1;403 [15 7/8”]
 11
0.0000000000000001
 21
1.0
 31
0.0
 73
     1
 44
1.0
  0
POINT
  5
2D3
330
2CB
100
AcDbEntity
  8
Defpoints
 62
     0
 48
0.6
100
AcDbPoint
 10
2494.662069232426
 20
10120.85984264597
 30
0.0
  0
POINT
  5
2D4
330
2CB
100
AcDbEntity
  8
Defpoints
 62
     0
 48
0.6
100
AcDbPoint
 10
2494.662069232426
 20
9717.859842645969
 30
0.0
  0
POINT
  5
2D5
330
2CB
100
AcDbEntity
  8
Defpoints
 62
     0
 48
0.6
100
AcDbPoint
 10
2647.789592698091
 20
9717.859842645969
 30
0.0
  0
ENDBLK
  5
2D6
330
2CB
100
AcDbEntity
  8
0
100
AcDbBlockEnd
  0
BLOCK
  5
2D8
330
2D7
100
AcDbEntity
  8
0
100
AcDbBlockBegin
  2
*D30
 70
     1
 10
0.0
 20
0.0
 30
0.0
  3
*D30
  1

  0
LINE
  5
2D9
330
2D7
100
AcDbEntity
  8
2上模
 62
   104
 48
0.6
370
     9
100
AcDbLine
 10
2330.080421746428
 20
9822.44370462596
 30
0.0
 11
2208.411708920456
 21
9731.470397409326
 31
0.0
  0
MTEXT
  5
2DA
330
2D7
100
AcDbEntity
  8
2上模
 62
   200
 48
0.6
370
    25
100
AcDbMText
 10
2268.212161744025
 20
9786.689458624168
 30
0.0
 40
15.0
 41
0.0
 46
0.0
 71
     5
 72
     1
  1
\A1;R19 [R3/4”]
 11
0.8008782219801686
 21
0.5988272485098552
 31
0.0
 73
     1
 44
1.0
  0
SOLID
  5
2DB
330
2D7
100
AcDbEntity
  8
2上模
 62
   104
 48
0.6
100
AcDbTrace
 10
2207.413663506272
 20
9732.805194445958
 30
0.0
 11
2209.409754334639
 21
9730.135600372692
 31
0.0
 12
2200.402926700654
 22
9725.482124924226
 32
0.0
 13
2200.402926700654
 23
9725.482124924226
 33
0.0
  0
POINT
  5
2DC
330
2D7
100
AcDbEntity
  8
Defpoints
 62
     0
 48
0.6
100
AcDbPoint
 10
2200.402926700654
 20
9725.482124924226
 30
0.0
  0
POINT
  5
2DD
330
2D7
100
AcDbEntity
  8
Defpoints
 62
     0
 48
0.6
100
AcDbPoint
 10
2215.61961291835
 20
9736.859842645969
 30
0.0
  0
ENDBLK
  5
2DE
330
2D7
100
AcDbEntity
  8
0
100
AcDbBlockEnd
  0
BLOCK
  5
2E0
330
2DF
100
AcDbEntity
  8
0
100
AcDbBlockBegin
  2
*D31
 70
     1
 10
0.0
 20
0.0
 30
0.0
  3
*D31
  1

  0
LINE
  5
2E1
330
2DF
100
AcDbEntity
  8
2上模
 62
   104
 48
0.6
370
     9
100
AcDbLine
 10
2196.619612918349
 20
10063.11151565906
 30
0.0
 11
2196.619612918349
 21
10205.18697583277
 31
0.0
  0
LINE
  5
2E2
330
2DF
100
AcDbEntity
  8
2上模
 62
   104
 48
0.6
370
     9
100
AcDbLine
 10
2523.619612918349
 20
10063.11151565906
 30
0.0
 11
2523.619612918349
 21
10205.18697583277
 31
0.0
  0
LINE
  5
2E3
330
2DF
100
AcDbEntity
  8
2上模
 62
   104
 48
0.6
370
     9
100
AcDbLine
 10
2206.619612918349
 20
10203.93697583277
 30
0.0
 11
2513.619612918349
 21
10203.93697583277
 31
0.0
  0
SOLID
  5
2E4
330
2DF
100
AcDbEntity
  8
2上模
 62
   104
 48
0.6
100
AcDbTrace
 10
2206.619612918349
 20
10205.60364249943
 30
0.0
 11
2206.619612918349
 21
10202.2703091661
 31
0.0
 12
2196.619612918349
 22
10203.93697583277
 32
0.0
 13
2196.619612918349
 23
10203.93697583277
 33
0.0
  0
SOLID
  5
2E5
330
2DF
100
AcDbEntity
  8
2上模
 62
   104
 48
0.6
100
AcDbTrace
 10
2513.619612918349
 20
10205.60364249943
 30
0.0
 11
2513.619612918349
 21
10202.2703091661
 31
0.0
 12
2523.619612918349
 22
10203.93697583277
 32
0.0
 13
2523.619612918349
 23
10203.93697583277
 33
0.0
  0
MTEXT
  5
2E6
330
2DF
100
AcDbEntity
  8
2上模
 62
   200
 48
0.6
370
    25
100
AcDbMText
 10
2360.119612918349
 20
10212.35057877394
 30
0.0
 40
15.0
 41
0.0
 46
0.0
 71
     5
 72
     1
  1
\A1;327 [12 7/8”]
 73
     1
 44
1.0
  0
POINT
  5
2E7
330
2DF
100
AcDbEntity
  8
Defpoints
 62
     0
 48
0.6
100
AcDbPoint
 10
2196.619612918349
 20
10061.11151565906
 30
0.0
  0
POINT
  5
2E8
330
2DF
100
AcDbEntity
  8
Defpoints
 62
     0
 48
0.6
100
AcDbPoint
 10
2523.619612918349
 20
10061.11151565906
 30
0.0
  0
POINT
  5
2E9
330
2DF
100
AcDbEntity
  8
Defpoints
 62
     0
 48
0.6
100
AcDbPoint
 10
2523.619612918349
 20
10203.93697583277
 30
0.0
  0
ENDBLK
  5
2EA
330
2DF
100
AcDbEntity
  8
0
100
AcDbBlockEnd
  0
BLOCK
  5
30F
330
305
100
AcDbEntity
  8
0
100
AcDbBlockBegin
  2
*D33
 70
     1
 10
0.0
 20
0.0
 30
0.0
  3
*D33
  1

  0
LINE
  5
306
330
305
100
AcDbEntity
  8
2上模
 62
   104
 48
0.6
370
     9
100
AcDbLine
 10
3531.11699522455
 20
697.8820660838157
 30
0.0
 11
3531.11699522455
 21
839.9575262575293
 31
0.0
  0
LINE
  5
307
330
305
100
AcDbEntity
  8
2上模
 62
   104
 48
0.6
370
     9
100
AcDbLine
 10
3858.116995224551
 20
697.8820660838157
 30
0.0
 11
3858.116995224551
 21
839.9575262575293
 31
0.0
  0
LINE
  5
308
330
305
100
AcDbEntity
  8
2上模
 62
   104
 48
0.6
370
     9
100
AcDbLine
 10
3541.11699522455
 20
838.7075262575292
 30
0.0
 11
3848.11699522455
 21
838.7075262575292
 31
0.0
  0
SOLID
  5
309
330
305
100
AcDbEntity
  8
2上模
 62
   104
 48
0.6
100
AcDbTrace
 10
3541.11699522455
 20
840.3741929241958
 30
0.0
 11
3541.11699522455
 21
837.0408595908626
 31
0.0
 12
3531.11699522455
 22
838.7075262575292
 32
0.0
 13
3531.11699522455
 23
838.7075262575292
 33
0.0
  0
SOLID
  5
30A
330
305
100
AcDbEntity
  8
2上模
 62
   104
 48
0.6
100
AcDbTrace
 10
3848.11699522455
 20
840.3741929241958
 30
0.0
 11
3848.11699522455
 21
837.0408595908626
 31
0.0
 12
3858.116995224551
 22
838.7075262575292
 32
0.0
 13
3858.116995224551
 23
838.7075262575292
 33
0.0
  0
MTEXT
  5
30B
330
305
100
AcDbEntity
  8
2上模
 62
   200
 48
0.6
370
    25
100
AcDbMText
 10
3694.61699522455
 20
847.1211291987057
 30
0.0
 40
15.0
 41
0.0
 46
0.0
 71
     5
 72
     1
  1
\A1;327 [12 7/8”]
 73
     1
 44
1.0
  0
POINT
  5
30C
330
305
100
AcDbEntity
  8
Defpoints
 62
     0
 48
0.6
100
AcDbPoint
 10
3531.11699522455
 20
695.8820660838157
 30
0.0
  0
POINT
  5
30D
330
305
100
AcDbEntity
  8
Defpoints
 62
     0
 48
0.6
100
AcDbPoint
 10
3858.116995224551
 20
695.8820660838157
 30
0.0
  0
POINT
  5
30E
330
305
100
AcDbEntity
  8
Defpoints
 62
     0
 48
0.6
100
AcDbPoint
 10
3858.116995224551
 20
838.7075262575292
 30
0.0
  0
ENDBLK
  5
310
330
305
100
AcDbEntity
  8
0
100
AcDbBlockEnd
  0
BLOCK
  5
31B
330
311
100
AcDbEntity
  8
0
100
AcDbBlockBegin
  2
*D34
 70
     1
 10
0.0
 20
0.0
 30
0.0
  3
*D34
  1

  0
LINE
  5
325
330
311
100
AcDbEntity
  8
2上模
 62
   104
 48
0.6
370
     9
100
AcDbLine
 10
3831.159451538628
 20
755.6303930707274
 30
0.0
 11
3983.536975004292
 21
755.6303930707273
 31
0.0
  0
LINE
  5
326
330
311
100
AcDbEntity
  8
2上模
 62
   104
 48
0.6
370
     9
100
AcDbLine
 10
3831.159451538628
 20
352.6303930707275
 30
0.0
 11
3983.536975004292
 21
352.6303930707274
 31
0.0
  0
LINE
  5
327
330
311
100
AcDbEntity
  8
2上模
 62
   104
 48
0.6
370
     9
100
AcDbLine
 10
3982.286975004292
 20
745.6303930707273
 30
0.0
 11
3982.286975004292
 21
362.6303930707274
 31
0.0
  0
SOLID
  5
328
330
311
100
AcDbEntity
  8
2上模
 62
   104
 48
0.6
100
AcDbTrace
 10
3980.620308337626
 20
745.6303930707273
 30
0.0
 11
3983.953641670959
 21
745.6303930707273
 31
0.0
 12
3982.286975004292
 22
755.6303930707273
 32
0.0
 13
3982.286975004292
 23
755.6303930707273
 33
0.0
  0
SOLID
  5
329
330
311
100
AcDbEntity
  8
2上模
 62
   104
 48
0.6
100
AcDbTrace
 10
3980.620308337626
 20
362.6303930707274
 30
0.0
 11
3983.953641670959
 21
362.6303930707274
 31
0.0
 12
3982.286975004292
 22
352.6303930707274
 32
0.0
 13
3982.286975004292
 23
352.6303930707274
 33
0.0
  0
MTEXT
  5
32A
330
311
100
AcDbEntity
  8
2上模
 62
   200
 48
0.6
370
    25
100
AcDbMText
 10
3973.873372063116
 20
554.130393070728
 30
0.0
 40
15.0
 41
0.0
 46
0.0
 71
     5
 72
     1
  1
\A1;403 [15 7/8”]
 11
0.0000000000000001
 21
1.0
 31
0.0
 73
     1
 44
1.0
  0
POINT
  5
32B
330
311
100
AcDbEntity
  8
Defpoints
 62
     0
 48
0.6
100
AcDbPoint
 10
3829.159451538628
 20
755.6303930707274
 30
0.0
  0
POINT
  5
32C
330
311
100
AcDbEntity
  8
Defpoints
 62
     0
 48
0.6
100
AcDbPoint
 10
3829.159451538628
 20
352.6303930707275
 30
0.0
  0
POINT
  5
32D
330
311
100
AcDbEntity
  8
Defpoints
 62
     0
 48
0.6
100
AcDbPoint
 10
3982.286975004292
 20
352.6303930707274
 30
0.0
  0
ENDBLK
  5
31C
330
311
100
AcDbEntity
  8
0
100
AcDbBlockEnd
  0
BLOCK
  5
323
330
31D
100
AcDbEntity
  8
0
100
AcDbBlockBegin
  2
*D35
 70
     1
 10
0.0
 20
0.0
 30
0.0
  3
*D35
  1

  0
LINE
  5
32E
330
31D
100
AcDbEntity
  8
2上模
 62
   104
 48
0.6
370
     9
100
AcDbLine
 10
3664.577804052631
 20
457.2142550507151
 30
0.0
 11
3542.909091226655
 21
366.240947834084
 31
0.0
  0
MTEXT
  5
32F
330
31D
100
AcDbEntity
  8
2上模
 62
   200
 48
0.6
370
    25
100
AcDbMText
 10
3602.709544050225
 20
421.4600090489252
 30
0.0
 40
15.0
 41
0.0
 46
0.0
 71
     5
 72
     1
  1
\A1;R19 [R3/4”]
 11
0.8008782219801828
 21
0.5988272485098362
 31
0.0
 73
     1
 44
1.0
  0
SOLID
  5
330
330
31D
100
AcDbEntity
  8
2上模
 62
   104
 48
0.6
100
AcDbTrace
 10
3541.911045812473
 20
367.5757448707175
 30
0.0
 11
3543.907136640838
 21
364.9061507974502
 31
0.0
 12
3534.900309006854
 22
360.2526753489856
 32
0.0
 13
3534.900309006854
 23
360.2526753489856
 33
0.0
  0
POINT
  5
331
330
31D
100
AcDbEntity
  8
Defpoints
 62
     0
 48
0.6
100
AcDbPoint
 10
3534.900309006854
 20
360.2526753489856
 30
0.0
  0
POINT
  5
332
330
31D
100
AcDbEntity
  8
Defpoints
 62
     0
 48
0.6
100
AcDbPoint
 10
3550.11699522455
 20
371.6303930707275
 30
0.0
  0
ENDBLK
  5
324
330
31D
100
AcDbEntity
  8
0
100
AcDbBlockEnd
  0
BLOCK
  5
336
330
335
100
AcDbEntity
  8
0
100
AcDbBlockBegin
  2
*D36
 70
     1
 10
0.0
 20
0.0
 30
0.0
  3
*D36
  1

  0
LINE
  5
337
330
335
100
AcDbEntity
  8
2上模
 62
   104
 48
0.6
370
     9
100
AcDbLine
 10
3407.713297409819
 20
10110.65592979724
 30
0.0
 11
3407.713297409819
 21
10252.73138997095
 31
0.0
  0
LINE
  5
338
330
335
100
AcDbEntity
  8
2上模
 62
   104
 48
0.6
370
     9
100
AcDbLine
 10
4038.713297409818
 20
10110.65592979724
 30
0.0
 11
4038.713297409818
 21
10252.73138997095
 31
0.0
  0
LINE
  5
339
330
335
100
AcDbEntity
  8
2上模
 62
   104
 48
0.6
370
     9
100
AcDbLine
 10
3417.713297409818
 20
10251.48138997095
 30
0.0
 11
4028.713297409818
 21
10251.48138997095
 31
0.0
  0
SOLID
  5
33A
330
335
100
AcDbEntity
  8
2上模
 62
   104
 48
0.6
100
AcDbTrace
 10
3417.713297409818
 20
10253.14805663761
 30
0.0
 11
3417.713297409818
 21
10249.81472330428
 31
0.0
 12
3407.713297409819
 22
10251.48138997095
 32
0.0
 13
3407.713297409819
 23
10251.48138997095
 33
0.0
  0
SOLID
  5
33B
330
335
100
AcDbEntity
  8
2上模
 62
   104
 48
0.6
100
AcDbTrace
 10
4028.713297409818
 20
10253.14805663761
 30
0.0
 11
4028.713297409818
 21
10249.81472330428
 31
0.0
 12
4038.713297409818
 22
10251.48138997095
 32
0.0
 13
4038.713297409818
 23
10251.48138997095
 33
0.0
  0
MTEXT
  5
33C
330
335
100
AcDbEntity
  8
2上模
 62
   200
 48
0.6
370
    25
100
AcDbMText
 10
3723.213297409819
 20
10259.89499291213
 30
0.0
 40
15.0
 41
0.0
 46
0.0
 71
     5
 72
     1
  1
\A1;631 [24 7/8”]
 73
     1
 44
1.0
  0
POINT
  5
33D
330
335
100
AcDbEntity
  8
Defpoints
 62
     0
 48
0.6
100
AcDbPoint
 10
3407.713297409819
 20
10108.65592979724
 30
0.0
  0
POINT
  5
33E
330
335
100
AcDbEntity
  8
Defpoints
 62
     0
 48
0.6
100
AcDbPoint
 10
4038.713297409818
 20
10108.65592979724
 30
0.0
  0
POINT
  5
33F
330
335
100
AcDbEntity
  8
Defpoints
 62
     0
 48
0.6
100
AcDbPoint
 10
4038.713297409818
 20
10251.48138997095
 30
0.0
  0
ENDBLK
  5
340
330
335
100
AcDbEntity
  8
0
100
AcDbBlockEnd
  0
BLOCK
  5
342
330
341
100
AcDbEntity
  8
0
100
AcDbBlockBegin
  2
*D37
 70
     1
 10
0.0
 20
0.0
 30
0.0
  3
*D37
  1

  0
LINE
  5
343
330
341
100
AcDbEntity
  8
2上模
 62
   104
 48
0.6
370
     9
100
AcDbLine
 10
4001.281382511021
 20
10168.40425678415
 30
0.0
 11
4153.658905976684
 21
10168.40425678415
 31
0.0
  0
LINE
  5
344
330
341
100
AcDbEntity
  8
2上模
 62
   104
 48
0.6
370
     9
100
AcDbLine
 10
4001.281382511021
 20
9765.404256784151
 30
0.0
 11
4153.658905976684
 21
9765.404256784149
 31
0.0
  0
LINE
  5
345
330
341
100
AcDbEntity
  8
2上模
 62
   104
 48
0.6
370
     9
100
AcDbLine
 10
4152.408905976685
 20
10158.40425678415
 30
0.0
 11
4152.408905976685
 21
9775.404256784149
 31
0.0
  0
SOLID
  5
346
330
341
100
AcDbEntity
  8
2上模
 62
   104
 48
0.6
100
AcDbTrace
 10
4150.742239310018
 20
10158.40425678415
 30
0.0
 11
4154.075572643352
 21
10158.40425678415
 31
0.0
 12
4152.408905976685
 22
10168.40425678415
 32
0.0
 13
4152.408905976685
 23
10168.40425678415
 33
0.0
  0
SOLID
  5
347
330
341
100
AcDbEntity
  8
2上模
 62
   104
 48
0.6
100
AcDbTrace
 10
4150.742239310018
 20
9775.404256784149
 30
0.0
 11
4154.075572643352
 21
9775.404256784149
 31
0.0
 12
4152.408905976685
 22
9765.404256784149
 32
0.0
 13
4152.408905976685
 23
9765.404256784149
 33
0.0
  0
MTEXT
  5
348
330
341
100
AcDbEntity
  8
2上模
 62
   200
 48
0.6
370
    25
100
AcDbMText
 10
4143.995303035507
 20
9966.90425678415
 30
0.0
 40
15.0
 41
0.0
 46
0.0
 71
     5
 72
     1
  1
\A1;403 [15 7/8”]
 11
0.0000000000000001
 21
1.0
 31
0.0
 73
     1
 44
1.0
  0
POINT
  5
349
330
341
100
AcDbEntity
  8
Defpoints
 62
     0
 48
0.6
100
AcDbPoint
 10
3999.281382511022
 20
10168.40425678415
 30
0.0
  0
POINT
  5
34A
330
341
100
AcDbEntity
  8
Defpoints
 62
     0
 48
0.6
100
AcDbPoint
 10
3999.281382511022
 20
9765.404256784151
 30
0.0
  0
POINT
  5
34B
330
341
100
AcDbEntity
  8
Defpoints
 62
     0
 48
0.6
100
AcDbPoint
 10
4152.408905976685
 20
9765.404256784149
 30
0.0
  0
ENDBLK
  5
34C
330
341
100
AcDbEntity
  8
0
100
AcDbBlockEnd
  0
BLOCK
  5
34E
330
34D
100
AcDbEntity
  8
0
100
AcDbBlockBegin
  2
*D38
 70
     1
 10
0.0
 20
0.0
 30
0.0
  3
*D38
  1

  0
LINE
  5
34F
330
34D
100
AcDbEntity
  8
2上模
 62
   104
 48
0.6
370
     9
100
AcDbLine
 10
3541.174106237737
 20
9869.98811876437
 30
0.0
 11
3419.50539341194
 21
9779.014811547497
 31
0.0
  0
MTEXT
  5
350
330
34D
100
AcDbEntity
  8
2上模
 62
   200
 48
0.6
370
    25
100
AcDbMText
 10
3479.305846235401
 20
9834.233872762458
 30
0.0
 40
15.0
 41
0.0
 46
0.0
 71
     5
 72
     1
  1
\A1;R19 [R3/4”]
 11
0.8008782219790022
 21
0.598827248511415
 31
0.0
 73
     1
 44
1.0
  0
SOLID
  5
351
330
34D
100
AcDbEntity
  8
2上模
 62
   104
 48
0.6
100
AcDbTrace
 10
3418.507347997754
 20
9780.349608584129
 30
0.0
 11
3420.503438826126
 21
9777.680014510865
 31
0.0
 12
3411.49661119215
 22
9773.026539062383
 32
0.0
 13
3411.49661119215
 23
9773.026539062383
 33
0.0
  0
POINT
  5
352
330
34D
100
AcDbEntity
  8
Defpoints
 62
     0
 48
0.6
100
AcDbPoint
 10
3411.49661119215
 20
9773.026539062383
 30
0.0
  0
POINT
  5
353
330
34D
100
AcDbEntity
  8
Defpoints
 62
     0
 48
0.6
100
AcDbPoint
 10
3426.713297409819
 20
9784.404256784149
 30
0.0
  0
ENDBLK
  5
354
330
34D
100
AcDbEntity
  8
0
100
AcDbBlockEnd
  0
BLOCK
  5
37A
330
370
100
AcDbEntity
  8
0
100
AcDbBlockBegin
  2
*D40
 70
     1
 10
0.0
 20
0.0
 30
0.0
  3
*D40
  1

  0
LINE
  5
371
330
370
100
AcDbEntity
  8
2上模
 62
   104
 48
0.6
370
     9
100
AcDbLine
 10
4113.445612976919
 20
712.2480301203752
 30
0.0
 11
4113.445612976919
 21
854.3234902940888
 31
0.0
  0
LINE
  5
372
330
370
100
AcDbEntity
  8
2上模
 62
   104
 48
0.6
370
     9
100
AcDbLine
 10
4744.445612976918
 20
712.2480301203752
 30
0.0
 11
4744.445612976918
 21
854.3234902940888
 31
0.0
  0
LINE
  5
373
330
370
100
AcDbEntity
  8
2上模
 62
   104
 48
0.6
370
     9
100
AcDbLine
 10
4123.445612976918
 20
853.0734902940887
 30
0.0
 11
4734.445612976919
 21
853.0734902940887
 31
0.0
  0
SOLID
  5
374
330
370
100
AcDbEntity
  8
2上模
 62
   104
 48
0.6
100
AcDbTrace
 10
4123.445612976918
 20
854.7401569607554
 30
0.0
 11
4123.445612976918
 21
851.4068236274221
 31
0.0
 12
4113.445612976919
 22
853.0734902940887
 32
0.0
 13
4113.445612976919
 23
853.0734902940887
 33
0.0
  0
SOLID
  5
375
330
370
100
AcDbEntity
  8
2上模
 62
   104
 48
0.6
100
AcDbTrace
 10
4734.445612976919
 20
854.7401569607554
 30
0.0
 11
4734.445612976919
 21
851.4068236274221
 31
0.0
 12
4744.445612976918
 22
853.0734902940887
 32
0.0
 13
4744.445612976918
 23
853.0734902940887
 33
0.0
  0
MTEXT
  5
376
330
370
100
AcDbEntity
  8
2上模
 62
   200
 48
0.6
370
    25
100
AcDbMText
 10
4428.945612976918
 20
861.4870932352651
 30
0.0
 40
15.0
 41
0.0
 46
0.0
 71
     5
 72
     1
  1
\A1;631 [24 7/8”]
 73
     1
 44
1.0
  0
POINT
  5
377
330
370
100
AcDbEntity
  8
Defpoints
 62
     0
 48
0.6
100
AcDbPoint
 10
4113.445612976919
 20
710.2480301203752
 30
0.0
  0
POINT
  5
378
330
370
100
AcDbEntity
  8
Defpoints
 62
     0
 48
0.6
100
AcDbPoint
 10
4744.445612976918
 20
710.2480301203752
 30
0.0
  0
POINT
  5
379
330
370
100
AcDbEntity
  8
Defpoints
 62
     0
 48
0.6
100
AcDbPoint
 10
4744.445612976918
 20
853.0734902940887
 30
0.0
  0
ENDBLK
  5
37B
330
370
100
AcDbEntity
  8
0
100
AcDbBlockEnd
  0
BLOCK
  5
386
330
37C
100
AcDbEntity
  8
0
100
AcDbBlockBegin
  2
*D41
 70
     1
 10
0.0
 20
0.0
 30
0.0
  3
*D41
  1

  0
LINE
  5
390
330
37C
100
AcDbEntity
  8
2上模
 62
   104
 48
0.6
370
     9
100
AcDbLine
 10
4707.01369807812
 20
769.9963571072869
 30
0.0
 11
4859.391221543784
 21
769.9963571072869
 31
0.0
  0
LINE
  5
391
330
37C
100
AcDbEntity
  8
2上模
 62
   104
 48
0.6
370
     9
100
AcDbLine
 10
4707.01369807812
 20
366.9963571072869
 30
0.0
 11
4859.391221543784
 21
366.9963571072869
 31
0.0
  0
LINE
  5
392
330
37C
100
AcDbEntity
  8
2上模
 62
   104
 48
0.6
370
     9
100
AcDbLine
 10
4858.141221543784
 20
759.9963571072869
 30
0.0
 11
4858.141221543784
 21
376.9963571072869
 31
0.0
  0
SOLID
  5
393
330
37C
100
AcDbEntity
  8
2上模
 62
   104
 48
0.6
100
AcDbTrace
 10
4856.474554877117
 20
759.9963571072869
 30
0.0
 11
4859.80788821045
 21
759.9963571072869
 31
0.0
 12
4858.141221543784
 22
769.9963571072869
 32
0.0
 13
4858.141221543784
 23
769.9963571072869
 33
0.0
  0
SOLID
  5
394
330
37C
100
AcDbEntity
  8
2上模
 62
   104
 48
0.6
100
AcDbTrace
 10
4856.474554877117
 20
376.9963571072869
 30
0.0
 11
4859.80788821045
 21
376.9963571072869
 31
0.0
 12
4858.141221543784
 22
366.9963571072869
 32
0.0
 13
4858.141221543784
 23
366.9963571072869
 33
0.0
  0
MTEXT
  5
395
330
37C
100
AcDbEntity
  8
2上模
 62
   200
 48
0.6
370
    25
100
AcDbMText
 10
4849.727618602607
 20
568.4963571072876
 30
0.0
 40
15.0
 41
0.0
 46
0.0
 71
     5
 72
     1
  1
\A1;403 [15 7/8”]
 11
0.0000000000000001
 21
1.0
 31
0.0
 73
     1
 44
1.0
  0
POINT
  5
396
330
37C
100
AcDbEntity
  8
Defpoints
 62
     0
 48
0.6
100
AcDbPoint
 10
4705.013698078121
 20
769.9963571072869
 30
0.0
  0
POINT
  5
397
330
37C
100
AcDbEntity
  8
Defpoints
 62
     0
 48
0.6
100
AcDbPoint
 10
4705.013698078121
 20
366.9963571072869
 30
0.0
  0
POINT
  5
398
330
37C
100
AcDbEntity
  8
Defpoints
 62
     0
 48
0.6
100
AcDbPoint
 10
4858.141221543784
 20
366.9963571072869
 30
0.0
  0
ENDBLK
  5
387
330
37C
100
AcDbEntity
  8
0
100
AcDbBlockEnd
  0
BLOCK
  5
38E
330
388
100
AcDbEntity
  8
0
100
AcDbBlockBegin
  2
*D42
 70
     1
 10
0.0
 20
0.0
 30
0.0
  3
*D42
  1

  0
LINE
  5
399
330
388
100
AcDbEntity
  8
2上模
 62
   104
 48
0.6
370
     9
100
AcDbLine
 10
4246.906421804839
 20
471.5802190875022
 30
0.0
 11
4125.237708979039
 21
380.6069118706339
 31
0.0
  0
MTEXT
  5
39A
330
388
100
AcDbEntity
  8
2上模
 62
   200
 48
0.6
370
    25
100
AcDbMText
 10
4185.038161802504
 20
435.8259730855932
 30
0.0
 40
15.0
 41
0.0
 46
0.0
 71
     5
 72
     1
  1
\A1;R19 [R3/4”]
 11
0.8008782219790189
 21
0.5988272485113927
 31
0.0
 73
     1
 44
1.0
  0
SOLID
  5
39B
330
388
100
AcDbEntity
  8
2上模
 62
   104
 48
0.6
100
AcDbTrace
 10
4124.239663564853
 20
381.9417089072654
 30
0.0
 11
4126.235754393224
 21
379.2721148340022
 31
0.0
 12
4117.228926759248
 22
374.6186393855198
 32
0.0
 13
4117.228926759248
 23
374.6186393855198
 33
0.0
  0
POINT
  5
39C
330
388
100
AcDbEntity
  8
Defpoints
 62
     0
 48
0.6
100
AcDbPoint
 10
4117.228926759248
 20
374.6186393855198
 30
0.0
  0
POINT
  5
39D
330
388
100
AcDbEntity
  8
Defpoints
 62
     0
 48
0.6
100
AcDbPoint
 10
4132.445612976918
 20
385.9963571072869
 30
0.0
  0
ENDBLK
  5
38F
330
388
100
AcDbEntity
  8
0
100
AcDbBlockEnd
  0
BLOCK
  5
3A0
330
39F
100
AcDbEntity
  8
0
100
AcDbBlockBegin
  2
*D43
 70
     1
 10
0.0
 20
0.0
 30
0.0
  3
*D43
  1

  0
LINE
  5
3A1
330
39F
100
AcDbEntity
  8
2上模
 62
   104
 48
0.6
370
     9
100
AcDbLine
 10
3407.713297409819
 20
9477.074732330107
 30
0.0
 11
3407.713297409819
 21
9619.150192503822
 31
0.0
  0
LINE
  5
3A2
330
39F
100
AcDbEntity
  8
2上模
 62
   104
 48
0.6
370
     9
100
AcDbLine
 10
3937.713297409818
 20
9477.074732330107
 30
0.0
 11
3937.713297409818
 21
9619.150192503822
 31
0.0
  0
LINE
  5
3A3
330
39F
100
AcDbEntity
  8
2上模
 62
   104
 48
0.6
370
     9
100
AcDbLine
 10
3417.713297409818
 20
9617.900192503821
 30
0.0
 11
3927.713297409818
 21
9617.900192503821
 31
0.0
  0
SOLID
  5
3A4
330
39F
100
AcDbEntity
  8
2上模
 62
   104
 48
0.6
100
AcDbTrace
 10
3417.713297409818
 20
9619.566859170488
 30
0.0
 11
3417.713297409818
 21
9616.233525837156
 31
0.0
 12
3407.713297409819
 22
9617.900192503821
 32
0.0
 13
3407.713297409819
 23
9617.900192503821
 33
0.0
  0
SOLID
  5
3A5
330
39F
100
AcDbEntity
  8
2上模
 62
   104
 48
0.6
100
AcDbTrace
 10
3927.713297409818
 20
9619.566859170488
 30
0.0
 11
3927.713297409818
 21
9616.233525837156
 31
0.0
 12
3937.713297409818
 22
9617.900192503821
 32
0.0
 13
3937.713297409818
 23
9617.900192503821
 33
0.0
  0
MTEXT
  5
3A6
330
39F
100
AcDbEntity
  8
2上模
 62
   200
 48
0.6
370
    25
100
AcDbMText
 10
3672.713297409818
 20
9626.313795444998
 30
0.0
 40
15.0
 41
0.0
 46
0.0
 71
     5
 72
     1
  1
\A1;530 [20 7/8”]
 73
     1
 44
1.0
  0
POINT
  5
3A7
330
39F
100
AcDbEntity
  8
Defpoints
 62
     0
 48
0.6
100
AcDbPoint
 10
3407.713297409819
 20
9475.074732330106
 30
0.0
  0
POINT
  5
3A8
330
39F
100
AcDbEntity
  8
Defpoints
 62
     0
 48
0.6
100
AcDbPoint
 10
3937.713297409818
 20
9475.074732330106
 30
0.0
  0
POINT
  5
3A9
330
39F
100
AcDbEntity
  8
Defpoints
 62
     0
 48
0.6
100
AcDbPoint
 10
3937.713297409818
 20
9617.900192503821
 30
0.0
  0
ENDBLK
  5
3AA
330
39F
100
AcDbEntity
  8
0
100
AcDbBlockEnd
  0
BLOCK
  5
3AC
330
3AB
100
AcDbEntity
  8
0
100
AcDbBlockBegin
  2
*D44
 70
     1
 10
0.0
 20
0.0
 30
0.0
  3
*D44
  1

  0
LINE
  5
3AD
330
3AB
100
AcDbEntity
  8
2上模
 62
   104
 48
0.6
370
     9
100
AcDbLine
 10
3903.761354525824
 20
9534.82305931702
 30
0.0
 11
4056.138877991488
 21
9534.82305931702
 31
0.0
  0
LINE
  5
3AE
330
3AB
100
AcDbEntity
  8
2上模
 62
   104
 48
0.6
370
     9
100
AcDbLine
 10
3903.761354525824
 20
9131.823059317019
 30
0.0
 11
4056.138877991487
 21
9131.823059317019
 31
0.0
  0
LINE
  5
3AF
330
3AB
100
AcDbEntity
  8
2上模
 62
   104
 48
0.6
370
     9
100
AcDbLine
 10
4054.888877991487
 20
9524.82305931702
 30
0.0
 11
4054.888877991487
 21
9141.823059317019
 31
0.0
  0
SOLID
  5
3B0
330
3AB
100
AcDbEntity
  8
2上模
 62
   104
 48
0.6
100
AcDbTrace
 10
4053.222211324821
 20
9524.82305931702
 30
0.0
 11
4056.555544658154
 21
9524.82305931702
 31
0.0
 12
4054.888877991487
 22
9534.82305931702
 32
0.0
 13
4054.888877991487
 23
9534.82305931702
 33
0.0
  0
SOLID
  5
3B1
330
3AB
100
AcDbEntity
  8
2上模
 62
   104
 48
0.6
100
AcDbTrace
 10
4053.222211324821
 20
9141.823059317019
 30
0.0
 11
4056.555544658154
 21
9141.823059317019
 31
0.0
 12
4054.888877991487
 22
9131.823059317019
 32
0.0
 13
4054.888877991487
 23
9131.823059317019
 33
0.0
  0
MTEXT
  5
3B2
330
3AB
100
AcDbEntity
  8
2上模
 62
   200
 48
0.6
370
    25
100
AcDbMText
 10
4046.475275050309
 20
9333.32305931702
 30
0.0
 40
15.0
 41
0.0
 46
0.0
 71
     5
 72
     1
  1
\A1;403 [15 7/8”]
 11
0.0000000000000001
 21
1.0
 31
0.0
 73
     1
 44
1.0
  0
POINT
  5
3B3
330
3AB
100
AcDbEntity
  8
Defpoints
 62
     0
 48
0.6
100
AcDbPoint
 10
3901.761354525824
 20
9534.82305931702
 30
0.0
  0
POINT
  5
3B4
330
3AB
100
AcDbEntity
  8
Defpoints
 62
     0
 48
0.6
100
AcDbPoint
 10
3901.761354525824
 20
9131.823059317019
 30
0.0
  0
POINT
  5
3B5
330
3AB
100
AcDbEntity
  8
Defpoints
 62
     0
 48
0.6
100
AcDbPoint
 10
4054.888877991487
 20
9131.823059317019
 30
0.0
  0
ENDBLK
  5
3B6
330
3AB
100
AcDbEntity
  8
0
100
AcDbBlockEnd
  0
BLOCK
  5
3B8
330
3B7
100
AcDbEntity
  8
0
100
AcDbBlockBegin
  2
*D45
 70
     1
 10
0.0
 20
0.0
 30
0.0
  3
*D45
  1

  0
LINE
  5
3B9
330
3B7
100
AcDbEntity
  8
2上模
 62
   104
 48
0.6
370
     9
100
AcDbLine
 10
3541.174106237745
 20
9236.406921297232
 30
0.0
 11
3419.505393411937
 21
9145.433614080365
 31
0.0
  0
MTEXT
  5
3BA
330
3B7
100
AcDbEntity
  8
2上模
 62
   200
 48
0.6
370
    25
100
AcDbMText
 10
3479.305846235407
 20
9200.652675295321
 30
0.0
 40
15.0
 41
0.0
 46
0.0
 71
     5
 72
     1
  1
\A1;R19 [R3/4”]
 11
0.8008782219790449
 21
0.598827248511358
 31
0.0
 73
     1
 44
1.0
  0
SOLID
  5
3BB
330
3B7
100
AcDbEntity
  8
2上模
 62
   104
 48
0.6
100
AcDbTrace
 10
3418.507347997751
 20
9146.768411116998
 30
0.0
 11
3420.503438826123
 21
9144.098817043733
 31
0.0
 12
3411.496611192148
 22
9139.445341595253
 32
0.0
 13
3411.496611192148
 23
9139.445341595253
 33
0.0
  0
POINT
  5
3BC
330
3B7
100
AcDbEntity
  8
Defpoints
 62
     0
 48
0.6
100
AcDbPoint
 10
3411.496611192148
 20
9139.445341595253
 30
0.0
  0
POINT
  5
3BD
330
3B7
100
AcDbEntity
  8
Defpoints
 62
     0
 48
0.6
100
AcDbPoint
 10
3426.713297409817
 20
9150.823059317019
 30
0.0
  0
ENDBLK
  5
3BE
330
3B7
100
AcDbEntity
  8
0
100
AcDbBlockEnd
  0
BLOCK
  5
3E3
330
3D9
100
AcDbEntity
  8
0
100
AcDbBlockBegin
  2
*D47
 70
     1
 10
0.0
 20
0.0
 30
0.0
  3
*D47
  1

  0
LINE
  5
3DA
330
3D9
100
AcDbEntity
  8
2上模
 62
   104
 48
0.6
370
     9
100
AcDbLine
 10
4996.39049823363
 20
719.7883475003327
 30
0.0
 11
4996.39049823363
 21
861.8638076740463
 31
0.0
  0
LINE
  5
3DB
330
3D9
100
AcDbEntity
  8
2上模
 62
   104
 48
0.6
370
     9
100
AcDbLine
 10
5526.39049823363
 20
719.7883475003327
 30
0.0
 11
5526.39049823363
 21
861.8638076740463
 31
0.0
  0
LINE
  5
3DC
330
3D9
100
AcDbEntity
  8
2上模
 62
   104
 48
0.6
370
     9
100
AcDbLine
 10
5006.39049823363
 20
860.6138076740462
 30
0.0
 11
5516.390498233629
 21
860.6138076740462
 31
0.0
  0
SOLID
  5
3DD
330
3D9
100
AcDbEntity
  8
2上模
 62
   104
 48
0.6
100
AcDbTrace
 10
5006.39049823363
 20
862.2804743407128
 30
0.0
 11
5006.39049823363
 21
858.9471410073796
 31
0.0
 12
4996.39049823363
 22
860.6138076740462
 32
0.0
 13
4996.39049823363
 23
860.6138076740462
 33
0.0
  0
SOLID
  5
3DE
330
3D9
100
AcDbEntity
  8
2上模
 62
   104
 48
0.6
100
AcDbTrace
 10
5516.390498233629
 20
862.2804743407128
 30
0.0
 11
5516.390498233629
 21
858.9471410073796
 31
0.0
 12
5526.39049823363
 22
860.6138076740462
 32
0.0
 13
5526.39049823363
 23
860.6138076740462
 33
0.0
  0
MTEXT
  5
3DF
330
3D9
100
AcDbEntity
  8
2上模
 62
   200
 48
0.6
370
    25
100
AcDbMText
 10
5261.39049823363
 20
869.0274106152227
 30
0.0
 40
15.0
 41
0.0
 46
0.0
 71
     5
 72
     1
  1
\A1;530 [20 7/8”]
 73
     1
 44
1.0
  0
POINT
  5
3E0
330
3D9
100
AcDbEntity
  8
Defpoints
 62
     0
 48
0.6
100
AcDbPoint
 10
4996.39049823363
 20
717.7883475003327
 30
0.0
  0
POINT
  5
3E1
330
3D9
100
AcDbEntity
  8
Defpoints
 62
     0
 48
0.6
100
AcDbPoint
 10
5526.39049823363
 20
717.7883475003327
 30
0.0
  0
POINT
  5
3E2
330
3D9
100
AcDbEntity
  8
Defpoints
 62
     0
 48
0.6
100
AcDbPoint
 10
5526.39049823363
 20
860.6138076740462
 30
0.0
  0
ENDBLK
  5
3E4
330
3D9
100
AcDbEntity
  8
0
100
AcDbBlockEnd
  0
BLOCK
  5
3EF
330
3E5
100
AcDbEntity
  8
0
100
AcDbBlockBegin
  2
*D48
 70
     1
 10
0.0
 20
0.0
 30
0.0
  3
*D48
  1

  0
LINE
  5
3E6
330
3E5
100
AcDbEntity
  8
2上模
 62
   104
 48
0.6
370
     9
100
AcDbLine
 10
5492.438555349636
 20
777.5366744872444
 30
0.0
 11
5644.816078815298
 21
777.5366744872444
 31
0.0
  0
LINE
  5
3E7
330
3E5
100
AcDbEntity
  8
2上模
 62
   104
 48
0.6
370
     9
100
AcDbLine
 10
5492.438555349636
 20
374.5366744872445
 30
0.0
 11
5644.816078815298
 21
374.5366744872444
 31
0.0
  0
LINE
  5
3E8
330
3E5
100
AcDbEntity
  8
2上模
 62
   104
 48
0.6
370
     9
100
AcDbLine
 10
5643.566078815298
 20
767.5366744872444
 30
0.0
 11
5643.566078815298
 21
384.5366744872444
 31
0.0
  0
SOLID
  5
3E9
330
3E5
100
AcDbEntity
  8
2上模
 62
   104
 48
0.6
100
AcDbTrace
 10
5641.899412148632
 20
767.5366744872444
 30
0.0
 11
5645.232745481965
 21
767.5366744872444
 31
0.0
 12
5643.566078815298
 22
777.5366744872444
 32
0.0
 13
5643.566078815298
 23
777.5366744872444
 33
0.0
  0
SOLID
  5
3EA
330
3E5
100
AcDbEntity
  8
2上模
 62
   104
 48
0.6
100
AcDbTrace
 10
5641.899412148632
 20
384.5366744872444
 30
0.0
 11
5645.232745481965
 21
384.5366744872444
 31
0.0
 12
5643.566078815298
 22
374.5366744872444
 32
0.0
 13
5643.566078815298
 23
374.5366744872444
 33
0.0
  0
MTEXT
  5
3EB
330
3E5
100
AcDbEntity
  8
2上模
 62
   200
 48
0.6
370
    25
100
AcDbMText
 10
5635.152475874122
 20
576.0366744872453
 30
0.0
 40
15.0
 41
0.0
 46
0.0
 71
     5
 72
     1
  1
\A1;403 [15 7/8”]
 11
0.0000000000000001
 21
1.0
 31
0.0
 73
     1
 44
1.0
  0
POINT
  5
3EC
330
3E5
100
AcDbEntity
  8
Defpoints
 62
     0
 48
0.6
100
AcDbPoint
 10
5490.438555349636
 20
777.5366744872444
 30
0.0
  0
POINT
  5
3ED
330
3E5
100
AcDbEntity
  8
Defpoints
 62
     0
 48
0.6
100
AcDbPoint
 10
5490.438555349636
 20
374.5366744872445
 30
0.0
  0
POINT
  5
3EE
330
3E5
100
AcDbEntity
  8
Defpoints
 62
     0
 48
0.6
100
AcDbPoint
 10
5643.566078815298
 20
374.5366744872444
 30
0.0
  0
ENDBLK
  5
3F0
330
3E5
100
AcDbEntity
  8
0
100
AcDbBlockEnd
  0
BLOCK
  5
3F7
330
3F1
100
AcDbEntity
  8
0
100
AcDbBlockBegin
  2
*D49
 70
     1
 10
0.0
 20
0.0
 30
0.0
  3
*D49
  1

  0
LINE
  5
3F9
330
3F1
100
AcDbEntity
  8
2上模
 62
   104
 48
0.6
370
     9
100
AcDbLine
 10
5129.851307061551
 20
479.1205364674606
 30
0.0
 11
5008.18259423575
 21
388.1472292505914
 31
0.0
  0
MTEXT
  5
3FA
330
3F1
100
AcDbEntity
  8
2上模
 62
   200
 48
0.6
370
    25
100
AcDbMText
 10
5067.983047059215
 20
443.3662904655512
 30
0.0
 40
15.0
 41
0.0
 46
0.0
 71
     5
 72
     1
  1
\A1;R19 [R3/4”]
 11
0.8008782219790189
 21
0.5988272485113927
 31
0.0
 73
     1
 44
1.0
  0
SOLID
  5
3FB
330
3F1
100
AcDbEntity
  8
2上模
 62
   104
 48
0.6
100
AcDbTrace
 10
5007.184548821564
 20
389.4820262872227
 30
0.0
 11
5009.180639649935
 21
386.8124322139597
 31
0.0
 12
5000.173812015958
 22
382.1589567654773
 32
0.0
 13
5000.173812015958
 23
382.1589567654773
 33
0.0
  0
POINT
  5
3FC
330
3F1
100
AcDbEntity
  8
Defpoints
 62
     0
 48
0.6
100
AcDbPoint
 10
5000.173812015958
 20
382.1589567654773
 30
0.0
  0
POINT
  5
3FD
330
3F1
100
AcDbEntity
  8
Defpoints
 62
     0
 48
0.6
100
AcDbPoint
 10
5015.390498233629
 20
393.536674487244
 30
0.0
  0
ENDBLK
  5
3F8
330
3F1
100
AcDbEntity
  8
0
100
AcDbBlockEnd
  0
BLOCK
  5
401
330
400
100
AcDbEntity
  8
0
100
AcDbBlockBegin
  2
*D50
 70
     1
 10
0.0
 20
0.0
 30
0.0
  3
*D50
  1

  0
LINE
  5
402
330
400
100
AcDbEntity
  8
2上模
 62
   104
 48
0.6
370
     9
100
AcDbLine
 10
6463.581114553844
 20
10550.01270296685
 30
0.0
 11
6463.581114553844
 21
10652.82914795419
 31
0.0
  0
LINE
  5
403
330
400
100
AcDbEntity
  8
2上模
 62
   104
 48
0.6
370
     9
100
AcDbLine
 10
7195.127213146355
 20
10541.61143871248
 30
0.0
 11
7195.127213146355
 21
10652.82914795419
 31
0.0
  0
LINE
  5
404
330
400
100
AcDbEntity
  8
2上模
 62
   104
 48
0.6
370
     9
100
AcDbLine
 10
6473.581114553843
 20
10651.57914795419
 30
0.0
 11
7185.127213146356
 21
10651.57914795419
 31
0.0
  0
SOLID
  5
405
330
400
100
AcDbEntity
  8
2上模
 62
   104
 48
0.6
100
AcDbTrace
 10
6473.581114553843
 20
10653.24581462085
 30
0.0
 11
6473.581114553843
 21
10649.91248128752
 31
0.0
 12
6463.581114553844
 22
10651.57914795419
 32
0.0
 13
6463.581114553844
 23
10651.57914795419
 33
0.0
  0
SOLID
  5
406
330
400
100
AcDbEntity
  8
2上模
 62
   104
 48
0.6
100
AcDbTrace
 10
7185.127213146356
 20
10653.24581462085
 30
0.0
 11
7185.127213146356
 21
10649.91248128752
 31
0.0
 12
7195.127213146355
 22
10651.57914795419
 32
0.0
 13
7195.127213146355
 23
10651.57914795419
 33
0.0
  0
MTEXT
  5
407
330
400
100
AcDbEntity
  8
2上模
 62
   200
 48
0.6
370
    25
100
AcDbMText
 10
6829.3541638501
 20
10659.99275089536
 30
0.0
 40
15.0
 41
0.0
 46
0.0
 71
     5
 72
     1
  1
\A1;731.55 [28 3/4”]
 73
     1
 44
1.0
  0
POINT
  5
408
330
400
100
AcDbEntity
  8
Defpoints
 62
     0
 48
0.6
100
AcDbPoint
 10
6463.581114553844
 20
10548.01270296685
 30
0.0
  0
POINT
  5
409
330
400
100
AcDbEntity
  8
Defpoints
 62
     0
 48
0.6
100
AcDbPoint
 10
7195.127213146355
 20
10539.61143871248
 30
0.0
  0
POINT
  5
40A
330
400
100
AcDbEntity
  8
Defpoints
 62
     0
 48
0.6
100
AcDbPoint
 10
7195.127213146355
 20
10651.57914795419
 30
0.0
  0
ENDBLK
  5
40B
330
400
100
AcDbEntity
  8
0
100
AcDbBlockEnd
  0
BLOCK
  5
40D
330
40C
100
AcDbEntity
  8
0
100
AcDbBlockBegin
  2
*D51
 70
     1
 10
0.0
 20
0.0
 30
0.0
  3
*D51
  1

  0
LINE
  5
40E
330
40C
100
AcDbEntity
  8
2上模
 62
   104
 48
0.6
370
     9
100
AcDbLine
 10
6485.127213146355
 20
10564.61143871248
 30
0.0
 11
6363.623542044524
 21
10564.61143871248
 31
0.0
  0
LINE
  5
40F
330
40C
100
AcDbEntity
  8
2上模
 62
   104
 48
0.6
370
     9
100
AcDbLine
 10
6485.127213146371
 20
10161.61143871249
 30
0.0
 11
6363.623542044523
 21
10161.61143871249
 31
0.0
  0
LINE
  5
410
330
40C
100
AcDbEntity
  8
2上模
 62
   104
 48
0.6
370
     9
100
AcDbLine
 10
6364.873542044524
 20
10554.61143871248
 30
0.0
 11
6364.873542044523
 21
10171.61143871249
 31
0.0
  0
SOLID
  5
411
330
40C
100
AcDbEntity
  8
2上模
 62
   104
 48
0.6
100
AcDbTrace
 10
6363.206875377857
 20
10554.61143871248
 30
0.0
 11
6366.540208711191
 21
10554.61143871248
 31
0.0
 12
6364.873542044524
 22
10564.61143871248
 32
0.0
 13
6364.873542044524
 23
10564.61143871248
 33
0.0
  0
SOLID
  5
412
330
40C
100
AcDbEntity
  8
2上模
 62
   104
 48
0.6
100
AcDbTrace
 10
6363.206875377856
 20
10171.61143871249
 30
0.0
 11
6366.54020871119
 21
10171.61143871249
 31
0.0
 12
6364.873542044523
 22
10161.61143871249
 32
0.0
 13
6364.873542044523
 23
10161.61143871249
 33
0.0
  0
MTEXT
  5
413
330
40C
100
AcDbEntity
  8
2上模
 62
   200
 48
0.6
370
    25
100
AcDbMText
 10
6356.459939103345
 20
10363.11143871248
 30
0.0
 40
15.0
 41
0.0
 46
0.0
 71
     5
 72
     1
  1
\A1;403 [15 7/8”]
 11
0.0000000000000001
 21
1.0
 31
0.0
 73
     1
 44
1.0
  0
POINT
  5
414
330
40C
100
AcDbEntity
  8
Defpoints
 62
     0
 48
0.6
100
AcDbPoint
 10
6487.127213146355
 20
10564.61143871248
 30
0.0
  0
POINT
  5
415
330
40C
100
AcDbEntity
  8
Defpoints
 62
     0
 48
0.6
100
AcDbPoint
 10
6487.127213146372
 20
10161.61143871249
 30
0.0
  0
POINT
  5
416
330
40C
100
AcDbEntity
  8
Defpoints
 62
     0
 48
0.6
100
AcDbPoint
 10
6364.873542044523
 20
10161.61143871249
 30
0.0
  0
ENDBLK
  5
417
330
40C
100
AcDbEntity
  8
0
100
AcDbBlockEnd
  0
BLOCK
  5
419
330
418
100
AcDbEntity
  8
0
100
AcDbBlockBegin
  2
*D52
 70
     1
 10
0.0
 20
0.0
 30
0.0
  3
*D52
  1

  0
LINE
  5
41A
330
418
100
AcDbEntity
  8
2上模
 62
   104
 48
0.6
370
     9
100
AcDbLine
 10
6557.353310811381
 20
10267.23397231923
 30
0.0
 11
6477.2749857042
 21
10175.30066444952
 31
0.0
  0
MTEXT
  5
41B
330
418
100
AcDbEntity
  8
2上模
 62
   200
 48
0.6
370
    25
100
AcDbMText
 10
6514.253933164788
 20
10230.56375845767
 30
0.0
 40
15.0
 41
0.0
 46
0.0
 71
     5
 72
     1
  1
\A1;R25 [R1”]
 11
0.656815162811442
 21
0.7540516175309083
 31
0.0
 73
     1
 44
1.0
  0
SOLID
  5
41C
330
418
100
AcDbEntity
  8
2上模
 62
   104
 48
0.6
100
AcDbTrace
 10
6476.018233008315
 20
10176.39535638754
 30
0.0
 11
6478.531738400085
 21
10174.2059725115
 31
0.0
 12
6470.706834076086
 22
10167.76014827421
 32
0.0
 13
6470.706834076086
 23
10167.76014827421
 33
0.0
  0
POINT
  5
41D
330
418
100
AcDbEntity
  8
Defpoints
 62
     0
 48
0.6
100
AcDbPoint
 10
6470.706834076086
 20
10167.76014827421
 30
0.0
  0
POINT
  5
41E
330
418
100
AcDbEntity
  8
Defpoints
 62
     0
 48
0.6
100
AcDbPoint
 10
6487.127213146369
 20
10186.61143871248
 30
0.0
  0
ENDBLK
  5
41F
330
418
100
AcDbEntity
  8
0
100
AcDbBlockEnd
  0
BLOCK
  5
449
330
43F
100
AcDbEntity
  8
0
100
AcDbBlockBegin
  2
*D54
 70
     1
 10
0.0
 20
0.0
 30
0.0
  3
*D54
  1

  0
LINE
  5
440
330
43F
100
AcDbEntity
  8
2上模
 62
   104
 48
0.6
370
     9
100
AcDbLine
 10
5858.146119609425
 20
789.3446603581715
 30
0.0
 11
5858.146119609425
 21
892.1611053455118
 31
0.0
  0
LINE
  5
441
330
43F
100
AcDbEntity
  8
2上模
 62
   104
 48
0.6
370
     9
100
AcDbLine
 10
6589.692218201936
 20
780.9433961038039
 30
0.0
 11
6589.692218201936
 21
892.1611053455118
 31
0.0
  0
LINE
  5
442
330
43F
100
AcDbEntity
  8
2上模
 62
   104
 48
0.6
370
     9
100
AcDbLine
 10
5868.146119609424
 20
890.9111053455117
 30
0.0
 11
6579.692218201936
 21
890.9111053455117
 31
0.0
  0
SOLID
  5
443
330
43F
100
AcDbEntity
  8
2上模
 62
   104
 48
0.6
100
AcDbTrace
 10
5868.146119609424
 20
892.5777720121784
 30
0.0
 11
5868.146119609424
 21
889.2444386788451
 31
0.0
 12
5858.146119609425
 22
890.9111053455117
 32
0.0
 13
5858.146119609425
 23
890.9111053455117
 33
0.0
  0
SOLID
  5
444
330
43F
100
AcDbEntity
  8
2上模
 62
   104
 48
0.6
100
AcDbTrace
 10
6579.692218201936
 20
892.5777720121784
 30
0.0
 11
6579.692218201936
 21
889.2444386788451
 31
0.0
 12
6589.692218201936
 22
890.9111053455117
 32
0.0
 13
6589.692218201936
 23
890.9111053455117
 33
0.0
  0
MTEXT
  5
445
330
43F
100
AcDbEntity
  8
2上模
 62
   200
 48
0.6
370
    25
100
AcDbMText
 10
6223.91916890568
 20
899.3247082866881
 30
0.0
 40
15.0
 41
0.0
 46
0.0
 71
     5
 72
     1
  1
\A1;731.55 [28 3/4”]
 73
     1
 44
1.0
  0
POINT
  5
446
330
43F
100
AcDbEntity
  8
Defpoints
 62
     0
 48
0.6
100
AcDbPoint
 10
5858.146119609425
 20
787.3446603581714
 30
0.0
  0
POINT
  5
447
330
43F
100
AcDbEntity
  8
Defpoints
 62
     0
 48
0.6
100
AcDbPoint
 10
6589.692218201936
 20
778.9433961038039
 30
0.0
  0
POINT
  5
448
330
43F
100
AcDbEntity
  8
Defpoints
 62
     0
 48
0.6
100
AcDbPoint
 10
6589.692218201936
 20
890.9111053455117
 30
0.0
  0
ENDBLK
  5
44A
330
43F
100
AcDbEntity
  8
0
100
AcDbBlockEnd
  0
BLOCK
  5
455
330
44B
100
AcDbEntity
  8
0
100
AcDbBlockBegin
  2
*D55
 70
     1
 10
0.0
 20
0.0
 30
0.0
  3
*D55
  1

  0
LINE
  5
44C
330
44B
100
AcDbEntity
  8
2上模
 62
   104
 48
0.6
370
     9
100
AcDbLine
 10
5879.692218201936
 20
803.9433961038039
 30
0.0
 11
5758.188547100104
 21
803.9433961038039
 31
0.0
  0
LINE
  5
44D
330
44B
100
AcDbEntity
  8
2上模
 62
   104
 48
0.6
370
     9
100
AcDbLine
 10
5879.692218201952
 20
400.9433961038111
 30
0.0
 11
5758.188547100104
 21
400.9433961038112
 31
0.0
  0
LINE
  5
44E
330
44B
100
AcDbEntity
  8
2上模
 62
   104
 48
0.6
370
     9
100
AcDbLine
 10
5759.438547100103
 20
793.9433961038039
 30
0.0
 11
5759.438547100103
 21
410.9433961038112
 31
0.0
  0
SOLID
  5
44F
330
44B
100
AcDbEntity
  8
2上模
 62
   104
 48
0.6
100
AcDbTrace
 10
5757.771880433437
 20
793.9433961038039
 30
0.0
 11
5761.105213766771
 21
793.9433961038039
 31
0.0
 12
5759.438547100103
 22
803.9433961038039
 32
0.0
 13
5759.438547100103
 23
803.9433961038039
 33
0.0
  0
SOLID
  5
450
330
44B
100
AcDbEntity
  8
2上模
 62
   104
 48
0.6
100
AcDbTrace
 10
5757.771880433437
 20
410.9433961038112
 30
0.0
 11
5761.105213766771
 21
410.9433961038112
 31
0.0
 12
5759.438547100103
 22
400.9433961038112
 32
0.0
 13
5759.438547100103
 23
400.9433961038112
 33
0.0
  0
MTEXT
  5
451
330
44B
100
AcDbEntity
  8
2上模
 62
   200
 48
0.6
370
    25
100
AcDbMText
 10
5751.024944158927
 20
602.4433961038084
 30
0.0
 40
15.0
 41
0.0
 46
0.0
 71
     5
 72
     1
  1
\A1;403 [15 7/8”]
 11
0.0000000000000001
 21
1.0
 31
0.0
 73
     1
 44
1.0
  0
POINT
  5
452
330
44B
100
AcDbEntity
  8
Defpoints
 62
     0
 48
0.6
100
AcDbPoint
 10
5881.692218201936
 20
803.9433961038039
 30
0.0
  0
POINT
  5
453
330
44B
100
AcDbEntity
  8
Defpoints
 62
     0
 48
0.6
100
AcDbPoint
 10
5881.692218201952
 20
400.9433961038111
 30
0.0
  0
POINT
  5
454
330
44B
100
AcDbEntity
  8
Defpoints
 62
     0
 48
0.6
100
AcDbPoint
 10
5759.438547100103
 20
400.9433961038112
 30
0.0
  0
ENDBLK
  5
456
330
44B
100
AcDbEntity
  8
0
100
AcDbBlockEnd
  0
BLOCK
  5
45D
330
457
100
AcDbEntity
  8
0
100
AcDbBlockBegin
  2
*D56
 70
     1
 10
0.0
 20
0.0
 30
0.0
  3
*D56
  1

  0
LINE
  5
45F
330
457
100
AcDbEntity
  8
2上模
 62
   104
 48
0.6
370
     9
100
AcDbLine
 10
5951.918315866961
 20
506.5659297105581
 30
0.0
 11
5871.839990759781
 21
414.6326218408489
 31
0.0
  0
MTEXT
  5
460
330
457
100
AcDbEntity
  8
2上模
 62
   200
 48
0.6
370
    25
100
AcDbMText
 10
5908.81893822037
 20
469.8957158489979
 30
0.0
 40
15.0
 41
0.0
 46
0.0
 71
     5
 72
     1
  1
\A1;R25 [R1”]
 11
0.656815162811422
 21
0.7540516175309257
 31
0.0
 73
     1
 44
1.0
  0
SOLID
  5
461
330
457
100
AcDbEntity
  8
2上模
 62
   104
 48
0.6
100
AcDbTrace
 10
5870.583238063896
 20
415.7273137788679
 30
0.0
 11
5873.096743455666
 21
413.5379299028295
 31
0.0
 12
5865.271839131667
 22
407.0921056655397
 32
0.0
 13
5865.271839131667
 23
407.0921056655397
 33
0.0
  0
POINT
  5
462
330
457
100
AcDbEntity
  8
Defpoints
 62
     0
 48
0.6
100
AcDbPoint
 10
5865.271839131667
 20
407.0921056655397
 30
0.0
  0
POINT
  5
463
330
457
100
AcDbEntity
  8
Defpoints
 62
     0
 48
0.6
100
AcDbPoint
 10
5881.692218201951
 20
425.9433961038117
 30
0.0
  0
ENDBLK
  5
45E
330
457
100
AcDbEntity
  8
0
100
AcDbBlockEnd
  0
BLOCK
  5
466
330
465
100
AcDbEntity
  8
0
100
AcDbBlockBegin
  2
*D57
 70
     1
 10
0.0
 20
0.0
 30
0.0
  3
*D57
  1

  0
LINE
  5
467
330
465
100
AcDbEntity
  8
2上模
 62
   104
 48
0.6
370
     9
100
AcDbLine
 10
7573.695419854527
 20
10532.05603113051
 30
0.0
 11
7573.695419854527
 21
10652.82914795419
 31
0.0
  0
LINE
  5
468
330
465
100
AcDbEntity
  8
2上模
 62
   104
 48
0.6
370
     9
100
AcDbLine
 10
8103.695419854529
 20
10541.61143871248
 30
0.0
 11
8103.695419854529
 21
10652.82914795419
 31
0.0
  0
LINE
  5
469
330
465
100
AcDbEntity
  8
2上模
 62
   104
 48
0.6
370
     9
100
AcDbLine
 10
7583.695419854528
 20
10651.57914795419
 30
0.0
 11
8093.695419854528
 21
10651.57914795419
 31
0.0
  0
SOLID
  5
46A
330
465
100
AcDbEntity
  8
2上模
 62
   104
 48
0.6
100
AcDbTrace
 10
7583.695419854528
 20
10653.24581462085
 30
0.0
 11
7583.695419854528
 21
10649.91248128752
 31
0.0
 12
7573.695419854527
 22
10651.57914795419
 32
0.0
 13
7573.695419854527
 23
10651.57914795419
 33
0.0
  0
SOLID
  5
46B
330
465
100
AcDbEntity
  8
2上模
 62
   104
 48
0.6
100
AcDbTrace
 10
8093.695419854528
 20
10653.24581462085
 30
0.0
 11
8093.695419854528
 21
10649.91248128752
 31
0.0
 12
8103.695419854529
 22
10651.57914795419
 32
0.0
 13
8103.695419854529
 23
10651.57914795419
 33
0.0
  0
MTEXT
  5
46C
330
465
100
AcDbEntity
  8
2上模
 62
   200
 48
0.6
370
    25
100
AcDbMText
 10
7838.695419854528
 20
10659.99275089536
 30
0.0
 40
15.0
 41
0.0
 46
0.0
 71
     5
 72
     1
  1
\A1;530 [20 7/8”]
 73
     1
 44
1.0
  0
POINT
  5
46D
330
465
100
AcDbEntity
  8
Defpoints
 62
     0
 48
0.6
100
AcDbPoint
 10
7573.695419854527
 20
10530.05603113051
 30
0.0
  0
POINT
  5
46E
330
465
100
AcDbEntity
  8
Defpoints
 62
     0
 48
0.6
100
AcDbPoint
 10
8103.695419854529
 20
10539.61143871248
 30
0.0
  0
POINT
  5
46F
330
465
100
AcDbEntity
  8
Defpoints
 62
     0
 48
0.6
100
AcDbPoint
 10
8103.695419854529
 20
10651.57914795419
 30
0.0
  0
ENDBLK
  5
470
330
465
100
AcDbEntity
  8
0
100
AcDbBlockEnd
  0
BLOCK
  5
472
330
471
100
AcDbEntity
  8
0
100
AcDbBlockBegin
  2
*D58
 70
     1
 10
0.0
 20
0.0
 30
0.0
  3
*D58
  1

  0
LINE
  5
473
330
471
100
AcDbEntity
  8
2上模
 62
   104
 48
0.6
370
     9
100
AcDbLine
 10
7596.695419854528
 20
10564.61143871248
 30
0.0
 11
7475.191748752696
 21
10564.61143871248
 31
0.0
  0
LINE
  5
474
330
471
100
AcDbEntity
  8
2上模
 62
   104
 48
0.6
370
     9
100
AcDbLine
 10
7596.695419854545
 20
10161.61143871249
 30
0.0
 11
7475.191748752695
 21
10161.61143871249
 31
0.0
  0
LINE
  5
475
330
471
100
AcDbEntity
  8
2上模
 62
   104
 48
0.6
370
     9
100
AcDbLine
 10
7476.441748752697
 20
10554.61143871248
 30
0.0
 11
7476.441748752695
 21
10171.61143871249
 31
0.0
  0
SOLID
  5
476
330
471
100
AcDbEntity
  8
2上模
 62
   104
 48
0.6
100
AcDbTrace
 10
7474.775082086029
 20
10554.61143871248
 30
0.0
 11
7478.108415419363
 21
10554.61143871248
 31
0.0
 12
7476.441748752697
 22
10564.61143871248
 32
0.0
 13
7476.441748752697
 23
10564.61143871248
 33
0.0
  0
SOLID
  5
477
330
471
100
AcDbEntity
  8
2上模
 62
   104
 48
0.6
100
AcDbTrace
 10
7474.775082086029
 20
10171.61143871249
 30
0.0
 11
7478.108415419362
 21
10171.61143871249
 31
0.0
 12
7476.441748752695
 22
10161.61143871249
 32
0.0
 13
7476.441748752695
 23
10161.61143871249
 33
0.0
  0
MTEXT
  5
478
330
471
100
AcDbEntity
  8
2上模
 62
   200
 48
0.6
370
    25
100
AcDbMText
 10
7468.028145811517
 20
10363.11143871248
 30
0.0
 40
15.0
 41
0.0
 46
0.0
 71
     5
 72
     1
  1
\A1;403 [15 7/8”]
 11
0.0000000000000001
 21
1.0
 31
0.0
 73
     1
 44
1.0
  0
POINT
  5
479
330
471
100
AcDbEntity
  8
Defpoints
 62
     0
 48
0.6
100
AcDbPoint
 10
7598.695419854528
 20
10564.61143871248
 30
0.0
  0
POINT
  5
47A
330
471
100
AcDbEntity
  8
Defpoints
 62
     0
 48
0.6
100
AcDbPoint
 10
7598.695419854545
 20
10161.61143871249
 30
0.0
  0
POINT
  5
47B
330
471
100
AcDbEntity
  8
Defpoints
 62
     0
 48
0.6
100
AcDbPoint
 10
7476.441748752695
 20
10161.61143871249
 30
0.0
  0
ENDBLK
  5
47C
330
471
100
AcDbEntity
  8
0
100
AcDbBlockEnd
  0
BLOCK
  5
47E
330
47D
100
AcDbEntity
  8
0
100
AcDbBlockBegin
  2
*D59
 70
     1
 10
0.0
 20
0.0
 30
0.0
  3
*D59
  1

  0
LINE
  5
47F
330
47D
100
AcDbEntity
  8
2上模
 62
   104
 48
0.6
370
     9
100
AcDbLine
 10
7668.921517519556
 20
10267.23397231923
 30
0.0
 11
7588.843192412372
 21
10175.30066444952
 31
0.0
  0
MTEXT
  5
480
330
47D
100
AcDbEntity
  8
2上模
 62
   200
 48
0.6
370
    25
100
AcDbMText
 10
7625.822139872965
 20
10230.56375845767
 30
0.0
 40
15.0
 41
0.0
 46
0.0
 71
     5
 72
     1
  1
\A1;R25 [R1”]
 11
0.6568151628114483
 21
0.7540516175309027
 31
0.0
 73
     1
 44
1.0
  0
SOLID
  5
481
330
47D
100
AcDbEntity
  8
2上模
 62
   104
 48
0.6
100
AcDbTrace
 10
7587.586439716486
 20
10176.39535638754
 30
0.0
 11
7590.099945108256
 21
10174.2059725115
 31
0.0
 12
7582.275040784259
 22
10167.76014827421
 32
0.0
 13
7582.275040784259
 23
10167.76014827421
 33
0.0
  0
POINT
  5
482
330
47D
100
AcDbEntity
  8
Defpoints
 62
     0
 48
0.6
100
AcDbPoint
 10
7582.275040784259
 20
10167.76014827421
 30
0.0
  0
POINT
  5
483
330
47D
100
AcDbEntity
  8
Defpoints
 62
     0
 48
0.6
100
AcDbPoint
 10
7598.695419854543
 20
10186.61143871249
 30
0.0
  0
ENDBLK
  5
484
330
47D
100
AcDbEntity
  8
0
100
AcDbBlockEnd
  0
BLOCK
  5
4A9
330
49F
100
AcDbEntity
  8
0
100
AcDbBlockBegin
  2
*D61
 70
     1
 10
0.0
 20
0.0
 30
0.0
  3
*D61
  1

  0
LINE
  5
4A0
330
49F
100
AcDbEntity
  8
2上模
 62
   104
 48
0.6
370
     9
100
AcDbLine
 10
6917.622412341845
 20
790.9357672576807
 30
0.0
 11
6917.622412341845
 21
911.7088840813613
 31
0.0
  0
LINE
  5
4A1
330
49F
100
AcDbEntity
  8
2上模
 62
   104
 48
0.6
370
     9
100
AcDbLine
 10
7447.622412341845
 20
800.4911748396533
 30
0.0
 11
7447.622412341845
 21
911.7088840813613
 31
0.0
  0
LINE
  5
4A2
330
49F
100
AcDbEntity
  8
2上模
 62
   104
 48
0.6
370
     9
100
AcDbLine
 10
6927.622412341846
 20
910.4588840813612
 30
0.0
 11
7437.622412341845
 21
910.4588840813612
 31
0.0
  0
SOLID
  5
4A3
330
49F
100
AcDbEntity
  8
2上模
 62
   104
 48
0.6
100
AcDbTrace
 10
6927.622412341846
 20
912.1255507480279
 30
0.0
 11
6927.622412341846
 21
908.7922174146946
 31
0.0
 12
6917.622412341845
 22
910.4588840813612
 32
0.0
 13
6917.622412341845
 23
910.4588840813612
 33
0.0
  0
SOLID
  5
4A4
330
49F
100
AcDbEntity
  8
2上模
 62
   104
 48
0.6
100
AcDbTrace
 10
7437.622412341845
 20
912.1255507480279
 30
0.0
 11
7437.622412341845
 21
908.7922174146946
 31
0.0
 12
7447.622412341845
 22
910.4588840813612
 32
0.0
 13
7447.622412341845
 23
910.4588840813612
 33
0.0
  0
MTEXT
  5
4A5
330
49F
100
AcDbEntity
  8
2上模
 62
   200
 48
0.6
370
    25
100
AcDbMText
 10
7182.622412341846
 20
918.8724870225376
 30
0.0
 40
15.0
 41
0.0
 46
0.0
 71
     5
 72
     1
  1
\A1;530 [20 7/8”]
 73
     1
 44
1.0
  0
POINT
  5
4A6
330
49F
100
AcDbEntity
  8
Defpoints
 62
     0
 48
0.6
100
AcDbPoint
 10
6917.622412341845
 20
788.9357672576807
 30
0.0
  0
POINT
  5
4A7
330
49F
100
AcDbEntity
  8
Defpoints
 62
     0
 48
0.6
100
AcDbPoint
 10
7447.622412341845
 20
798.4911748396535
 30
0.0
  0
POINT
  5
4A8
330
49F
100
AcDbEntity
  8
Defpoints
 62
     0
 48
0.6
100
AcDbPoint
 10
7447.622412341845
 20
910.4588840813612
 30
0.0
  0
ENDBLK
  5
4AA
330
49F
100
AcDbEntity
  8
0
100
AcDbBlockEnd
  0
BLOCK
  5
4B5
330
4AB
100
AcDbEntity
  8
0
100
AcDbBlockBegin
  2
*D62
 70
     1
 10
0.0
 20
0.0
 30
0.0
  3
*D62
  1

  0
LINE
  5
4AC
330
4AB
100
AcDbEntity
  8
2上模
 62
   104
 48
0.6
370
     9
100
AcDbLine
 10
6940.622412341845
 20
823.4911748396534
 30
0.0
 11
6819.118741240012
 21
823.4911748396536
 31
0.0
  0
LINE
  5
4AD
330
4AB
100
AcDbEntity
  8
2上模
 62
   104
 48
0.6
370
     9
100
AcDbLine
 10
6940.622412341861
 20
420.4911748396607
 30
0.0
 11
6819.118741240012
 21
420.4911748396607
 31
0.0
  0
LINE
  5
4AE
330
4AB
100
AcDbEntity
  8
2上模
 62
   104
 48
0.6
370
     9
100
AcDbLine
 10
6820.368741240013
 20
813.4911748396536
 30
0.0
 11
6820.368741240013
 21
430.4911748396607
 31
0.0
  0
SOLID
  5
4AF
330
4AB
100
AcDbEntity
  8
2上模
 62
   104
 48
0.6
100
AcDbTrace
 10
6818.702074573344
 20
813.4911748396536
 30
0.0
 11
6822.035407906679
 21
813.4911748396536
 31
0.0
 12
6820.368741240013
 22
823.4911748396536
 32
0.0
 13
6820.368741240013
 23
823.4911748396536
 33
0.0
  0
SOLID
  5
4B0
330
4AB
100
AcDbEntity
  8
2上模
 62
   104
 48
0.6
100
AcDbTrace
 10
6818.702074573344
 20
430.4911748396607
 30
0.0
 11
6822.035407906679
 21
430.4911748396607
 31
0.0
 12
6820.368741240013
 22
420.4911748396607
 32
0.0
 13
6820.368741240013
 23
420.4911748396607
 33
0.0
  0
MTEXT
  5
4B1
330
4AB
100
AcDbEntity
  8
2上模
 62
   200
 48
0.6
370
    25
100
AcDbMText
 10
6811.955138298836
 20
621.9911748396582
 30
0.0
 40
15.0
 41
0.0
 46
0.0
 71
     5
 72
     1
  1
\A1;403 [15 7/8”]
 11
0.0000000000000001
 21
1.0
 31
0.0
 73
     1
 44
1.0
  0
POINT
  5
4B2
330
4AB
100
AcDbEntity
  8
Defpoints
 62
     0
 48
0.6
100
AcDbPoint
 10
6942.622412341845
 20
823.4911748396534
 30
0.0
  0
POINT
  5
4B3
330
4AB
100
AcDbEntity
  8
Defpoints
 62
     0
 48
0.6
100
AcDbPoint
 10
6942.622412341862
 20
420.4911748396607
 30
0.0
  0
POINT
  5
4B4
330
4AB
100
AcDbEntity
  8
Defpoints
 62
     0
 48
0.6
100
AcDbPoint
 10
6820.368741240013
 20
420.4911748396607
 30
0.0
  0
ENDBLK
  5
4B6
330
4AB
100
AcDbEntity
  8
0
100
AcDbBlockEnd
  0
BLOCK
  5
4BD
330
4B7
100
AcDbEntity
  8
0
100
AcDbBlockBegin
  2
*D63
 70
     1
 10
0.0
 20
0.0
 30
0.0
  3
*D63
  1

  0
LINE
  5
4BF
330
4B7
100
AcDbEntity
  8
2上模
 62
   104
 48
0.6
370
     9
100
AcDbLine
 10
7012.848510006867
 20
526.1137084464089
 30
0.0
 11
6932.770184899689
 21
434.1804005766976
 31
0.0
  0
MTEXT
  5
4C0
330
4B7
100
AcDbEntity
  8
2上模
 62
   200
 48
0.6
370
    25
100
AcDbMText
 10
6969.749132360279
 20
489.4434945848474
 30
0.0
 40
15.0
 41
0.0
 46
0.0
 71
     5
 72
     1
  1
\A1;R25 [R1”]
 11
0.6568151628114063
 21
0.7540516175309396
 31
0.0
 73
     1
 44
1.0
  0
SOLID
  5
4C1
330
4B7
100
AcDbEntity
  8
2上模
 62
   104
 48
0.6
100
AcDbTrace
 10
6931.513432203805
 20
435.2750925147165
 30
0.0
 11
6934.026937595574
 21
433.0857086386782
 31
0.0
 12
6926.202033271576
 22
426.6398844013878
 32
0.0
 13
6926.202033271576
 23
426.6398844013878
 33
0.0
  0
POINT
  5
4C2
330
4B7
100
AcDbEntity
  8
Defpoints
 62
     0
 48
0.6
100
AcDbPoint
 10
6926.202033271576
 20
426.6398844013878
 30
0.0
  0
POINT
  5
4C3
330
4B7
100
AcDbEntity
  8
Defpoints
 62
     0
 48
0.6
100
AcDbPoint
 10
6942.622412341861
 20
445.4911748396616
 30
0.0
  0
ENDBLK
  5
4BE
330
4B7
100
AcDbEntity
  8
0
100
AcDbBlockEnd
  0
BLOCK
  5
4C6
330
4C5
100
AcDbEntity
  8
0
100
AcDbBlockBegin
  2
*D64
 70
     1
 10
0.0
 20
0.0
 30
0.0
  3
*D64
  1

  0
LINE
  5
4C7
330
4C5
100
AcDbEntity
  8
2上模
 62
   104
 48
0.6
370
     9
100
AcDbLine
 10
6463.581114553844
 20
9980.958504252964
 30
0.0
 11
6463.581114553844
 21
10083.7749492403
 31
0.0
  0
LINE
  5
4C8
330
4C5
100
AcDbEntity
  8
2上模
 62
   104
 48
0.6
370
     9
100
AcDbLine
 10
7195.127213146355
 20
9972.557239998597
 30
0.0
 11
7195.127213146355
 21
10083.7749492403
 31
0.0
  0
LINE
  5
4C9
330
4C5
100
AcDbEntity
  8
2上模
 62
   104
 48
0.6
370
     9
100
AcDbLine
 10
6473.581114553843
 20
10082.5249492403
 30
0.0
 11
7185.127213146356
 21
10082.5249492403
 31
0.0
  0
SOLID
  5
4CA
330
4C5
100
AcDbEntity
  8
2上模
 62
   104
 48
0.6
100
AcDbTrace
 10
6473.581114553843
 20
10084.19161590697
 30
0.0
 11
6473.581114553843
 21
10080.85828257363
 31
0.0
 12
6463.581114553844
 22
10082.5249492403
 32
0.0
 13
6463.581114553844
 23
10082.5249492403
 33
0.0
  0
SOLID
  5
4CB
330
4C5
100
AcDbEntity
  8
2上模
 62
   104
 48
0.6
100
AcDbTrace
 10
7185.127213146356
 20
10084.19161590697
 30
0.0
 11
7185.127213146356
 21
10080.85828257363
 31
0.0
 12
7195.127213146355
 22
10082.5249492403
 32
0.0
 13
7195.127213146355
 23
10082.5249492403
 33
0.0
  0
MTEXT
  5
4CC
330
4C5
100
AcDbEntity
  8
2上模
 62
   200
 48
0.6
370
    25
100
AcDbMText
 10
6829.3541638501
 20
10090.93855218148
 30
0.0
 40
15.0
 41
0.0
 46
0.0
 71
     5
 72
     1
  1
\A1;731.55 [28 3/4”]
 73
     1
 44
1.0
  0
POINT
  5
4CD
330
4C5
100
AcDbEntity
  8
Defpoints
 62
     0
 48
0.6
100
AcDbPoint
 10
6463.581114553844
 20
9978.958504252965
 30
0.0
  0
POINT
  5
4CE
330
4C5
100
AcDbEntity
  8
Defpoints
 62
     0
 48
0.6
100
AcDbPoint
 10
7195.127213146355
 20
9970.557239998596
 30
0.0
  0
POINT
  5
4CF
330
4C5
100
AcDbEntity
  8
Defpoints
 62
     0
 48
0.6
100
AcDbPoint
 10
7195.127213146355
 20
10082.5249492403
 30
0.0
  0
ENDBLK
  5
4D0
330
4C5
100
AcDbEntity
  8
0
100
AcDbBlockEnd
  0
BLOCK
  5
4D2
330
4D1
100
AcDbEntity
  8
0
100
AcDbBlockBegin
  2
*D65
 70
     1
 10
0.0
 20
0.0
 30
0.0
  3
*D65
  1

  0
LINE
  5
4D3
330
4D1
100
AcDbEntity
  8
2上模
 62
   104
 48
0.6
370
     9
100
AcDbLine
 10
6485.127213146355
 20
9995.557239998596
 30
0.0
 11
6363.623542044523
 21
9995.557239998596
 31
0.0
  0
LINE
  5
4D4
330
4D1
100
AcDbEntity
  8
2上模
 62
   104
 48
0.6
370
     9
100
AcDbLine
 10
6485.127213146371
 20
9592.557239998603
 30
0.0
 11
6363.623542044523
 21
9592.557239998603
 31
0.0
  0
LINE
  5
4D5
330
4D1
100
AcDbEntity
  8
2上模
 62
   104
 48
0.6
370
     9
100
AcDbLine
 10
6364.873542044523
 20
9985.557239998597
 30
0.0
 11
6364.873542044523
 21
9602.557239998603
 31
0.0
  0
SOLID
  5
4D6
330
4D1
100
AcDbEntity
  8
2上模
 62
   104
 48
0.6
100
AcDbTrace
 10
6363.206875377856
 20
9985.557239998597
 30
0.0
 11
6366.54020871119
 21
9985.557239998597
 31
0.0
 12
6364.873542044523
 22
9995.557239998596
 32
0.0
 13
6364.873542044523
 23
9995.557239998596
 33
0.0
  0
SOLID
  5
4D7
330
4D1
100
AcDbEntity
  8
2上模
 62
   104
 48
0.6
100
AcDbTrace
 10
6363.206875377856
 20
9602.557239998603
 30
0.0
 11
6366.54020871119
 21
9602.557239998603
 31
0.0
 12
6364.873542044523
 22
9592.557239998603
 32
0.0
 13
6364.873542044523
 23
9592.557239998603
 33
0.0
  0
MTEXT
  5
4D8
330
4D1
100
AcDbEntity
  8
2上模
 62
   200
 48
0.6
370
    25
100
AcDbMText
 10
6356.459939103345
 20
9794.057239998601
 30
0.0
 40
15.0
 41
0.0
 46
0.0
 71
     5
 72
     1
  1
\A1;403 [15 7/8”]
 11
0.0000000000000001
 21
1.0
 31
0.0
 73
     1
 44
1.0
  0
POINT
  5
4D9
330
4D1
100
AcDbEntity
  8
Defpoints
 62
     0
 48
0.6
100
AcDbPoint
 10
6487.127213146355
 20
9995.557239998596
 30
0.0
  0
POINT
  5
4DA
330
4D1
100
AcDbEntity
  8
Defpoints
 62
     0
 48
0.6
100
AcDbPoint
 10
6487.127213146372
 20
9592.557239998603
 30
0.0
  0
POINT
  5
4DB
330
4D1
100
AcDbEntity
  8
Defpoints
 62
     0
 48
0.6
100
AcDbPoint
 10
6364.873542044523
 20
9592.557239998603
 30
0.0
  0
ENDBLK
  5
4DC
330
4D1
100
AcDbEntity
  8
0
100
AcDbBlockEnd
  0
BLOCK
  5
4DE
330
4DD
100
AcDbEntity
  8
0
100
AcDbBlockBegin
  2
*D66
 70
     1
 10
0.0
 20
0.0
 30
0.0
  3
*D66
  1

  0
LINE
  5
4DF
330
4DD
100
AcDbEntity
  8
2上模
 62
   104
 48
0.6
370
     9
100
AcDbLine
 10
6557.353310811379
 20
9698.179773605346
 30
0.0
 11
6477.274985704198
 21
9606.246465735637
 31
0.0
  0
MTEXT
  5
4E0
330
4DD
100
AcDbEntity
  8
2上模
 62
   200
 48
0.6
370
    25
100
AcDbMText
 10
6514.253933164788
 20
9661.509559743787
 30
0.0
 40
15.0
 41
0.0
 46
0.0
 71
     5
 72
     1
  1
\A1;R25 [R1”]
 11
0.656815162811442
 21
0.7540516175309083
 31
0.0
 73
     1
 44
1.0
  0
SOLID
  5
4E1
330
4DD
100
AcDbEntity
  8
2上模
 62
   104
 48
0.6
100
AcDbTrace
 10
6476.018233008314
 20
9607.341157673658
 30
0.0
 11
6478.531738400085
 21
9605.15177379762
 31
0.0
 12
6470.706834076084
 22
9598.705949560327
 32
0.0
 13
6470.706834076084
 23
9598.705949560327
 33
0.0
  0
POINT
  5
4E2
330
4DD
100
AcDbEntity
  8
Defpoints
 62
     0
 48
0.6
100
AcDbPoint
 10
6470.706834076084
 20
9598.705949560327
 30
0.0
  0
POINT
  5
4E3
330
4DD
100
AcDbEntity
  8
Defpoints
 62
     0
 48
0.6
100
AcDbPoint
 10
6487.127213146369
 20
9617.5572399986
 30
0.0
  0
ENDBLK
  5
4E4
330
4DD
100
AcDbEntity
  8
0
100
AcDbBlockEnd
  0
BLOCK
  5
509
330
4FF
100
AcDbEntity
  8
0
100
AcDbBlockBegin
  2
*D68
 70
     1
 10
0.0
 20
0.0
 30
0.0
  3
*D68
  1

  0
LINE
  5
52E
330
4FF
100
AcDbEntity
  8
2上模
 62
   104
 48
0.6
370
     9
100
AcDbLine
 10
7820.2653898187
 20
806.2248196088104
 30
0.0
 11
7820.2653898187
 21
942.6626643601794
 31
0.0
  0
LINE
  5
52F
330
4FF
100
AcDbEntity
  8
2上模
 62
   104
 48
0.6
370
     9
100
AcDbLine
 10
8553.265389818697
 20
814.9366062222885
 30
0.0
 11
8553.265389818697
 21
942.6626643601794
 31
0.0
  0
LINE
  5
530
330
4FF
100
AcDbEntity
  8
2上模
 62
   104
 48
0.6
370
     9
100
AcDbLine
 10
7830.265389818698
 20
941.4126643601793
 30
0.0
 11
8543.265389818698
 21
941.4126643601793
 31
0.0
  0
SOLID
  5
531
330
4FF
100
AcDbEntity
  8
2上模
 62
   104
 48
0.6
100
AcDbTrace
 10
7830.265389818698
 20
943.0793310268461
 30
0.0
 11
7830.265389818698
 21
939.7459976935127
 31
0.0
 12
7820.2653898187
 22
941.4126643601793
 32
0.0
 13
7820.2653898187
 23
941.4126643601793
 33
0.0
  0
SOLID
  5
532
330
4FF
100
AcDbEntity
  8
2上模
 62
   104
 48
0.6
100
AcDbTrace
 10
8543.265389818698
 20
943.0793310268461
 30
0.0
 11
8543.265389818698
 21
939.7459976935127
 31
0.0
 12
8553.265389818697
 22
941.4126643601793
 32
0.0
 13
8553.265389818697
 23
941.4126643601793
 33
0.0
  0
MTEXT
  5
533
330
4FF
100
AcDbEntity
  8
2上模
 62
   200
 48
0.6
370
    25
100
AcDbMText
 10
8186.765389818699
 20
949.8262673013558
 30
0.0
 40
15.0
 41
0.0
 46
0.0
 71
     5
 72
     1
  1
\A1;733 [28 7/8”]
 73
     1
 44
1.0
  0
POINT
  5
534
330
4FF
100
AcDbEntity
  8
Defpoints
 62
     0
 48
0.6
100
AcDbPoint
 10
7820.2653898187
 20
804.2248196088104
 30
0.0
  0
POINT
  5
535
330
4FF
100
AcDbEntity
  8
Defpoints
 62
     0
 48
0.6
100
AcDbPoint
 10
8553.265389818697
 20
812.9366062222883
 30
0.0
  0
POINT
  5
536
330
4FF
100
AcDbEntity
  8
Defpoints
 62
     0
 48
0.6
100
AcDbPoint
 10
8553.265389818697
 20
941.4126643601793
 30
0.0
  0
ENDBLK
  5
50A
330
4FF
100
AcDbEntity
  8
0
100
AcDbBlockEnd
  0
BLOCK
  5
515
330
50B
100
AcDbEntity
  8
0
100
AcDbBlockBegin
  2
*D69
 70
     1
 10
0.0
 20
0.0
 30
0.0
  3
*D69
  1

  0
LINE
  5
50C
330
50B
100
AcDbEntity
  8
2上模
 62
   104
 48
0.6
370
     9
100
AcDbLine
 10
7843.2653898187
 20
837.9366062222883
 30
0.0
 11
7721.761718716867
 21
837.9366062222883
 31
0.0
  0
LINE
  5
50D
330
50B
100
AcDbEntity
  8
2上模
 62
   104
 48
0.6
370
     9
100
AcDbLine
 10
7843.265389818715
 20
434.9366062222957
 30
0.0
 11
7721.761718716867
 21
434.9366062222958
 31
0.0
  0
LINE
  5
50E
330
50B
100
AcDbEntity
  8
2上模
 62
   104
 48
0.6
370
     9
100
AcDbLine
 10
7723.011718716866
 20
827.9366062222884
 30
0.0
 11
7723.011718716866
 21
444.9366062222957
 31
0.0
  0
SOLID
  5
50F
330
50B
100
AcDbEntity
  8
2上模
 62
   104
 48
0.6
100
AcDbTrace
 10
7721.3450520502
 20
827.9366062222884
 30
0.0
 11
7724.678385383533
 21
827.9366062222884
 31
0.0
 12
7723.011718716866
 22
837.9366062222883
 32
0.0
 13
7723.011718716866
 23
837.9366062222883
 33
0.0
  0
SOLID
  5
510
330
50B
100
AcDbEntity
  8
2上模
 62
   104
 48
0.6
100
AcDbTrace
 10
7721.3450520502
 20
444.9366062222957
 30
0.0
 11
7724.678385383533
 21
444.9366062222957
 31
0.0
 12
7723.011718716866
 22
434.9366062222958
 32
0.0
 13
7723.011718716866
 23
434.9366062222958
 33
0.0
  0
MTEXT
  5
511
330
50B
100
AcDbEntity
  8
2上模
 62
   200
 48
0.6
370
    25
100
AcDbMText
 10
7714.598115775689
 20
636.4366062222933
 30
0.0
 40
15.0
 41
0.0
 46
0.0
 71
     5
 72
     1
  1
\A1;403 [15 7/8”]
 11
0.0000000000000001
 21
1.0
 31
0.0
 73
     1
 44
1.0
  0
POINT
  5
512
330
50B
100
AcDbEntity
  8
Defpoints
 62
     0
 48
0.6
100
AcDbPoint
 10
7845.265389818699
 20
837.9366062222883
 30
0.0
  0
POINT
  5
513
330
50B
100
AcDbEntity
  8
Defpoints
 62
     0
 48
0.6
100
AcDbPoint
 10
7845.265389818715
 20
434.9366062222957
 30
0.0
  0
POINT
  5
514
330
50B
100
AcDbEntity
  8
Defpoints
 62
     0
 48
0.6
100
AcDbPoint
 10
7723.011718716866
 20
434.9366062222958
 30
0.0
  0
ENDBLK
  5
516
330
50B
100
AcDbEntity
  8
0
100
AcDbBlockEnd
  0
BLOCK
  5
51D
330
517
100
AcDbEntity
  8
0
100
AcDbBlockBegin
  2
*D70
 70
     1
 10
0.0
 20
0.0
 30
0.0
  3
*D70
  1

  0
LINE
  5
528
330
517
100
AcDbEntity
  8
2上模
 62
   104
 48
0.6
370
     9
100
AcDbLine
 10
7915.491487483724
 20
540.5591398290398
 30
0.0
 11
7835.413162376544
 21
448.6258319593335
 31
0.0
  0
MTEXT
  5
529
330
517
100
AcDbEntity
  8
2上模
 62
   200
 48
0.6
370
    25
100
AcDbMText
 10
7872.392109837135
 20
503.8889259674824
 30
0.0
 40
15.0
 41
0.0
 46
0.0
 71
     5
 72
     1
  1
\A1;R25 [R1”]
 11
0.656815162811442
 21
0.7540516175309083
 31
0.0
 73
     1
 44
1.0
  0
SOLID
  5
52A
330
517
100
AcDbEntity
  8
2上模
 62
   104
 48
0.6
100
AcDbTrace
 10
7834.156409680659
 20
449.7205238973529
 30
0.0
 11
7836.66991507243
 21
447.531140021314
 31
0.0
 12
7828.845010748429
 22
441.0853157840238
 32
0.0
 13
7828.845010748429
 23
441.0853157840238
 33
0.0
  0
POINT
  5
52B
330
517
100
AcDbEntity
  8
Defpoints
 62
     0
 48
0.6
100
AcDbPoint
 10
7828.845010748429
 20
441.0853157840238
 30
0.0
  0
POINT
  5
52C
330
517
100
AcDbEntity
  8
Defpoints
 62
     0
 48
0.6
100
AcDbPoint
 10
7845.265389818715
 20
459.9366062222957
 30
0.0
  0
ENDBLK
  5
51E
330
517
100
AcDbEntity
  8
0
100
AcDbBlockEnd
  0
ENDSEC
  0
SECTION
  2
ENTITIES
  0
LWPOLYLINE
  5
4F4
102
{ACAD_REACTORS
330
4FA
330
4FD
330
4F7
102
}
330
1F
100
AcDbEntity
  8
6下模板
 48
0.6
370
    25
100
AcDbPolyline
 90
        8
 70
     1
 43
0.0
 10
7845.265389818699
 20
837.9366062222883
 10
8528.265389818697
 20
837.9366062222883
 42
-0.4142135623730982
 10
8553.265389818697
 20
812.9366062222883
 10
8553.265389818713
 20
459.9366062222957
 42
-0.4142135623731062
 10
8528.265389818713
 20
434.9366062222957
 10
7845.265389818713
 20
434.9366062222957
 42
-0.4142135623730839
 10
7820.265389818714
 20
459.9366062222957
 10
7820.2653898187
 20
812.9366062222883
 42
-0.4142135623730951
  0
DIMENSION
  5
4F5
102
{ACAD_XDICTIONARY
360
4F6
102
}
102
{ACAD_REACTORS
330
4F7
102
}
330
1F
100
AcDbEntity
  8
2上模
 48
0.6
370
    25
100
AcDbDimension
  2
*D68
 10
8553.265389818697
 20
941.4126643601793
 30
0.0
 11
8186.765389818699
 21
949.8262673013558
 31
0.0
 70
    32
 71
     5
 42
732.9999999999991
 73
     0
 74
     0
 75
     0
  3
usally
100
AcDbAlignedDimension
 13
7820.2653898187
 23
804.2248196088104
 33
0.0
 14
8553.265389818697
 24
812.9366062222883
 34
0.0
100
AcDbRotatedDimension
1001
ACAD
1000
DSTYLE
1002
{
1070
     4
1000
”
1070
    41
1040
10.0
1070
    50
1040
1.570796326794896
1070
   140
1040
15.0
1070
   143
1040
0.03937007874
1070
   170
1070
     1
1070
   171
1070
     3
1070
   273
1070
     7
1070
   274
1070
     3
1070
   345
1005
15
1070
   346
1005
15
1070
   347
1005
15
1002
}
  0
DIMENSION
  5
4F8
102
{ACAD_XDICTIONARY
360
4F9
102
}
102
{ACAD_REACTORS
330
4FA
102
}
330
1F
100
AcDbEntity
  8
2上模
 48
0.6
370
    25
100
AcDbDimension
  2
*D69
 10
7723.011718716866
 20
434.9366062222958
 30
0.0
 11
7714.598115775689
 21
636.4366062222933
 31
0.0
 70
    32
 71
     5
 42
402.9999999999926
 73
     0
 74
     0
 75
     0
  3
usally
100
AcDbAlignedDimension
 13
7845.265389818699
 23
837.9366062222883
 33
0.0
 14
7845.265389818715
 24
434.9366062222957
 34
0.0
 50
90.0
100
AcDbRotatedDimension
1001
ACAD
1000
DSTYLE
1002
{
1070
     4
1000
”
1070
    41
1040
10.0
1070
    50
1040
1.570796326794896
1070
   140
1040
15.0
1070
   143
1040
0.03937007874
1070
   170
1070
     1
1070
   171
1070
     3
1070
   273
1070
     7
1070
   274
1070
     3
1070
   345
1005
15
1070
   346
1005
15
1070
   347
1005
15
1002
}
  0
DIMENSION
  5
4FB
102
{ACAD_XDICTIONARY
360
4FC
102
}
102
{ACAD_REACTORS
330
4FD
102
}
330
1F
100
AcDbEntity
  8
2上模
 48
0.6
370
    25
100
AcDbDimension
  2
*D70
 10
7845.265389818715
 20
459.9366062222957
 30
0.0
 11
7878.736400744192
 21
498.3627439818424
 31
0.0
 70
   164
 71
     5
 42
24.99999999999818
 73
     0
 74
     0
 75
     0
  3
usally
100
AcDbRadialDimension
 15
7828.845010748429
 25
441.0853157840238
 35
0.0
 40
0.0
1001
ACAD
1000
DSTYLE
1002
{
1070
     4
1000
”
1070
    41
1040
10.0
1070
    50
1040
1.570796326794896
1070
   140
1040
15.0
1070
   143
1040
0.03937007874
1070
   170
1070
     1
1070
   171
1070
     3
1070
   273
1070
     7
1070
   274
1070
     3
1070
   345
1005
15
1070
   346
1005
15
1070
   347
1005
15
1002
}
  0
MTEXT
  5
4FE
330
1F
100
AcDbEntity
  8
粗实
 62
     7
100
AcDbMText
 10
8177.207445333321
 20
615.9163515343675
 30
0.0
 40
50.0
 41
4349.275999927352
 46
0.0
 71
     5
 72
     5
  1
{\fFangSong|b0|i0|c134|p49;Flamingo\PMax}
 73
     1
 44
1.0
  0
ENDSEC
  0
SECTION
  2
OBJECTS
  0
DICTIONARY
  5
C
330
0
100
AcDbDictionary
281
     1
  3
ACAD_COLOR
350
6B
  3
ACAD_GROUP
350
D
  3
ACAD_LAYOUT
350
1A
  3
ACAD_MATERIAL
350
6A
  3
ACAD_MLINESTYLE
350
17
  3
ACAD_PLOTSETTINGS
350
19
  3
ACAD_PLOTSTYLENAME
350
E
  3
ACAD_TABLESTYLE
350
7E
  3
ACAD_VISUALSTYLE
350
F0
  3
AcDbVariableDictionary
350
5E
  0
DICTIONARY
  5
14E
330
2
100
AcDbDictionary
280
     1
281
     1
  3
ACAD_LAYERSTATES
360
14F
  0
DICTIONARY
  5
422
330
421
100
AcDbDictionary
280
     1
281
     1
  3
ADSK_XREC_LAYER_RECONCILED
360
423
  0
DICTIONARY
  5
4F6
330
4F5
100
AcDbDictionary
280
     1
281
     1
  3
ACAD_DIMASSOC
360
4F7
  0
DICTIONARY
  5
4F9
330
4F8
100
AcDbDictionary
280
     1
281
     1
  3
ACAD_DIMASSOC
360
4FA
  0
DICTIONARY
  5
4FC
330
4FB
100
AcDbDictionary
280
     1
281
     1
  3
ACAD_DIMASSOC
360
4FD
  0
DICTIONARY
  5
6B
102
{ACAD_REACTORS
330
C
102
}
330
C
100
AcDbDictionary
281
     1
  0
DICTIONARY
  5
D
102
{ACAD_REACTORS
330
C
102
}
330
C
100
AcDbDictionary
281
     1
  0
DICTIONARY
  5
1A
102
{ACAD_REACTORS
330
C
102
}
330
C
100
AcDbDictionary
281
     1
  3
Model
350
22
  3
布局1
350
D3
  3
布局2
350
D7
  0
DICTIONARY
  5
6A
102
{ACAD_REACTORS
330
C
102
}
330
C
100
AcDbDictionary
281
     1
  3
ByBlock
350
EE
  3
ByLayer
350
ED
  3
Global
350
EF
  0
DICTIONARY
  5
17
102
{ACAD_REACTORS
330
C
102
}
330
C
100
AcDbDictionary
281
     1
  3
Standard
350
18
  0
DICTIONARY
  5
19
102
{ACAD_REACTORS
330
C
102
}
330
C
100
AcDbDictionary
281
     1
  0
ACDBDICTIONARYWDFLT
  5
E
102
{ACAD_REACTORS
330
C
102
}
330
C
100
AcDbDictionary
281
     1
  3
Normal
350
F
100
AcDbDictionaryWithDefault
340
F
  0
DICTIONARY
  5
7E
102
{ACAD_REACTORS
330
C
102
}
330
C
100
AcDbDictionary
281
     1
  3
Standard
350
7F
  0
DICTIONARY
  5
F0
102
{ACAD_REACTORS
330
C
102
}
330
C
100
AcDbDictionary
281
     1
  3
2dWireframe
350
F6
  3
3D Hidden
350
F8
  3
3dWireframe
350
F7
  3
Basic
350
F5
  3
Brighten
350
FC
  3
ColorChange
350
100
  3
Conceptual
350
F9
  3
Dim
350
FB
  3
Facepattern
350
FF
  3
Flat
350
F1
  3
FlatWithEdges
350
F2
  3
Gouraud
350
F3
  3
GouraudWithEdges
350
F4
  3
Linepattern
350
FE
  3
Realistic
350
FA
  3
Thicken
350
FD
  0
DICTIONARY
  5
5E
102
{ACAD_REACTORS
330
C
102
}
330
C
100
AcDbDictionary
281
     1
  3
CTABLESTYLE
350
84
  3
DIMASSOC
350
5F
  3
HIDETEXT
350
63
  0
DICTIONARY
  5
14F
102
{ACAD_REACTORS
330
14E
102
}
330
14E
100
AcDbDictionary
281
     1
  0
XRECORD
  5
423
102
{ACAD_REACTORS
330
422
102
}
330
422
100
AcDbXrecord
280
     1
290
     1
  0
DIMASSOC
  5
4F7
102
{ACAD_REACTORS
330
4F6
102
}
330
4F6
100
AcDbDimAssoc
330
4F5
 90
        2
 70
     0
 71
     0
  1
AcDbOsnapPointRef
 72
     1
331
4F4
 73
     2
 91
        2
 40
0.0
 10
0.0
 20
0.0
 30
2.000000000000000E+50
 75
     0
  0
DIMASSOC
  5
4FA
102
{ACAD_REACTORS
330
4F9
102
}
330
4F9
100
AcDbDimAssoc
330
4F8
 90
        3
 70
     0
 71
     0
  1
AcDbOsnapPointRef
 72
     1
331
4F4
 73
     2
 91
        8
 40
1.570796326794896
 10
0.0
 20
0.0
 30
2.000000000000000E+50
 75
     0
  1
AcDbOsnapPointRef
 72
     8
331
4F4
 73
     2
 91
        6
 40
4.712388980384726
 10
0.0
 20
0.0
 30
0.0
 75
     1
  1
AcDbOsnapPointRef
 72
     1
331
4F4
 73
     2
 91
        8
 40
1.570796326794896
 10
0.0
 20
0.0
 30
2.000000000000000E+50
 75
     0
  0
DIMASSOC
  5
4FD
102
{ACAD_REACTORS
330
4FC
102
}
330
4FC
100
AcDbDimAssoc
330
4FB
 90
        2
 70
     0
 71
     0
  1
AcDbOsnapPointRef
 72
     3
331
4F4
 73
     2
 91
        6
 40
0.0
 10
0.0
 20
0.0
 30
0.0
 75
     0
  0
LAYOUT
  5
22
102
{ACAD_REACTORS
330
1A
102
}
330
1A
100
AcDbPlotSettings
  1

  2
none_device
  4
ISO_A4_(210.00_x_297.00_MM)
  6

 40
7.5
 41
20.0
 42
7.5
 43
20.0
 44
210.0
 45
297.0
 46
11.54999923706054
 47
-13.65000009536743
 48
0.0
 49
0.0
140
0.0
141
0.0
142
1.0
143
8.704084754739808
 70
 11952
 72
     1
 73
     0
 74
     0
  7

 75
     0
147
0.1148885871608098
 76
     0
 77
     2
 78
   300
148
0.0
149
0.0
100
AcDbLayout
  1
Model
 70
     1
 71
     0
 10
0.0
 20
0.0
 11
12.0
 21
9.0
 12
0.0
 22
0.0
 32
0.0
 14
0.0
 24
0.0
 34
0.0
 15
0.0
 25
0.0
 35
0.0
146
0.0
 13
0.0
 23
0.0
 33
0.0
 16
1.0
 26
0.0
 36
0.0
 17
0.0
 27
1.0
 37
0.0
 76
     0
330
1F
331
EB
1001
ACAD_PSEXT
1000
None
1000
None
1000
Not applicable
1000
The layout will not be plotted unless a new plotter configuration name is selected.
1070
     0
  0
LAYOUT
  5
D3
102
{ACAD_REACTORS
330
1A
102
}
330
1A
100
AcDbPlotSettings
  1

  2
C:\Documents and Settings\basas\Application Data\Autodesk\AutoCAD 2005\R16.1\enu\plotters\Default Windows System Printer.pc3
  4

  6

 40
0.0
 41
0.0
 42
0.0
 43
0.0
 44
0.0
 45
0.0
 46
0.0
 47
0.0
 48
0.0
 49
0.0
140
0.0
141
0.0
142
1.0
143
1.0
 70
   688
 72
     0
 73
     0
 74
     5
  7

 75
    16
147
1.0
 76
     0
 77
     2
 78
   300
148
0.0
149
0.0
100
AcDbLayout
  1
布局1
 70
     1
 71
     1
 10
0.0
 20
0.0
 11
12.0
 21
9.0
 12
0.0
 22
0.0
 32
0.0
 14
0.0
 24
0.0
 34
0.0
 15
0.0
 25
0.0
 35
0.0
146
0.0
 13
0.0
 23
0.0
 33
0.0
 16
1.0
 26
0.0
 36
0.0
 17
0.0
 27
1.0
 37
0.0
 76
     0
330
D2
  0
LAYOUT
  5
D7
102
{ACAD_REACTORS
330
1A
102
}
330
1A
100
AcDbPlotSettings
  1

  2
C:\Documents and Settings\basas\Application Data\Autodesk\AutoCAD 2005\R16.1\enu\plotters\Default Windows System Printer.pc3
  4

  6

 40
0.0
 41
0.0
 42
0.0
 43
0.0
 44
0.0
 45
0.0
 46
0.0
 47
0.0
 48
0.0
 49
0.0
140
0.0
141
0.0
142
1.0
143
1.0
 70
   688
 72
     0
 73
     0
 74
     5
  7

 75
    16
147
1.0
 76
     0
 77
     2
 78
   300
148
0.0
149
0.0
100
AcDbLayout
  1
布局2
 70
     1
 71
     2
 10
0.0
 20
0.0
 11
12.0
 21
9.0
 12
0.0
 22
0.0
 32
0.0
 14
0.0
 24
0.0
 34
0.0
 15
0.0
 25
0.0
 35
0.0
146
0.0
 13
0.0
 23
0.0
 33
0.0
 16
1.0
 26
0.0
 36
0.0
 17
0.0
 27
1.0
 37
0.0
 76
     0
330
D6
  0
MATERIAL
  5
EE
102
{ACAD_REACTORS
330
6A
102
}
330
6A
100
AcDbMaterial
  1
ByBlock
  0
MATERIAL
  5
ED
102
{ACAD_REACTORS
330
6A
102
}
330
6A
100
AcDbMaterial
  1
ByLayer
  0
MATERIAL
  5
EF
102
{ACAD_REACTORS
330
6A
102
}
330
6A
100
AcDbMaterial
  1
Global
  0
MLINESTYLE
  5
18
102
{ACAD_REACTORS
330
17
102
}
330
17
100
AcDbMlineStyle
  2
STANDARD
 70
     0
  3

 62
   256
 51
90.0
 52
90.0
 71
     2
 49
0.5
 62
   256
  6
BYLAYER
 49
-0.5
 62
   256
  6
BYLAYER
  0
ACDBPLACEHOLDER
  5
F
102
{ACAD_REACTORS
330
E
102
}
330
E
  0
TABLESTYLE
  5
7F
102
{ACAD_REACTORS
330
7E
102
}
330
7E
100
AcDbTableStyle
  3
Standard
 70
     0
 71
     0
 40
1.5
 41
1.5
280
     0
281
     0
  7
Standard
140
4.5
170
     2
 62
     0
 63
     7
283
     0
 90
      512
 91
        0
  1

274
    -2
284
     1
 64
     0
275
    -2
285
     1
 65
     0
276
    -2
286
     1
 66
     0
277
    -2
287
     1
 67
     0
278
    -2
288
     1
 68
     0
279
    -2
289
     1
 69
     0
  7
Standard
140
6.0
170
     5
 62
     0
 63
     7
283
     0
 90
      512
 91
        0
  1

274
    -2
284
     1
 64
     0
275
    -2
285
     1
 65
     0
276
    -2
286
     1
 66
     0
277
    -2
287
     1
 67
     0
278
    -2
288
     1
 68
     0
279
    -2
289
     1
 69
     0
  7
Standard
140
4.5
170
     5
 62
     0
 63
     7
283
     0
 90
      512
 91
        0
  1

274
    -2
284
     1
 64
     0
275
    -2
285
     1
 65
     0
276
    -2
286
     1
 66
     0
277
    -2
287
     1
 67
     0
278
    -2
288
     1
 68
     0
279
    -2
289
     1
 69
     0
  0
VISUALSTYLE
  5
F6
102
{ACAD_REACTORS
330
F0
102
}
330
F0
100
AcDbVisualStyle
  2
2dWireframe
 70
     4
 71
     0
 72
     2
 73
     1
 90
        0
 40
-0.6
 41
-30.0
 62
     5
 63
     7
421
 16777215
 74
     1
 91
        4
 64
     7
 65
   257
 75
     1
175
     1
 42
1.0
 92
        0
 66
   257
 43
1.0
 76
     1
 77
     6
 78
     2
 67
     7
 79
     5
170
     0
171
     0
290
     0
174
     0
 93
        1
 44
0.0
173
     0
291
     0
 45
0.0
  0
VISUALSTYLE
  5
F8
102
{ACAD_REACTORS
330
F0
102
}
330
F0
100
AcDbVisualStyle
  2
3D Hidden
 70
     6
 71
     1
 72
     2
 73
     2
 90
        0
 40
-0.6
 41
-30.0
 62
     5
 63
     7
421
 16777215
 74
     2
 91
        2
 64
     7
 65
   257
 75
     2
175
     1
 42
40.0
 92
        0
 66
   257
 43
1.0
 76
     1
 77
     6
 78
     2
 67
     7
 79
     3
170
     0
171
     0
290
     0
174
     0
 93
        1
 44
0.0
173
     0
291
     0
 45
0.0
  0
VISUALSTYLE
  5
F7
102
{ACAD_REACTORS
330
F0
102
}
330
F0
100
AcDbVisualStyle
  2
3dWireframe
 70
     5
 71
     0
 72
     2
 73
     1
 90
        0
 40
-0.6
 41
-30.0
 62
     5
 63
     7
421
 16777215
 74
     1
 91
        4
 64
     7
 65
   257
 75
     1
175
     1
 42
1.0
 92
        0
 66
   257
 43
1.0
 76
     1
 77
     6
 78
     2
 67
     7
 79
     5
170
     0
171
     0
290
     0
174
     0
 93
        1
 44
0.0
173
     0
291
     0
 45
0.0
  0
VISUALSTYLE
  5
F5
102
{ACAD_REACTORS
330
F0
102
}
330
F0
100
AcDbVisualStyle
  2
Basic
 70
     7
 71
     1
 72
     0
 73
     1
 90
        0
 40
-0.6
 41
-30.0
 62
     5
 63
     7
421
 16777215
 74
     0
 91
        4
 64
     7
 65
   257
 75
     1
175
     1
 42
1.0
 92
        8
 66
     7
 43
1.0
 76
     1
 77
     6
 78
     2
 67
     7
 79
     5
170
     0
171
     0
290
     0
174
     0
 93
        1
 44
0.0
173
     0
291
     1
 45
0.0
  0
VISUALSTYLE
  5
FC
102
{ACAD_REACTORS
330
F0
102
}
330
F0
100
AcDbVisualStyle
  2
Brighten
 70
    12
 71
     2
 72
     2
 73
     1
 90
        0
 40
-0.6
 41
-30.0
 62
     5
 63
     7
421
 16777215
 74
     1
 91
        4
 64
     7
 65
   257
 75
     1
175
     1
 42
1.0
 92
        8
 66
     7
 43
1.0
 76
     1
 77
     6
 78
     2
 67
     7
 79
     5
170
     0
171
     0
290
     0
174
     0
 93
        1
 44
50.0
173
     0
291
     1
 45
0.0
  0
VISUALSTYLE
  5
100
102
{ACAD_REACTORS
330
F0
102
}
330
F0
100
AcDbVisualStyle
  2
ColorChange
 70
    16
 71
     2
 72
     2
 73
     3
 90
        0
 40
-0.6
 41
-30.0
 62
     5
 63
     8
421
  8421504
 74
     1
 91
        4
 64
     7
 65
   257
 75
     1
175
     1
 42
1.0
 92
        8
 66
     8
424
  8421504
 43
1.0
 76
     1
 77
     6
 78
     2
 67
     7
 79
     5
170
     0
171
     0
290
     0
174
     0
 93
        1
 44
0.0
173
     0
291
     1
 45
0.0
  0
VISUALSTYLE
  5
F9
102
{ACAD_REACTORS
330
F0
102
}
330
F0
100
AcDbVisualStyle
  2
Conceptual
 70
     9
 71
     3
 72
     2
 73
     1
 90
        0
 40
-0.6
 41
-30.0
 62
     5
 63
     7
421
 16777215
 74
     2
 91
        2
 64
     7
 65
   257
 75
     1
175
     1
 42
40.0
 92
        8
 66
     7
 43
1.0
 76
     1
 77
     6
 78
     2
 67
     7
 79
     3
170
     0
171
     0
290
     0
174
     0
 93
        1
 44
0.0
173
     0
291
     0
 45
0.0
  0
VISUALSTYLE
  5
FB
102
{ACAD_REACTORS
330
F0
102
}
330
F0
100
AcDbVisualStyle
  2
Dim
 70
    11
 71
     2
 72
     2
 73
     1
 90
        0
 40
-0.6
 41
-30.0
 62
     5
 63
     7
421
 16777215
 74
     1
 91
        4
 64
     7
 65
   257
 75
     1
175
     1
 42
1.0
 92
        8
 66
     7
 43
1.0
 76
     1
 77
     6
 78
     2
 67
     7
 79
     5
170
     0
171
     0
290
     0
174
     0
 93
        1
 44
-50.0
173
     0
291
     1
 45
0.0
  0
VISUALSTYLE
  5
FF
102
{ACAD_REACTORS
330
F0
102
}
330
F0
100
AcDbVisualStyle
  2
Facepattern
 70
    15
 71
     2
 72
     2
 73
     1
 90
        0
 40
-0.6
 41
-30.0
 62
     5
 63
     7
421
 16777215
 74
     1
 91
        4
 64
     7
 65
   257
 75
     1
175
     1
 42
1.0
 92
        8
 66
     7
 43
1.0
 76
     1
 77
     6
 78
     2
 67
     7
 79
     5
170
     0
171
     0
290
     0
174
     0
 93
        1
 44
0.0
173
     0
291
     1
 45
0.0
  0
VISUALSTYLE
  5
F1
102
{ACAD_REACTORS
330
F0
102
}
330
F0
100
AcDbVisualStyle
  2
Flat
 70
     0
 71
     2
 72
     1
 73
     1
 90
        2
 40
-0.6
 41
30.0
 62
     5
 63
     7
421
 16777215
 74
     0
 91
        4
 64
     7
 65
   257
 75
     1
175
     1
 42
1.0
 92
        8
 66
     7
 43
1.0
 76
     1
 77
     6
 78
     2
 67
     7
 79
     5
170
     0
171
     0
290
     0
174
     0
 93
        1
 44
0.0
173
     0
291
     1
 45
0.0
  0
VISUALSTYLE
  5
F2
102
{ACAD_REACTORS
330
F0
102
}
330
F0
100
AcDbVisualStyle
  2
FlatWithEdges
 70
     1
 71
     2
 72
     1
 73
     1
 90
        2
 40
-0.6
 41
30.0
 62
     5
 63
     7
421
 16777215
 74
     1
 91
        4
 64
     7
 65
   257
 75
     1
175
     1
 42
1.0
 92
        0
 66
   257
 43
1.0
 76
     1
 77
     6
 78
     2
 67
     7
 79
     5
170
     0
171
     0
290
     0
174
     0
 93
        1
 44
0.0
173
     0
291
     1
 45
0.0
  0
VISUALSTYLE
  5
F3
102
{ACAD_REACTORS
330
F0
102
}
330
F0
100
AcDbVisualStyle
  2
Gouraud
 70
     2
 71
     2
 72
     2
 73
     1
 90
        2
 40
-0.6
 41
30.0
 62
     5
 63
     7
421
 16777215
 74
     0
 91
        4
 64
     7
 65
   257
 75
     1
175
     1
 42
1.0
 92
        0
 66
     7
 43
1.0
 76
     1
 77
     6
 78
     2
 67
     7
 79
     5
170
     0
171
     0
290
     0
174
     0
 93
        1
 44
0.0
173
     0
291
     1
 45
0.0
  0
VISUALSTYLE
  5
F4
102
{ACAD_REACTORS
330
F0
102
}
330
F0
100
AcDbVisualStyle
  2
GouraudWithEdges
 70
     3
 71
     2
 72
     2
 73
     1
 90
        2
 40
-0.6
 41
30.0
 62
     5
 63
     7
421
 16777215
 74
     1
 91
        4
 64
     7
 65
   257
 75
     1
175
     1
 42
1.0
 92
        0
 66
   257
 43
1.0
 76
     1
 77
     6
 78
     2
 67
     7
 79
     5
170
     0
171
     0
290
     0
174
     0
 93
        1
 44
0.0
173
     0
291
     1
 45
0.0
  0
VISUALSTYLE
  5
FE
102
{ACAD_REACTORS
330
F0
102
}
330
F0
100
AcDbVisualStyle
  2
Linepattern
 70
    14
 71
     2
 72
     2
 73
     1
 90
        0
 40
-0.6
 41
-30.0
 62
     5
 63
     7
421
 16777215
 74
     1
 91
        4
 64
     7
 65
   257
 75
     7
175
     7
 42
1.0
 92
        8
 66
     7
 43
1.0
 76
     1
 77
     6
 78
     2
 67
     7
 79
     5
170
     0
171
     0
290
     0
174
     0
 93
        1
 44
0.0
173
     0
291
     1
 45
0.0
  0
VISUALSTYLE
  5
FA
102
{ACAD_REACTORS
330
F0
102
}
330
F0
100
AcDbVisualStyle
  2
Realistic
 70
     8
 71
     2
 72
     2
 73
     1
 90
        0
 40
-0.6
 41
-30.0
 62
     5
 63
     7
421
 16777215
 74
     1
 91
        0
 64
     7
 65
   257
 75
     1
175
     1
 42
1.0
 92
        8
 66
     8
424
  7895160
 43
1.0
 76
     1
 77
     6
 78
     2
 67
     7
 79
     5
170
     0
171
     0
290
     0
174
     0
 93
       13
 44
0.0
173
     0
291
     0
 45
0.0
  0
VISUALSTYLE
  5
FD
102
{ACAD_REACTORS
330
F0
102
}
330
F0
100
AcDbVisualStyle
  2
Thicken
 70
    13
 71
     2
 72
     2
 73
     1
 90
        0
 40
-0.6
 41
-30.0
 62
     5
 63
     7
421
 16777215
 74
     1
 91
        4
 64
     7
 65
   257
 75
     1
175
     1
 42
1.0
 92
       12
 66
     7
 43
1.0
 76
     1
 77
     6
 78
     2
 67
     7
 79
     5
170
     0
171
     0
290
     0
174
     0
 93
        1
 44
0.0
173
     0
291
     1
 45
0.0
  0
DICTIONARYVAR
  5
84
102
{ACAD_REACTORS
330
5E
102
}
330
5E
100
DictionaryVariables
280
     0
  1
STANDARD
  0
DICTIONARYVAR
  5
5F
102
{ACAD_REACTORS
330
5E
102
}
330
5E
100
DictionaryVariables
280
     0
  1
2
  0
DICTIONARYVAR
  5
63
102
{ACAD_REACTORS
330
5E
102
}
330
5E
100
DictionaryVariables
280
     0
  1
1
  0
ENDSEC
  0
EOF
